osu file format v14

[General]
AudioFilename: audio.mp3
AudioLeadIn: 0
PreviewTime: 44667
Countdown: 0
SampleSet: Normal
StackLeniency: 0.7
Mode: 1
LetterboxInBreaks: 0
WidescreenStoryboard: 0

[Editor]
DistanceSpacing: 1.4
BeatDivisor: 8
GridSize: 32
TimelineZoom: 1.5

[Metadata]
Title:Barracuda
TitleUnicode:Barracuda
Artist:Noisestorm
ArtistUnicode:Noisestorm
Creator:jmagine
Version:Oni
Source:
Tags:monstercat mc022 mcs335 contact electronic instrumental breakbeat bass dance drum & bass dnb drumstep dubstep edm electro island just shapes and beats jsab h_o_n_e_y honey fiscia
BeatmapID:2877473
BeatmapSetID:1392694

[Difficulty]
HPDrainRate:6.5
CircleSize:5
OverallDifficulty:5
ApproachRate:5
SliderMultiplier:1.4
SliderTickRate:1

[Events]
//Background and Video events
0,0,"barracuda-bg.jpg",0,0
//Break Periods
//Storyboard Layer 0 (Background)
//Storyboard Layer 1 (Fail)
//Storyboard Layer 2 (Pass)
//Storyboard Layer 3 (Foreground)
//Storyboard Layer 4 (Overlay)
//Storyboard Sound Samples

[TimingPoints]
475,461.538461538462,4,1,0,70,1,0
475,-100,4,1,0,70,0,0
5955,-99.009900990099,4,1,0,70,0,0
6071,-98.0392156862745,4,1,0,70,0,0
6186,-97.0873786407767,4,1,0,70,0,0
6301,-96.1538461538461,4,1,0,70,0,0
6417,-95.2380952380952,4,1,0,70,0,0
6648,-94.3396226415094,4,1,0,70,0,0
6763,-93.4579439252336,4,1,0,70,0,0
6878,-92.5925925925926,4,1,0,70,0,0
6994,-91.743119266055,4,1,0,70,0,0
7109,-90.9090909090909,4,1,0,70,0,0
7801,-90.9090909090909,4,1,0,75,0,0
11494,-90.0900900900901,4,1,0,76,0,0
11609,-89.2857142857143,4,1,0,77,0,0
11725,-88.4955752212389,4,1,0,78,0,0
11840,-87.719298245614,4,1,0,79,0,0
11955,-86.9565217391304,4,1,0,80,0,0
12186,-86.2068965517241,4,1,0,80,0,0
12301,-85.4700854700855,4,1,0,80,0,0
12417,-84.7457627118644,4,1,0,80,0,0
12532,-84.0336134453781,4,1,0,80,0,0
12648,-83.3333333333333,4,1,0,80,0,0
14032,-81.9672131147541,4,1,0,84,0,0
14263,-80.6451612903226,4,1,0,86,0,0
14494,-79.3650793650794,4,1,0,88,0,0
14725,-78.125,4,1,0,90,0,0
15186,-74.0740740740741,4,1,0,100,0,0
15648,-83.3333333333333,4,1,0,100,0,0
17032,-74.0740740740741,4,1,0,100,0,0
17494,-83.3333333333333,4,1,0,100,0,0
18878,-74.0740740740741,4,1,0,100,0,0
19340,-83.3333333333333,4,1,0,100,0,0
20725,-74.0740740740741,4,1,0,100,0,0
21186,-83.3333333333333,4,1,0,100,0,0
22571,-74.0740740740741,4,1,0,100,0,0
23032,-83.3333333333333,4,1,0,100,0,0
24417,-74.0740740740741,4,1,0,100,0,0
24878,-83.3333333333333,4,1,0,100,0,0
26263,-74.0740740740741,4,1,0,100,0,0
26725,-83.3333333333333,4,1,0,100,0,0
28109,-74.0740740740741,4,1,0,100,0,0
28571,-83.3333333333333,4,1,0,90,0,0
29955,-83.3333333333333,4,1,0,80,0,0
30186,-82.9021042212093,4,1,0,80,0,0
30301,-82.6881589729469,4,1,0,81,0,0
30417,-82.4753151381792,4,1,0,81,0,0
30647,-82.0528978621938,4,1,0,81,0,0
30878,-81.6348522041818,4,1,0,81,0,0
31109,-81.2209787290379,4,1,0,82,0,0
31340,-80.8112806082827,4,1,0,82,0,0
31455,-80.6079776103281,4,1,0,82,0,0
31570,-80.4056949745637,4,1,0,82,0,0
31686,-80.2044250385382,4,1,0,83,0,0
31801,-80.0041602163312,4,1,0,83,0,0
32032,-79.6066159466381,4,1,0,83,0,0
32147,-79.4093217014559,4,1,0,83,0,0
32263,-79.213002972864,4,1,0,84,0,0
32493,-78.8232632673346,4,1,0,84,0,0
32724,-78.4374014630144,4,1,0,84,0,0
32955,-78.0552381309205,4,1,0,84,0,0
33186,-77.6767807013592,4,1,0,85,0,0
33301,-77.4889248954093,4,1,0,85,0,0
33417,-77.3019755292866,4,1,0,85,0,0
33532,-77.1159260581655,4,1,0,85,0,0
33647,-76.9307700000769,4,1,0,86,0,0
33878,-76.5631125049,4,1,0,86,0,0
33993,-76.3805984114363,4,1,0,86,0,0
34109,-76.1989524168022,4,1,0,86,0,0
34340,-75.8382400674657,4,1,0,87,0,0
34570,-75.4809836983719,4,1,0,87,0,0
34801,-75.127021010774,4,1,0,87,0,0
35032,-74.7763625935733,4,1,0,87,0,0
35147,-74.602258061147,4,1,0,88,0,0
35263,-74.4289623932782,4,1,0,88,0,0
35378,-74.2564699662282,4,1,0,88,0,0
35493,-74.0847752082708,4,1,0,88,0,0
35724,-73.743756669201,4,1,0,89,0,0
35840,-73.5744219993408,4,1,0,89,0,0
35955,-73.4058632199188,4,1,0,89,0,0
36186,-73.0710520989294,4,1,0,89,0,0
36417,-72.7393342314216,4,1,0,90,0,0
36647,-72.4105620942293,4,1,0,90,0,0
36878,-72.0847485972308,4,1,0,90,0,0
36993,-71.9229388863596,4,1,0,90,0,0
37109,-71.76185398185,4,1,0,90,0,0
37224,-71.6014890245658,4,1,0,91,0,0
37340,-71.4418391987083,4,1,0,91,0,0
37801,-71.4285714285714,4,1,0,91,0,0
38032,-70.8456132396282,4,1,0,91,0,0
38263,-70.2720935462109,4,1,0,92,0,0
38493,-69.7077849654249,4,1,0,92,0,0
38609,-69.4290157742724,4,1,0,92,0,0
38724,-69.1524673600354,4,1,0,92,0,0
38955,-68.6059275521405,4,1,0,93,0,0
39186,-68.0679590503158,4,1,0,93,0,0
39417,-67.5383617894964,4,1,0,93,0,0
39532,-67.2766415500538,4,1,0,93,0,0
39647,-67.016941882908,4,1,0,94,0,0
39878,-66.5035113854012,4,1,0,94,0,0
40109,-65.9978880675818,4,1,0,94,0,0
40340,-65.4998952001677,4,1,0,94,0,0
40455,-65.2537064105241,4,1,0,95,0,0
40570,-65.0093613480341,4,1,0,95,0,0
40686,-64.7668393782383,4,1,0,95,0,0
40801,-64.5261201734462,4,1,0,95,0,0
41032,-64.0500102480016,4,1,0,96,0,0
41263,-63.5808748728383,4,1,0,96,0,0
41378,-63.3488749239813,4,1,0,96,0,0
41493,-63.1185619066855,4,1,0,96,0,0
41724,-62.6629236013635,4,1,0,97,0,0
41955,-62.213816444356,4,1,0,97,0,0
42070,-61.9916683197778,4,1,0,97,0,0
42186,-61.7711010081044,4,1,0,97,0,0
42301,-61.5520976954895,4,1,0,98,0,0
42417,-61.3346418056919,4,1,0,98,0,0
42647,-60.9043071526018,4,1,0,98,0,0
42878,-60.4799690342559,4,1,0,98,0,0
42993,-60.2700096432015,4,1,0,99,0,0
43109,-60.0615029790505,4,1,0,99,0,0
43224,-59.8544340164719,4,1,0,99,0,0
43340,-59.6487879366291,4,1,0,99,0,0
43455,-59.4445501236447,4,1,0,100,0,0
43570,-59.2417061611374,4,1,0,100,0,0
43801,-58.840143099228,4,1,0,100,0,0
44725,-66.6666666666667,4,1,0,100,0,0
44782,-66.6666666666667,4,1,0,100,0,1
74321,-66.6666666666667,4,1,0,100,0,0
74725,-71.4285714285714,4,1,0,100,0,0
76109,-64.5161290322581,4,1,0,100,0,0
76571,-71.4285714285714,4,1,0,100,0,0
77955,-64.5161290322581,4,1,0,100,0,0
78417,-71.4285714285714,4,1,0,100,0,0
79801,-70.9219858156028,4,1,0,100,0,0
79917,-70.4225352112676,4,1,0,100,0,0
80032,-69.9300699300699,4,1,0,100,0,0
80148,-69.4444444444444,4,1,0,100,0,0
80263,-68.9655172413793,4,1,0,100,0,0
80494,-68.4931506849315,4,1,0,100,0,0
80609,-68.0272108843537,4,1,0,100,0,0
80725,-67.5675675675676,4,1,0,100,0,0
80840,-67.1140939597315,4,1,0,100,0,0
80955,-66.6666666666667,4,1,0,100,0,0
81648,-64.5161290322581,4,1,0,100,0,0
82109,-71.4285714285714,4,1,0,100,0,0
83494,-64.5161290322581,4,1,0,100,0,0
83955,-71.4285714285714,4,1,0,100,0,0
89032,-64.5161290322581,4,1,0,100,0,0
89494,-71.4285714285714,4,1,0,100,0,0
90878,-64.5161290322581,4,1,0,100,0,0
91340,-71.4285714285714,4,1,0,100,0,0
92725,-64.5161290322581,4,1,0,100,0,0
93186,-71.4285714285714,4,1,0,100,0,0
94571,-70.9219858156028,4,1,0,100,0,0
94686,-70.4225352112676,4,1,0,100,0,0
94801,-69.9300699300699,4,1,0,100,0,0
94917,-69.4444444444444,4,1,0,100,0,0
95032,-68.9655172413793,4,1,0,100,0,0
95263,-68.4931506849315,4,1,0,100,0,0
95378,-68.0272108843537,4,1,0,100,0,0
95494,-67.5675675675676,4,1,0,100,0,0
95609,-67.1140939597315,4,1,0,100,0,0
95725,-66.6666666666667,4,1,0,100,0,0
96417,-64.5161290322581,4,1,0,100,0,0
96878,-71.4285714285714,4,1,0,100,0,0
98263,-64.5161290322581,4,1,0,100,0,0
98725,-71.4285714285714,4,1,0,100,0,0
100109,-70.4225352112676,4,1,0,100,0,0
100225,-69.4444444444444,4,1,0,100,0,0
100340,-68.4931506849315,4,1,0,100,0,0
100455,-67.5675675675676,4,1,0,100,0,0
100571,-66.6666666666667,4,1,0,100,0,0
102301,-64.9350649350649,4,1,0,100,0,0
102590,-63.2911392405063,4,1,0,100,0,0
102936,-61.7283950617284,4,1,0,100,0,0
103282,-60.2409638554217,4,1,0,100,0,0
103801,-58.8235294117647,4,1,0,100,0,0
104321,-58.8235294117647,4,1,0,80,0,0
104782,-58.8235294117647,4,1,0,60,0,0
105244,-58.8235294117647,4,1,0,40,0,0

[HitObjects]
256,192,475,5,4,0:0:0:0:
256,192,936,1,8,0:0:0:0:
256,192,1167,1,8,0:0:0:0:
256,192,1398,1,8,0:0:0:0:
256,192,1628,1,0,0:0:0:0:
256,192,1859,1,0,0:0:0:0:
256,192,2321,1,0,0:0:0:0:
256,192,2782,1,8,0:0:0:0:
256,192,3013,1,8,0:0:0:0:
256,192,3244,1,8,0:0:0:0:
256,192,3475,1,0,0:0:0:0:
256,192,3705,1,8,0:0:0:0:
256,192,4167,1,0,0:0:0:0:
256,192,4628,1,8,0:0:0:0:
256,192,4859,1,8,0:0:0:0:
256,192,5090,1,8,0:0:0:0:
256,192,5321,1,0,0:0:0:0:
256,192,5551,1,0,0:0:0:0:
256,192,6013,1,0,0:0:0:0:
256,192,6128,1,0,0:0:0:0:
256,192,6244,1,0,0:0:0:0:
256,192,6359,1,0,0:0:0:0:
256,192,6475,1,8,0:0:0:0:
256,192,6705,1,0,0:0:0:0:
256,192,6821,1,0,0:0:0:0:
256,192,6936,1,8,0:0:0:0:
256,192,7051,1,0,0:0:0:0:
256,192,7167,1,8,0:0:0:0:
256,192,7398,1,8,0:0:0:0:
256,192,7859,1,4,0:0:0:0:
256,192,8321,1,8,0:0:0:0:
256,192,8551,1,8,0:0:0:0:
256,192,8782,1,8,0:0:0:0:
256,192,9013,1,0,0:0:0:0:
256,192,9244,1,0,0:0:0:0:
256,192,9705,1,0,0:0:0:0:
256,192,10167,1,8,0:0:0:0:
256,192,10398,1,8,0:0:0:0:
256,192,10628,1,8,0:0:0:0:
256,192,10859,1,0,0:0:0:0:
256,192,11090,1,8,0:0:0:0:
256,192,11551,1,0,0:0:0:0:
256,192,11667,1,0,0:0:0:0:
256,192,11782,1,0,0:0:0:0:
256,192,11898,1,0,0:0:0:0:
256,192,12013,1,8,0:0:0:0:
256,192,12244,1,0,0:0:0:0:
256,192,12359,1,0,0:0:0:0:
256,192,12475,1,8,0:0:0:0:
256,192,12590,1,0,0:0:0:0:
256,192,12705,1,0,0:0:0:0:
256,192,12936,1,8,0:0:0:0:
256,192,13167,1,0,0:0:0:0:
256,192,13282,1,0,0:0:0:0:
256,192,13398,1,8,0:0:0:0:
256,192,13628,1,8,0:0:0:0:
256,192,13744,1,0,0:0:0:0:
256,192,13859,1,8,0:0:0:0:
256,192,14090,1,0,0:0:0:0:
256,192,14321,1,8,0:0:0:0:
256,192,14551,1,8,0:0:0:0:
256,192,14782,1,0,0:0:0:0:
256,192,15244,1,4,0:0:0:0:
256,192,15705,1,8,0:0:0:0:
256,192,15936,1,0,0:0:0:0:
256,192,16167,1,0,0:0:0:0:
256,192,16398,1,0,0:0:0:0:
256,192,16628,1,8,0:0:0:0:
256,192,17090,1,4,0:0:0:0:
256,192,17551,1,8,0:0:0:0:
256,192,17782,1,0,0:0:0:0:
256,192,18013,1,8,0:0:0:0:
256,192,18244,1,0,0:0:0:0:
256,192,18475,1,8,0:0:0:0:
256,192,18590,1,0,0:0:0:0:
256,192,18936,1,4,0:0:0:0:
256,192,19398,1,8,0:0:0:0:
256,192,19628,1,0,0:0:0:0:
256,192,19859,1,0,0:0:0:0:
256,192,20090,1,0,0:0:0:0:
256,192,20321,1,8,0:0:0:0:
256,192,20782,1,4,0:0:0:0:
256,192,21244,1,8,0:0:0:0:
256,192,21475,1,0,0:0:0:0:
256,192,21590,1,8,0:0:0:0:
256,192,21705,1,0,0:0:0:0:
256,192,21821,1,8,0:0:0:0:
256,192,21936,1,0,0:0:0:0:
256,192,22167,1,8,0:0:0:0:
256,192,22282,1,0,0:0:0:0:
256,192,22628,1,4,0:0:0:0:
256,192,23090,1,8,0:0:0:0:
256,192,23321,1,0,0:0:0:0:
256,192,23551,1,0,0:0:0:0:
256,192,23782,1,0,0:0:0:0:
256,192,24013,1,8,0:0:0:0:
256,192,24475,1,4,0:0:0:0:
256,192,24936,1,8,0:0:0:0:
256,192,25167,1,0,0:0:0:0:
256,192,25398,1,8,0:0:0:0:
256,192,25628,1,0,0:0:0:0:
256,192,25859,1,8,0:0:0:0:
256,192,25975,1,0,0:0:0:0:
256,192,26321,1,4,0:0:0:0:
256,192,26782,1,8,0:0:0:0:
256,192,27013,1,0,0:0:0:0:
256,192,27244,1,0,0:0:0:0:
256,192,27475,1,0,0:0:0:0:
256,192,27705,1,8,0:0:0:0:
256,192,28167,1,4,0:0:0:0:
256,192,28628,1,0,0:0:0:0:
256,192,28859,1,8,0:0:0:0:
256,192,29090,1,8,0:0:0:0:
256,192,29321,1,8,0:0:0:0:
256,192,29551,1,0,0:0:0:0:
256,192,30013,1,0,0:0:0:0:
256,192,30244,1,0,0:0:0:0:
256,192,30359,1,0,0:0:0:0:
256,192,30475,1,8,0:0:0:0:
256,192,30705,1,8,0:0:0:0:
256,192,30936,1,0,0:0:0:0:
256,192,31167,1,8,0:0:0:0:
256,192,31398,1,8,0:0:0:0:
256,192,31513,1,8,0:0:0:0:
256,192,31628,1,0,0:0:0:0:
256,192,31744,1,0,0:0:0:0:
256,192,31859,1,8,0:0:0:0:
256,192,32090,1,0,0:0:0:0:
256,192,32205,1,8,0:0:0:0:
256,192,32321,1,8,0:0:0:0:
256,192,32551,1,0,0:0:0:0:
256,192,32782,1,8,0:0:0:0:
256,192,33013,1,8,0:0:0:0:
256,192,33244,1,8,0:0:0:0:
256,192,33359,1,8,0:0:0:0:
256,192,33475,1,0,0:0:0:0:
256,192,33590,1,0,0:0:0:0:
256,192,33705,1,8,0:0:0:0:
256,192,33936,1,0,0:0:0:0:
256,192,34051,1,8,0:0:0:0:
256,192,34167,1,8,0:0:0:0:
256,192,34398,1,8,0:0:0:0:
256,192,34628,1,0,0:0:0:0:
256,192,34859,1,8,0:0:0:0:
256,192,35090,1,8,0:0:0:0:
256,192,35205,1,8,0:0:0:0:
256,192,35321,1,0,0:0:0:0:
256,192,35436,1,0,0:0:0:0:
256,192,35551,1,8,0:0:0:0:
256,192,35782,1,8,0:0:0:0:
256,192,35898,1,8,0:0:0:0:
256,192,36013,1,0,0:0:0:0:
256,192,36244,1,0,0:0:0:0:
256,192,36475,1,8,0:0:0:0:
256,192,36705,1,8,0:0:0:0:
256,192,36936,1,8,0:0:0:0:
256,192,37051,1,8,0:0:0:0:
256,192,37167,1,0,0:0:0:0:
256,192,37282,1,0,0:0:0:0:
256,192,37398,1,8,0:0:0:0:
256,192,37859,1,8,0:0:0:0:
256,192,38090,1,0,0:0:0:0:
256,192,38321,1,8,0:0:0:0:
256,192,38551,1,0,0:0:0:0:
256,192,38667,1,0,0:0:0:0:
256,192,38782,1,8,0:0:0:0:
256,192,39013,1,0,0:0:0:0:
256,192,39244,1,8,0:0:0:0:
256,192,39475,1,0,0:0:0:0:
256,192,39590,1,0,0:0:0:0:
256,192,39705,1,8,0:0:0:0:
256,192,39936,1,8,0:0:0:0:
256,192,40167,1,8,0:0:0:0:
256,192,40398,1,0,0:0:0:0:
256,192,40513,1,0,0:0:0:0:
256,192,40628,1,8,0:0:0:0:
256,192,40744,1,8,0:0:0:0:
256,192,40859,1,0,0:0:0:0:
256,192,41090,1,8,0:0:0:0:
256,192,41321,1,0,0:0:0:0:
256,192,41436,1,0,0:0:0:0:
256,192,41551,1,8,0:0:0:0:
256,192,41782,1,0,0:0:0:0:
256,192,42013,1,8,0:0:0:0:
256,192,42128,1,0,0:0:0:0:
256,192,42244,1,8,0:0:0:0:
256,192,42359,1,8,0:0:0:0:
256,192,42475,1,8,0:0:0:0:
256,192,42705,1,0,0:0:0:0:
256,192,42936,1,8,0:0:0:0:
256,192,43051,1,8,0:0:0:0:
256,192,43167,1,0,0:0:0:0:
256,192,43282,1,0,0:0:0:0:
256,192,43398,1,8,0:0:0:0:
256,192,43513,1,8,0:0:0:0:
256,192,43628,1,0,0:0:0:0:
256,192,43859,1,12,0:0:0:0:
256,192,44782,1,0,0:0:0:0:
256,192,44898,1,0,0:0:0:0:
256,192,45013,1,0,0:0:0:0:
256,192,45128,1,0,0:0:0:0:
256,192,45244,1,8,0:0:0:0:
256,192,45475,1,0,0:0:0:0:
256,192,45705,1,0,0:0:0:0:
256,192,45936,1,0,0:0:0:0:
256,192,46051,1,0,0:0:0:0:
256,192,46167,1,8,0:0:0:0:
256,192,46398,1,0,0:0:0:0:
256,192,46513,1,0,0:0:0:0:
256,192,46628,1,8,0:0:0:0:
256,192,46744,1,0,0:0:0:0:
256,192,46859,1,8,0:0:0:0:
256,192,47090,1,8,0:0:0:0:
256,192,47321,1,8,0:0:0:0:
256,192,47436,1,0,0:0:0:0:
256,192,47551,1,8,0:0:0:0:
256,192,47667,1,0,0:0:0:0:
256,192,47782,1,8,0:0:0:0:
256,192,48013,1,8,0:0:0:0:
256,192,48128,1,0,0:0:0:0:
256,192,48475,1,0,0:0:0:0:
256,192,48590,1,0,0:0:0:0:
256,192,48705,1,8,0:0:0:0:
256,192,48821,1,0,0:0:0:0:
256,192,48936,1,8,0:0:0:0:
256,192,49167,1,0,0:0:0:0:
256,192,49398,1,0,0:0:0:0:
256,192,49628,1,8,0:0:0:0:
256,192,49744,1,0,0:0:0:0:
256,192,49859,1,8,0:0:0:0:
256,192,50090,1,8,0:0:0:0:
256,192,50205,1,8,0:0:0:0:
256,192,50321,1,0,0:0:0:0:
256,192,50436,1,0,0:0:0:0:
256,192,50551,1,8,0:0:0:0:
256,192,50667,1,0,0:0:0:0:
256,192,50782,1,8,0:0:0:0:
256,192,51013,1,0,0:0:0:0:
256,192,51128,1,8,0:0:0:0:
256,192,51359,1,8,0:0:0:0:
256,192,51475,1,0,0:0:0:0:
256,192,51705,1,8,0:0:0:0:
256,192,52167,1,0,0:0:0:0:
256,192,52282,1,0,0:0:0:0:
256,192,52398,1,0,0:0:0:0:
256,192,52513,1,0,0:0:0:0:
256,192,52628,1,8,0:0:0:0:
256,192,52859,1,0,0:0:0:0:
256,192,53090,1,8,0:0:0:0:
256,192,53321,1,8,0:0:0:0:
256,192,53436,1,0,0:0:0:0:
256,192,53551,1,8,0:0:0:0:
256,192,53782,1,0,0:0:0:0:
256,192,53898,1,0,0:0:0:0:
256,192,54013,1,8,0:0:0:0:
256,192,54128,1,0,0:0:0:0:
256,192,54244,1,8,0:0:0:0:
256,192,54475,1,8,0:0:0:0:
256,192,54705,1,0,0:0:0:0:
256,192,54821,1,8,0:0:0:0:
256,192,54936,1,0,0:0:0:0:
256,192,55051,1,8,0:0:0:0:
256,192,55167,1,0,0:0:0:0:
256,192,55398,1,8,0:0:0:0:
256,192,55513,1,0,0:0:0:0:
256,192,55859,1,0,0:0:0:0:
256,192,55975,1,0,0:0:0:0:
256,192,56090,1,0,0:0:0:0:
256,192,56205,1,0,0:0:0:0:
256,192,56321,1,8,0:0:0:0:
256,192,56551,1,0,0:0:0:0:
256,192,56667,1,8,0:0:0:0:
256,192,56898,1,8,0:0:0:0:
256,192,57013,1,0,0:0:0:0:
256,192,57244,1,8,0:0:0:0:
256,192,57475,1,0,0:0:0:0:
256,192,57590,1,0,0:0:0:0:
256,192,57705,1,8,0:0:0:0:
256,192,57821,1,0,0:0:0:0:
256,192,58051,1,0,0:0:0:0:
256,192,58167,1,8,0:0:0:0:
256,192,58398,1,0,0:0:0:0:
256,192,58744,1,0,0:0:0:0:
256,192,58859,1,0,0:0:0:0:
256,192,59090,1,8,0:0:0:0:
256,192,59551,1,0,0:0:0:0:
256,192,59667,1,0,0:0:0:0:
256,192,59782,1,0,0:0:0:0:
256,192,59898,1,0,0:0:0:0:
256,192,60013,1,8,0:0:0:0:
256,192,60244,1,0,0:0:0:0:
256,192,60475,1,0,0:0:0:0:
256,192,60705,1,8,0:0:0:0:
256,192,60821,1,0,0:0:0:0:
256,192,60936,1,8,0:0:0:0:
256,192,61167,1,0,0:0:0:0:
256,192,61282,1,0,0:0:0:0:
256,192,61398,1,8,0:0:0:0:
256,192,61513,1,0,0:0:0:0:
256,192,61628,1,8,0:0:0:0:
256,192,61859,1,8,0:0:0:0:
256,192,62090,1,8,0:0:0:0:
256,192,62205,1,0,0:0:0:0:
256,192,62321,1,8,0:0:0:0:
256,192,62436,1,0,0:0:0:0:
256,192,62551,1,8,0:0:0:0:
256,192,62782,1,8,0:0:0:0:
256,192,62898,1,0,0:0:0:0:
256,192,63244,1,0,0:0:0:0:
256,192,63359,1,0,0:0:0:0:
256,192,63475,1,8,0:0:0:0:
256,192,63590,1,0,0:0:0:0:
256,192,63705,1,8,0:0:0:0:
256,192,63936,1,0,0:0:0:0:
256,192,64167,1,0,0:0:0:0:
256,192,64398,1,8,0:0:0:0:
256,192,64513,1,0,0:0:0:0:
256,192,64628,1,8,0:0:0:0:
256,192,64859,1,8,0:0:0:0:
256,192,64975,1,8,0:0:0:0:
256,192,65090,1,0,0:0:0:0:
256,192,65205,1,0,0:0:0:0:
256,192,65321,1,8,0:0:0:0:
256,192,65436,1,0,0:0:0:0:
256,192,65551,1,8,0:0:0:0:
256,192,65782,1,0,0:0:0:0:
256,192,65898,1,8,0:0:0:0:
256,192,66128,1,8,0:0:0:0:
256,192,66244,1,0,0:0:0:0:
256,192,66475,1,8,0:0:0:0:
256,192,66936,1,0,0:0:0:0:
256,192,67051,1,0,0:0:0:0:
256,192,67167,1,0,0:0:0:0:
256,192,67282,1,0,0:0:0:0:
256,192,67398,1,8,0:0:0:0:
256,192,67628,1,0,0:0:0:0:
256,192,67859,1,0,0:0:0:0:
256,192,68090,1,8,0:0:0:0:
256,192,68205,1,0,0:0:0:0:
256,192,68321,1,8,0:0:0:0:
256,192,68551,1,0,0:0:0:0:
256,192,68667,1,0,0:0:0:0:
256,192,68782,1,8,0:0:0:0:
256,192,68898,1,0,0:0:0:0:
256,192,69013,1,8,0:0:0:0:
256,192,69244,1,8,0:0:0:0:
256,192,69475,1,0,0:0:0:0:
256,192,69590,1,8,0:0:0:0:
256,192,69705,1,0,0:0:0:0:
256,192,69821,1,8,0:0:0:0:
256,192,69936,1,0,0:0:0:0:
256,192,70167,1,8,0:0:0:0:
256,192,70282,1,8,0:0:0:0:
256,192,70398,1,0,0:0:0:0:
256,192,70628,1,0,0:0:0:0:
256,192,70744,1,0,0:0:0:0:
256,192,70859,1,0,0:0:0:0:
256,192,70975,1,0,0:0:0:0:
256,192,71090,1,8,0:0:0:0:
256,192,71321,1,0,0:0:0:0:
256,192,71436,1,8,0:0:0:0:
256,192,71667,1,8,0:0:0:0:
256,192,71782,1,0,0:0:0:0:
256,192,72013,1,8,0:0:0:0:
256,192,72244,1,0,0:0:0:0:
256,192,72359,1,0,0:0:0:0:
256,192,72475,1,8,0:0:0:0:
256,192,72705,1,0,0:0:0:0:
256,192,72821,1,0,0:0:0:0:
256,192,72936,1,8,0:0:0:0:
256,192,73051,1,0,0:0:0:0:
256,192,73167,1,8,0:0:0:0:
256,192,73398,1,8,0:0:0:0:
256,192,73628,1,8,0:0:0:0:
256,192,73744,1,0,0:0:0:0:
256,192,73859,1,8,0:0:0:0:
256,192,73975,1,8,0:0:0:0:
256,192,74090,1,8,0:0:0:0:
256,192,74321,1,4,0:0:0:0:
256,192,74782,1,8,0:0:0:0:
256,192,75013,1,0,0:0:0:0:
256,192,75244,1,0,0:0:0:0:
256,192,75475,1,0,0:0:0:0:
256,192,75705,1,8,0:0:0:0:
256,192,76167,1,4,0:0:0:0:
256,192,76628,1,8,0:0:0:0:
256,192,76859,1,0,0:0:0:0:
256,192,77090,1,8,0:0:0:0:
256,192,77321,1,0,0:0:0:0:
256,192,77551,1,8,0:0:0:0:
256,192,77667,1,0,0:0:0:0:
256,192,78013,1,4,0:0:0:0:
256,192,78475,1,8,0:0:0:0:
256,192,78705,1,0,0:0:0:0:
256,192,78936,1,0,0:0:0:0:
256,192,79167,1,0,0:0:0:0:
256,192,79398,1,8,0:0:0:0:
256,192,79859,1,0,0:0:0:0:
256,192,79975,1,8,0:0:0:0:
256,192,80090,1,0,0:0:0:0:
256,192,80205,1,0,0:0:0:0:
256,192,80321,1,8,0:0:0:0:
256,192,80551,1,0,0:0:0:0:
256,192,80667,1,8,0:0:0:0:
256,192,80782,1,0,0:0:0:0:
256,192,80898,1,8,0:0:0:0:
256,192,81013,1,0,0:0:0:0:
256,192,81244,1,8,0:0:0:0:
256,192,81705,1,4,0:0:0:0:
256,192,82167,1,8,0:0:0:0:
256,192,82398,1,0,0:0:0:0:
256,192,82628,1,0,0:0:0:0:
256,192,82859,1,0,0:0:0:0:
256,192,83090,1,8,0:0:0:0:
256,192,83551,1,4,0:0:0:0:
256,192,84013,1,8,0:0:0:0:
256,192,84244,1,0,0:0:0:0:
256,192,84475,1,8,0:0:0:0:
256,192,84705,1,0,0:0:0:0:
256,192,84936,1,8,0:0:0:0:
256,192,85051,1,0,0:0:0:0:
256,192,85398,1,8,0:0:0:0:
256,192,85513,1,0,0:0:0:0:
256,192,85744,1,0,0:0:0:0:
256,192,85859,1,8,0:0:0:0:
256,192,86090,1,0,0:0:0:0:
256,192,86205,1,0,0:0:0:0:
256,192,86321,1,0,0:0:0:0:
256,192,86436,1,0,0:0:0:0:
256,192,86551,1,8,0:0:0:0:
256,192,86782,1,8,0:0:0:0:
256,192,87013,1,8,0:0:0:0:
256,192,87128,1,8,0:0:0:0:
256,192,87244,1,8,0:0:0:0:
256,192,87359,1,0,0:0:0:0:
256,192,87590,1,0,0:0:0:0:
256,192,87705,1,8,0:0:0:0:
256,192,87936,1,0,0:0:0:0:
256,192,88051,1,8,0:0:0:0:
256,192,88282,1,8,0:0:0:0:
256,192,88398,1,0,0:0:0:0:
256,192,88628,1,8,0:0:0:0:
256,192,89090,1,4,0:0:0:0:
256,192,89551,1,8,0:0:0:0:
256,192,89782,1,0,0:0:0:0:
256,192,90013,1,0,0:0:0:0:
256,192,90244,1,0,0:0:0:0:
256,192,90475,1,8,0:0:0:0:
256,192,90936,1,4,0:0:0:0:
256,192,91398,1,8,0:0:0:0:
256,192,91628,1,0,0:0:0:0:
256,192,91859,1,8,0:0:0:0:
256,192,92090,1,0,0:0:0:0:
256,192,92321,1,8,0:0:0:0:
256,192,92436,1,0,0:0:0:0:
256,192,92782,1,4,0:0:0:0:
256,192,93244,1,8,0:0:0:0:
256,192,93475,1,0,0:0:0:0:
256,192,93705,1,0,0:0:0:0:
256,192,93936,1,0,0:0:0:0:
256,192,94167,1,8,0:0:0:0:
256,192,94628,1,0,0:0:0:0:
256,192,94744,1,8,0:0:0:0:
256,192,94859,1,0,0:0:0:0:
256,192,94975,1,0,0:0:0:0:
256,192,95090,1,8,0:0:0:0:
256,192,95321,1,0,0:0:0:0:
256,192,95436,1,8,0:0:0:0:
256,192,95551,1,0,0:0:0:0:
256,192,95667,1,8,0:0:0:0:
256,192,95782,1,0,0:0:0:0:
256,192,96013,1,8,0:0:0:0:
256,192,96244,1,0,0:0:0:0:
256,192,96475,1,4,0:0:0:0:
256,192,96936,1,8,0:0:0:0:
256,192,97167,1,0,0:0:0:0:
256,192,97398,1,0,0:0:0:0:
256,192,97628,1,0,0:0:0:0:
256,192,97859,1,8,0:0:0:0:
256,192,98321,1,4,0:0:0:0:
256,192,98782,1,8,0:0:0:0:
256,192,99013,1,0,0:0:0:0:
256,192,99244,1,8,0:0:0:0:
256,192,99475,1,0,0:0:0:0:
256,192,99705,1,8,0:0:0:0:
256,192,99821,1,0,0:0:0:0:
256,192,100167,1,0,0:0:0:0:
256,192,100398,1,0,0:0:0:0:
256,192,100513,1,0,0:0:0:0:
256,192,100628,1,8,0:0:0:0:
256,192,100859,1,0,0:0:0:0:
256,192,100975,1,8,0:0:0:0:
256,192,101205,1,8,0:0:0:0:
256,192,101321,1,0,0:0:0:0:
256,192,101551,1,8,0:0:0:0:
256,192,101782,1,8,0:0:0:0:
256,192,101898,1,8,0:0:0:0:
256,192,102013,1,8,0:0:0:0:
256,192,102128,1,0,0:0:0:0:
256,192,102359,1,0,0:0:0:0:
256,192,102475,1,8,0:0:0:0:
256,192,102705,1,8,0:0:0:0:
256,192,102821,1,8,0:0:0:0:
256,192,103051,1,8,0:0:0:0:
256,192,103167,1,0,0:0:0:0:
256,192,103398,1,8,0:0:0:0:
256,192,103859,1,12,0:0:0:0:
256,192,104090,12,8,105705,0:0:0:0:
