osu file format v14

[General]
AudioFilename: audio.mp3
AudioLeadIn: 0
PreviewTime: 44667
Countdown: 0
SampleSet: Normal
StackLeniency: 0.7
Mode: 1
LetterboxInBreaks: 0
WidescreenStoryboard: 1

[Editor]
Bookmarks: 10744,59898
DistanceSpacing: 1.4
BeatDivisor: 8
GridSize: 32
TimelineZoom: 1.3

[Metadata]
Title:Barracuda
TitleUnicode:Barracuda
Artist:Noisestorm
ArtistUnicode:Noisestorm
Creator:jmagine
Version:Muzukashii
Source:
Tags:monstercat mc022 mcs335 contact electronic instrumental breakbeat bass dance drum & bass dnb drumstep dubstep edm electro island just shapes and beats jsab h_o_n_e_y honey fiscia
BeatmapID:2877472
BeatmapSetID:1392694

[Difficulty]
HPDrainRate:7
CircleSize:5
OverallDifficulty:4.5
ApproachRate:5
SliderMultiplier:1.4
SliderTickRate:1

[Events]
//Background and Video events
0,0,"barracuda-bg.jpg",0,0
//Break Periods
//Storyboard Layer 0 (Background)
//Storyboard Layer 1 (Fail)
//Storyboard Layer 2 (Pass)
//Storyboard Layer 3 (Foreground)
//Storyboard Layer 4 (Overlay)
//Storyboard Sound Samples

[TimingPoints]
475,461.538461538462,4,1,0,70,1,0
475,-100,4,1,0,70,0,0
5955,-100,4,1,0,70,0,0
6186,-98.7654320987654,4,1,0,70,0,0
6417,-97.5609756097561,4,1,0,70,0,0
6647,-96.3855421686747,4,1,0,70,0,0
6763,-95.8083832335329,4,1,0,70,0,0
6878,-95.2380952380952,4,1,0,70,0,0
7109,-94.1176470588235,4,1,0,70,0,0
7340,-93.0232558139535,4,1,0,70,0,0
7801,-90.9090909090909,4,1,0,75,0,0
11494,-90.9090909090909,4,1,0,76,0,0
11725,-90.9090909090909,4,1,0,78,0,0
11955,-90.9090909090909,4,1,0,80,0,0
12186,-90.9090909090909,4,1,0,80,0,0
13801,-90.9090909090909,4,1,0,82,0,0
14032,-89.5614355623383,4,1,0,84,0,0
14263,-88.2532302888616,4,1,0,86,0,0
14493,-86.9826165240877,4,1,0,88,0,0
14724,-85.7480704540446,4,1,0,90,0,0
15186,-83.3333333333333,4,1,0,100,0,0
28570,-83.3333333333333,4,1,0,90,0,0
28801,-82.199527845912,4,1,0,90,0,0
29032,-81.0962263492993,4,1,0,90,0,0
29263,-80.0220860957624,4,1,0,90,0,0
29493,-78.9760284060979,4,1,0,90,0,0
29955,-76.9230769230769,4,1,0,80,0,0
32494,-75.7575757575758,4,1,0,82,0,0
34340,-74.6268656716418,4,1,0,84,0,0
36186,-73.5294117647059,4,1,0,86,0,0
37340,-72.463768115942,4,1,0,90,0,0
37801,-72.463768115942,4,1,0,92,0,0
38263,-71.4285714285714,4,1,0,94,0,0
38725,-71.4285714285714,4,1,0,96,0,0
39186,-70.4225352112676,4,1,0,96,0,0
40109,-69.4444444444444,4,1,0,96,0,0
41032,-68.4931506849315,4,1,0,98,0,0
41955,-67.5675675675676,4,1,0,100,0,0
43801,-66.6666666666667,4,1,0,100,0,0
44725,-71.4285714285714,4,1,0,100,0,0
44782,-71.4285714285714,4,1,0,100,0,1
74321,-71.4285714285714,4,1,0,100,0,0
104321,-71.4285714285714,4,1,0,80,0,0
104782,-71.4285714285714,4,1,0,60,0,0
105244,-71.4285714285714,4,1,0,40,0,0

[HitObjects]
256,192,475,5,4,0:0:0:0:
256,192,936,1,8,0:0:0:0:
256,192,1628,1,8,0:0:0:0:
256,192,1859,1,0,0:0:0:0:
256,192,2321,1,0,0:0:0:0:
256,192,2782,1,8,0:0:0:0:
256,192,3475,1,8,0:0:0:0:
256,192,3705,1,0,0:0:0:0:
256,192,4167,1,0,0:0:0:0:
256,192,4628,1,8,0:0:0:0:
256,192,5321,1,8,0:0:0:0:
256,192,5551,1,0,0:0:0:0:
256,192,6013,1,0,0:0:0:0:
256,192,6244,1,0,0:0:0:0:
256,192,6475,1,8,0:0:0:0:
256,192,6705,1,0,0:0:0:0:
256,192,6821,1,0,0:0:0:0:
256,192,6936,1,0,0:0:0:0:
256,192,7167,1,8,0:0:0:0:
256,192,7398,1,8,0:0:0:0:
256,192,7859,1,4,0:0:0:0:
256,192,8321,1,8,0:0:0:0:
256,192,9013,1,8,0:0:0:0:
256,192,9244,1,0,0:0:0:0:
256,192,9705,1,0,0:0:0:0:
256,192,10167,1,8,0:0:0:0:
256,192,10859,1,8,0:0:0:0:
256,192,11090,1,0,0:0:0:0:
256,192,11551,1,0,0:0:0:0:
256,192,11782,1,0,0:0:0:0:
256,192,12013,1,0,0:0:0:0:
256,192,12244,1,8,0:0:0:0:
256,192,12475,1,8,0:0:0:0:
256,192,12590,1,8,0:0:0:0:
256,192,12705,1,8,0:0:0:0:
256,192,12936,1,8,0:0:0:0:
256,192,13167,1,0,0:0:0:0:
256,192,13282,1,0,0:0:0:0:
256,192,13398,1,0,0:0:0:0:
256,192,13628,1,0,0:0:0:0:
256,192,13859,1,8,0:0:0:0:
256,192,14090,1,8,0:0:0:0:
256,192,14321,1,8,0:0:0:0:
256,192,14551,1,8,0:0:0:0:
256,192,14782,1,0,0:0:0:0:
256,192,15244,1,4,0:0:0:0:
256,192,15705,1,8,0:0:0:0:
256,192,15936,1,0,0:0:0:0:
256,192,16628,1,8,0:0:0:0:
256,192,17090,1,4,0:0:0:0:
256,192,17551,1,8,0:0:0:0:
256,192,17782,1,0,0:0:0:0:
256,192,18244,1,0,0:0:0:0:
256,192,18475,1,8,0:0:0:0:
256,192,18590,1,0,0:0:0:0:
256,192,18936,1,4,0:0:0:0:
256,192,19398,1,8,0:0:0:0:
256,192,19628,1,0,0:0:0:0:
256,192,20321,1,8,0:0:0:0:
256,192,20782,1,4,0:0:0:0:
256,192,21244,1,8,0:0:0:0:
256,192,21475,1,0,0:0:0:0:
256,192,21590,1,8,0:0:0:0:
256,192,21821,1,0,0:0:0:0:
256,192,21936,1,0,0:0:0:0:
256,192,22167,1,8,0:0:0:0:
256,192,22282,1,0,0:0:0:0:
256,192,22628,1,4,0:0:0:0:
256,192,23090,1,8,0:0:0:0:
256,192,23321,1,0,0:0:0:0:
256,192,24013,1,8,0:0:0:0:
256,192,24475,1,4,0:0:0:0:
256,192,24936,1,8,0:0:0:0:
256,192,25167,1,0,0:0:0:0:
256,192,25628,1,0,0:0:0:0:
256,192,25859,1,8,0:0:0:0:
256,192,25975,1,0,0:0:0:0:
256,192,26321,1,4,0:0:0:0:
256,192,26782,1,8,0:0:0:0:
256,192,27013,1,0,0:0:0:0:
256,192,27705,1,8,0:0:0:0:
256,192,28167,1,4,0:0:0:0:
256,192,28628,1,0,0:0:0:0:
256,192,28859,1,8,0:0:0:0:
256,192,29090,1,8,0:0:0:0:
256,192,29321,1,8,0:0:0:0:
256,192,29551,1,0,0:0:0:0:
256,192,30013,1,0,0:0:0:0:
256,192,30475,1,0,0:0:0:0:
256,192,30705,1,8,0:0:0:0:
256,192,30936,1,8,0:0:0:0:
256,192,31051,1,8,0:0:0:0:
256,192,31167,1,8,0:0:0:0:
256,192,31398,1,0,0:0:0:0:
256,192,31513,1,0,0:0:0:0:
256,192,31628,1,0,0:0:0:0:
256,192,31859,1,8,0:0:0:0:
256,192,32551,1,8,0:0:0:0:
256,192,32782,1,8,0:0:0:0:
256,192,32898,1,8,0:0:0:0:
256,192,33013,1,8,0:0:0:0:
256,192,33244,1,0,0:0:0:0:
256,192,33359,1,0,0:0:0:0:
256,192,33475,1,0,0:0:0:0:
256,192,33705,1,8,0:0:0:0:
256,192,34398,1,0,0:0:0:0:
256,192,34628,1,8,0:0:0:0:
256,192,34744,1,8,0:0:0:0:
256,192,34859,1,8,0:0:0:0:
256,192,35090,1,0,0:0:0:0:
256,192,35205,1,0,0:0:0:0:
256,192,35321,1,0,0:0:0:0:
256,192,35551,1,8,0:0:0:0:
256,192,36244,1,0,0:0:0:0:
256,192,36475,1,8,0:0:0:0:
256,192,36590,1,8,0:0:0:0:
256,192,36705,1,8,0:0:0:0:
256,192,36936,1,0,0:0:0:0:
256,192,37051,1,0,0:0:0:0:
256,192,37167,1,0,0:0:0:0:
256,192,37398,1,8,0:0:0:0:
256,192,37628,1,0,0:0:0:0:
256,192,37859,1,8,0:0:0:0:
256,192,38321,1,8,0:0:0:0:
256,192,38551,1,0,0:0:0:0:
256,192,38782,1,8,0:0:0:0:
256,192,39244,1,0,0:0:0:0:
256,192,39475,1,8,0:0:0:0:
256,192,39590,1,8,0:0:0:0:
256,192,39705,1,8,0:0:0:0:
256,192,39936,1,0,0:0:0:0:
256,192,40167,1,8,0:0:0:0:
256,192,40398,1,0,0:0:0:0:
256,192,40628,1,8,0:0:0:0:
256,192,41090,1,8,0:0:0:0:
256,192,41321,1,0,0:0:0:0:
256,192,41551,1,8,0:0:0:0:
256,192,41782,1,0,0:0:0:0:
256,192,42013,1,8,0:0:0:0:
256,192,42244,1,8,0:0:0:0:
256,192,42475,1,0,0:0:0:0:
256,192,42705,1,0,0:0:0:0:
256,192,42936,1,8,0:0:0:0:
256,192,43051,1,8,0:0:0:0:
256,192,43167,1,8,0:0:0:0:
256,192,43398,1,0,0:0:0:0:
256,192,43513,1,0,0:0:0:0:
256,192,43628,1,0,0:0:0:0:
256,192,43859,1,12,0:0:0:0:
256,192,44782,1,0,0:0:0:0:
256,192,44898,1,0,0:0:0:0:
256,192,45013,1,0,0:0:0:0:
256,192,45244,1,8,0:0:0:0:
256,192,45475,1,0,0:0:0:0:
256,192,45705,1,0,0:0:0:0:
256,192,46398,1,8,0:0:0:0:
256,192,46628,1,0,0:0:0:0:
256,192,46859,1,0,0:0:0:0:
256,192,47090,1,8,0:0:0:0:
256,192,47321,1,0,0:0:0:0:
256,192,47551,1,0,0:0:0:0:
256,192,47782,1,8,0:0:0:0:
256,192,48013,1,8,0:0:0:0:
256,192,48128,1,0,0:0:0:0:
256,192,48475,1,0,0:0:0:0:
256,192,48590,1,0,0:0:0:0:
256,192,48705,1,0,0:0:0:0:
256,192,48936,1,8,0:0:0:0:
256,192,49167,1,0,0:0:0:0:
256,192,49398,1,0,0:0:0:0:
256,192,50090,1,8,0:0:0:0:
256,192,50321,1,0,0:0:0:0:
256,192,50436,1,0,0:0:0:0:
256,192,50551,1,0,0:0:0:0:
256,192,50782,1,8,0:0:0:0:
256,192,51013,1,0,0:0:0:0:
256,192,51128,1,8,0:0:0:0:
256,192,51359,1,8,0:0:0:0:
256,192,51475,1,0,0:0:0:0:
256,192,51705,1,8,0:0:0:0:
256,192,52167,1,0,0:0:0:0:
256,192,52282,1,0,0:0:0:0:
256,192,52398,1,0,0:0:0:0:
256,192,52628,1,0,0:0:0:0:
256,192,52859,1,8,0:0:0:0:
256,192,53090,1,8,0:0:0:0:
256,192,53782,1,0,0:0:0:0:
256,192,54013,1,8,0:0:0:0:
256,192,54244,1,8,0:0:0:0:
256,192,54475,1,0,0:0:0:0:
256,192,54705,1,8,0:0:0:0:
256,192,54936,1,8,0:0:0:0:
256,192,55167,1,0,0:0:0:0:
256,192,55398,1,8,0:0:0:0:
256,192,55513,1,0,0:0:0:0:
256,192,55859,1,0,0:0:0:0:
256,192,55975,1,0,0:0:0:0:
256,192,56090,1,0,0:0:0:0:
256,192,56321,1,8,0:0:0:0:
256,192,56551,1,0,0:0:0:0:
256,192,56667,1,0,0:0:0:0:
256,192,56898,1,0,0:0:0:0:
256,192,57013,1,0,0:0:0:0:
256,192,57244,1,8,0:0:0:0:
256,192,57475,1,0,0:0:0:0:
256,192,57590,1,0,0:0:0:0:
256,192,57705,1,0,0:0:0:0:
256,192,57821,1,0,0:0:0:0:
256,192,58167,1,8,0:0:0:0:
256,192,58398,1,0,0:0:0:0:
256,192,58744,1,0,0:0:0:0:
256,192,58859,1,0,0:0:0:0:
256,192,59090,1,8,0:0:0:0:
256,192,59551,1,0,0:0:0:0:
256,192,59667,1,0,0:0:0:0:
256,192,59782,1,0,0:0:0:0:
256,192,60013,1,8,0:0:0:0:
256,192,60244,1,0,0:0:0:0:
256,192,60475,1,0,0:0:0:0:
256,192,61167,1,0,0:0:0:0:
256,192,61398,1,8,0:0:0:0:
256,192,61628,1,8,0:0:0:0:
256,192,61859,1,0,0:0:0:0:
256,192,62090,1,8,0:0:0:0:
256,192,62321,1,0,0:0:0:0:
256,192,62551,1,8,0:0:0:0:
256,192,62782,1,8,0:0:0:0:
256,192,62898,1,0,0:0:0:0:
256,192,63244,1,0,0:0:0:0:
256,192,63359,1,0,0:0:0:0:
256,192,63475,1,0,0:0:0:0:
256,192,63705,1,8,0:0:0:0:
256,192,63936,1,0,0:0:0:0:
256,192,64167,1,0,0:0:0:0:
256,192,64859,1,8,0:0:0:0:
256,192,65090,1,0,0:0:0:0:
256,192,65205,1,0,0:0:0:0:
256,192,65321,1,0,0:0:0:0:
256,192,65551,1,8,0:0:0:0:
256,192,65667,1,0,0:0:0:0:
256,192,65898,1,8,0:0:0:0:
256,192,66128,1,8,0:0:0:0:
256,192,66244,1,0,0:0:0:0:
256,192,66475,1,8,0:0:0:0:
256,192,66936,1,0,0:0:0:0:
256,192,67051,1,0,0:0:0:0:
256,192,67167,1,0,0:0:0:0:
256,192,67398,1,0,0:0:0:0:
256,192,67628,1,8,0:0:0:0:
256,192,67859,1,8,0:0:0:0:
256,192,68551,1,0,0:0:0:0:
256,192,68782,1,8,0:0:0:0:
256,192,69013,1,0,0:0:0:0:
256,192,69244,1,8,0:0:0:0:
256,192,69475,1,0,0:0:0:0:
256,192,69705,1,0,0:0:0:0:
256,192,69936,1,8,0:0:0:0:
256,192,70167,1,8,0:0:0:0:
256,192,70282,1,0,0:0:0:0:
256,192,70628,1,0,0:0:0:0:
256,192,70744,1,0,0:0:0:0:
256,192,70859,1,0,0:0:0:0:
256,192,71090,1,8,0:0:0:0:
256,192,71321,1,0,0:0:0:0:
256,192,71436,1,0,0:0:0:0:
256,192,71667,1,0,0:0:0:0:
256,192,71782,1,0,0:0:0:0:
256,192,72013,1,8,0:0:0:0:
256,192,72475,1,0,0:0:0:0:
256,192,72705,1,8,0:0:0:0:
256,192,72821,1,8,0:0:0:0:
256,192,72936,1,8,0:0:0:0:
256,192,73167,1,0,0:0:0:0:
256,192,73398,1,8,0:0:0:0:
256,192,73628,1,8,0:0:0:0:
256,192,73859,1,0,0:0:0:0:
256,192,73975,1,0,0:0:0:0:
256,192,74090,1,0,0:0:0:0:
256,192,74321,1,12,0:0:0:0:
256,192,74782,1,8,0:0:0:0:
256,192,75013,1,0,0:0:0:0:
256,192,75705,1,8,0:0:0:0:
256,192,76167,1,4,0:0:0:0:
256,192,76628,1,8,0:0:0:0:
256,192,76859,1,0,0:0:0:0:
256,192,77321,1,0,0:0:0:0:
256,192,77551,1,8,0:0:0:0:
256,192,77667,1,0,0:0:0:0:
256,192,78013,1,4,0:0:0:0:
256,192,78475,1,8,0:0:0:0:
256,192,78705,1,0,0:0:0:0:
256,192,79398,1,8,0:0:0:0:
256,192,79859,1,0,0:0:0:0:
256,192,79975,1,0,0:0:0:0:
256,192,80090,1,0,0:0:0:0:
256,192,80321,1,8,0:0:0:0:
256,192,80551,1,0,0:0:0:0:
256,192,80667,1,8,0:0:0:0:
256,192,80898,1,8,0:0:0:0:
256,192,81013,1,0,0:0:0:0:
256,192,81244,1,8,0:0:0:0:
256,192,81705,1,4,0:0:0:0:
256,192,82167,1,8,0:0:0:0:
256,192,82398,1,0,0:0:0:0:
256,192,83090,1,8,0:0:0:0:
256,192,83551,1,4,0:0:0:0:
256,192,84013,1,8,0:0:0:0:
256,192,84244,1,0,0:0:0:0:
256,192,84705,1,0,0:0:0:0:
256,192,84936,1,8,0:0:0:0:
256,192,85051,1,0,0:0:0:0:
256,192,85398,1,8,0:0:0:0:
256,192,85744,1,0,0:0:0:0:
256,192,85859,1,8,0:0:0:0:
256,192,86090,1,0,0:0:0:0:
256,192,86205,1,0,0:0:0:0:
256,192,86321,1,0,0:0:0:0:
256,192,86551,1,8,0:0:0:0:
256,192,86782,1,0,0:0:0:0:
256,192,87013,1,8,0:0:0:0:
256,192,87244,1,0,0:0:0:0:
256,192,87590,1,0,0:0:0:0:
256,192,87705,1,8,0:0:0:0:
256,192,87936,1,0,0:0:0:0:
256,192,88282,1,8,0:0:0:0:
256,192,88398,1,0,0:0:0:0:
256,192,88628,1,8,0:0:0:0:
256,192,89090,1,4,0:0:0:0:
256,192,89551,1,8,0:0:0:0:
256,192,89782,1,0,0:0:0:0:
256,192,90475,1,8,0:0:0:0:
256,192,90936,1,4,0:0:0:0:
256,192,91398,1,8,0:0:0:0:
256,192,91628,1,0,0:0:0:0:
256,192,92090,1,0,0:0:0:0:
256,192,92321,1,8,0:0:0:0:
256,192,92436,1,0,0:0:0:0:
256,192,92782,1,4,0:0:0:0:
256,192,93244,1,8,0:0:0:0:
256,192,93475,1,0,0:0:0:0:
256,192,94167,1,8,0:0:0:0:
256,192,94628,1,0,0:0:0:0:
256,192,94744,1,0,0:0:0:0:
256,192,94859,1,0,0:0:0:0:
256,192,95090,1,8,0:0:0:0:
256,192,95321,1,0,0:0:0:0:
256,192,95436,1,8,0:0:0:0:
256,192,95667,1,8,0:0:0:0:
256,192,95782,1,0,0:0:0:0:
256,192,96013,1,8,0:0:0:0:
256,192,96475,1,4,0:0:0:0:
256,192,96936,1,8,0:0:0:0:
256,192,97167,1,0,0:0:0:0:
256,192,97859,1,8,0:0:0:0:
256,192,98321,1,4,0:0:0:0:
256,192,98782,1,8,0:0:0:0:
256,192,99013,1,0,0:0:0:0:
256,192,99475,1,0,0:0:0:0:
256,192,99705,1,8,0:0:0:0:
256,192,99821,1,0,0:0:0:0:
256,192,100167,1,0,0:0:0:0:
256,192,100628,1,8,0:0:0:0:
256,192,100859,1,0,0:0:0:0:
256,192,100975,1,0,0:0:0:0:
256,192,101205,1,0,0:0:0:0:
256,192,101321,1,0,0:0:0:0:
256,192,101551,1,8,0:0:0:0:
256,192,101782,1,8,0:0:0:0:
256,192,102013,1,0,0:0:0:0:
256,192,102475,1,8,0:0:0:0:
256,192,102705,1,8,0:0:0:0:
256,192,102821,1,8,0:0:0:0:
256,192,103051,1,8,0:0:0:0:
256,192,103167,1,0,0:0:0:0:
256,192,103398,1,8,0:0:0:0:
256,192,103859,1,12,0:0:0:0:
256,192,104090,12,8,105705,0:0:0:0:
