osu file format v14

[General]
AudioFilename: audio.mp3
AudioLeadIn: 0
PreviewTime: 43036
Countdown: 1
SampleSet: Normal
StackLeniency: 0.7
Mode: 1
LetterboxInBreaks: 0
WidescreenStoryboard: 1

[Editor]
DistanceSpacing: 1.2
BeatDivisor: 4
GridSize: 32
TimelineZoom: 2.4

[Metadata]
Title:Barracuda
TitleUnicode:Barracuda
Artist:Noisestorm
ArtistUnicode:Noisestorm
Creator:Lno
Version:Oni
Source:
Tags:
BeatmapID:1763551
BeatmapSetID:842877

[Difficulty]
HPDrainRate:7
CircleSize:5
OverallDifficulty:7
ApproachRate:5
SliderMultiplier:1.4
SliderTickRate:1

[Events]
//Background and Video events
0,0,"barracoody.png",0,0
//Break Periods
//Storyboard Layer 0 (Background)
//Storyboard Layer 1 (Fail)
//Storyboard Layer 2 (Pass)
//Storyboard Layer 3 (Foreground)
//Storyboard Sound Samples

[TimingPoints]
572,461.538461538462,4,1,0,50,1,0
1264,-95.2380952380952,4,1,0,50,0,0
1495,-90.9090909090909,4,1,0,50,0,0
1725,-95.2380952380952,4,1,0,50,0,0
1956,-100,4,1,0,50,0,0
3110,-95.2380952380952,4,1,0,50,0,0
3341,-90.9090909090909,4,1,0,50,0,0
3571,-95.2380952380952,4,1,0,50,0,0
3802,-100,4,1,0,50,0,0
4956,-95.2380952380952,4,1,0,50,0,0
5187,-90.9090909090909,4,1,0,50,0,0
5417,-95.2380952380952,4,1,0,50,0,0
5648,-100,4,1,0,50,0,0
6225,-95.2380952380952,4,1,0,50,0,0
6341,-90.9090909090909,4,1,0,50,0,0
6456,-86.9565217391304,4,1,0,50,0,0
6572,-83.3333333333333,4,1,0,50,0,0
6918,-80,4,1,0,50,0,0
7033,-76.9230769230769,4,1,0,50,0,0
7148,-74.0740740740741,4,1,0,50,0,0
7264,-71.4285714285714,4,1,0,50,0,0
7495,-68.9655172413793,4,1,0,50,0,0
7956,-100,4,1,0,50,0,0
8648,-95.2380952380952,4,1,0,50,0,0
8879,-90.9090909090909,4,1,0,50,0,0
9109,-95.2380952380952,4,1,0,50,0,0
9340,-100,4,1,0,50,0,0
10495,-95.2380952380952,4,1,0,50,0,0
10725,-90.9090909090909,4,1,0,50,0,0
10956,-95.2380952380952,4,1,0,50,0,0
11187,-100,4,1,0,50,0,0
11764,-95.2380952380952,4,1,0,50,0,0
11879,-90.9090909090909,4,1,0,50,0,0
11995,-86.9565217391304,4,1,0,50,0,0
12110,-83.3333333333333,4,1,0,50,0,0
12456,-80,4,1,0,50,0,0
12572,-76.9230769230769,4,1,0,50,0,0
12687,-74.0740740740741,4,1,0,50,0,0
12802,-71.4285714285714,4,1,0,50,0,0
12918,-68.9655172413793,4,1,0,50,0,0
13033,-66.6666666666667,4,1,0,50,0,0
13322,-68.9655172413793,4,1,0,50,0,0
13379,-71.4285714285714,4,1,0,50,0,0
13437,-74.0740740740741,4,1,0,50,0,0
13495,-76.9230769230769,4,1,0,50,0,0
13610,-74.0740740740741,4,1,0,50,0,0
13725,-71.4285714285714,4,1,0,50,0,0
13841,-68.9655172413793,4,1,0,50,0,0
13956,-66.6666666666667,4,1,0,50,0,0
14302,-64.5161290322581,4,1,0,50,0,0
14418,-62.5,4,1,0,50,0,0
14533,-60.6060606060606,4,1,0,50,0,0
14648,-58.8235294117647,4,1,0,50,0,0
14879,-57.1428571428571,4,1,0,50,0,0
15344,-100,4,1,0,75,0,0
30113,-100,4,1,0,50,0,0
31725,-95.2380952380952,4,1,0,50,0,0
31802,-90.9090909090909,4,1,0,50,0,0
31879,-86.9565217391304,4,1,0,50,0,0
31956,-83.3333333333333,4,1,0,50,0,0
33572,-80,4,1,0,50,0,0
33648,-76.9230769230769,4,1,0,50,0,0
33725,-74.0740740740741,4,1,0,50,0,0
33802,-71.4285714285714,4,1,0,50,0,0
35418,-68.9655172413793,4,1,0,50,0,0
35495,-66.6666666666667,4,1,0,50,0,0
35572,-64.5161290322581,4,1,0,50,0,0
35648,-62.5,4,1,0,50,0,0
37264,-60.6060606060606,4,1,0,50,0,0
37341,-58.8235294117647,4,1,0,50,0,0
37418,-57.1428571428571,4,1,0,50,0,0
37495,-55.5555555555556,4,1,0,50,0,0
37725,-55.2486187845304,4,1,0,50,0,0
37841,-54.9450549450549,4,1,0,50,0,0
37956,-54.6448087431694,4,1,0,50,0,0
38187,-54.3478260869565,4,1,0,50,0,0
38418,-54.054054054054,4,1,0,50,0,0
38648,-53.763440860215,4,1,0,50,0,0
38764,-53.475935828877,4,1,0,50,0,0
38879,-53.1914893617021,4,1,0,50,0,0
39110,-52.9100529100529,4,1,0,50,0,0
39341,-52.6315789473684,4,1,0,50,0,0
39572,-52.3560209424084,4,1,0,50,0,0
39687,-52.0833333333333,4,1,0,50,0,0
39802,-51.8134715025907,4,1,0,50,0,0
40033,-51.5463917525773,4,1,0,50,0,0
40264,-51.2820512820513,4,1,0,50,0,0
40495,-51.0204081632653,4,1,0,50,0,0
40610,-50.761421319797,4,1,0,50,0,0
40725,-50.5050505050505,4,1,0,50,0,0
40956,-49.2610837438424,4,1,0,50,0,0
41033,-48.0769230769231,4,1,0,50,0,0
41110,-46.9483568075117,4,1,0,50,0,0
41187,-45.8715596330275,4,1,0,50,0,0
41302,-45.662100456621,4,1,0,50,0,0
41418,-45.4545454545455,4,1,0,50,0,0
41533,-45.2488687782805,4,1,0,50,0,0
41648,-45.045045045045,4,1,0,50,0,0
41764,-44.8430493273543,4,1,0,50,0,0
41879,-44.6428571428571,4,1,0,50,0,0
41995,-44.4444444444445,4,1,0,50,0,0
42110,-44.2477876106195,4,1,0,50,0,0
42225,-44.0528634361233,4,1,0,50,0,0
42341,-43.859649122807,4,1,0,50,0,0
42456,-43.6681222707424,4,1,0,50,0,0
42572,-43.4782608695652,4,1,0,50,0,0
42687,-43.2900432900433,4,1,0,50,0,0
42802,-43.1034482758621,4,1,0,50,0,0
42918,-42.9184549356223,4,1,0,50,0,0
43033,-42.7350427350427,4,1,0,50,0,0
44879,-117.647058823529,4,1,0,75,0,1
45572,-109.89010989011,4,1,0,75,0,1
45629,-113.636363636364,4,1,0,75,0,1
45687,-117.647058823529,4,1,0,75,0,1
45802,-109.89010989011,4,1,0,75,0,1
45859,-113.636363636364,4,1,0,75,0,1
45917,-117.647058823529,4,1,0,75,0,1
46264,-109.89010989011,4,1,0,75,0,1
46321,-113.636363636364,4,1,0,75,0,1
46379,-117.647058823529,4,1,0,75,0,1
46956,-109.89010989011,4,1,0,75,0,1
47013,-113.636363636364,4,1,0,75,0,1
47071,-117.647058823529,4,1,0,75,0,1
47187,-109.89010989011,4,1,0,75,0,1
47244,-113.636363636364,4,1,0,75,0,1
47302,-117.647058823529,4,1,0,75,0,1
47648,-109.89010989011,4,1,0,75,0,1
47705,-113.636363636364,4,1,0,75,0,1
47763,-117.647058823529,4,1,0,75,0,1
48110,-109.89010989011,4,1,0,75,0,1
48167,-113.636363636364,4,1,0,75,0,1
48225,-117.647058823529,4,1,0,75,0,1
49264,-109.89010989011,4,1,0,75,0,1
49321,-113.636363636364,4,1,0,75,0,1
49379,-117.647058823529,4,1,0,75,0,1
49495,-109.89010989011,4,1,0,75,0,1
49552,-113.636363636364,4,1,0,75,0,1
49610,-117.647058823529,4,1,0,75,0,1
49956,-109.89010989011,4,1,0,75,0,1
50013,-113.636363636364,4,1,0,75,0,1
50071,-117.647058823529,4,1,0,75,0,1
50187,-109.89010989011,4,1,0,75,0,1
50244,-113.636363636364,4,1,0,75,0,1
50302,-117.647058823529,4,1,0,75,0,1
52956,-109.89010989011,4,1,0,75,0,1
53013,-113.636363636364,4,1,0,75,0,1
53071,-117.647058823529,4,1,0,75,0,1
53187,-109.89010989011,4,1,0,75,0,1
53244,-113.636363636364,4,1,0,75,0,1
53302,-117.647058823529,4,1,0,75,0,1
53648,-109.89010989011,4,1,0,75,0,1
53705,-113.636363636364,4,1,0,75,0,1
53763,-117.647058823529,4,1,0,75,0,1
54341,-109.89010989011,4,1,0,75,0,1
54398,-113.636363636364,4,1,0,75,0,1
54456,-117.647058823529,4,1,0,75,0,1
54572,-109.89010989011,4,1,0,75,0,1
54629,-113.636363636364,4,1,0,75,0,1
54687,-117.647058823529,4,1,0,75,0,1
55033,-109.89010989011,4,1,0,75,0,1
55090,-113.636363636364,4,1,0,75,0,1
55148,-117.647058823529,4,1,0,75,0,1
55495,-109.89010989011,4,1,0,75,0,1
55552,-113.636363636364,4,1,0,75,0,1
55610,-117.647058823529,4,1,0,75,0,1
55956,-100,4,1,0,75,0,0
59648,-117.647058823529,4,1,0,75,0,1
60341,-109.89010989011,4,1,0,75,0,1
60398,-113.636363636364,4,1,0,75,0,1
60456,-117.647058823529,4,1,0,75,0,1
60571,-109.89010989011,4,1,0,75,0,1
60628,-113.636363636364,4,1,0,75,0,1
60686,-117.647058823529,4,1,0,75,0,1
61033,-109.89010989011,4,1,0,75,0,1
61090,-113.636363636364,4,1,0,75,0,1
61148,-117.647058823529,4,1,0,75,0,1
61725,-109.89010989011,4,1,0,75,0,1
61782,-113.636363636364,4,1,0,75,0,1
61840,-117.647058823529,4,1,0,75,0,1
61956,-109.89010989011,4,1,0,75,0,1
62013,-113.636363636364,4,1,0,75,0,1
62071,-117.647058823529,4,1,0,75,0,1
62417,-109.89010989011,4,1,0,75,0,1
62474,-113.636363636364,4,1,0,75,0,1
62532,-117.647058823529,4,1,0,75,0,1
62879,-109.89010989011,4,1,0,75,0,1
62936,-113.636363636364,4,1,0,75,0,1
62994,-117.647058823529,4,1,0,75,0,1
64033,-109.89010989011,4,1,0,75,0,1
64090,-113.636363636364,4,1,0,75,0,1
64148,-117.647058823529,4,1,0,75,0,1
64264,-109.89010989011,4,1,0,75,0,1
64321,-113.636363636364,4,1,0,75,0,1
64379,-117.647058823529,4,1,0,75,0,1
64725,-109.89010989011,4,1,0,75,0,1
64782,-113.636363636364,4,1,0,75,0,1
64840,-117.647058823529,4,1,0,75,0,1
64956,-109.89010989011,4,1,0,75,0,1
65013,-113.636363636364,4,1,0,75,0,1
65071,-117.647058823529,4,1,0,75,0,1
67725,-109.89010989011,4,1,0,75,0,1
67782,-113.636363636364,4,1,0,75,0,1
67840,-117.647058823529,4,1,0,75,0,1
67956,-109.89010989011,4,1,0,75,0,1
68013,-113.636363636364,4,1,0,75,0,1
68071,-117.647058823529,4,1,0,75,0,1
68417,-109.89010989011,4,1,0,75,0,1
68474,-113.636363636364,4,1,0,75,0,1
68532,-117.647058823529,4,1,0,75,0,1
69110,-109.89010989011,4,1,0,75,0,1
69167,-113.636363636364,4,1,0,75,0,1
69225,-117.647058823529,4,1,0,75,0,1
69341,-109.89010989011,4,1,0,75,0,1
69398,-113.636363636364,4,1,0,75,0,1
69456,-117.647058823529,4,1,0,75,0,1
69802,-109.89010989011,4,1,0,75,0,1
69859,-113.636363636364,4,1,0,75,0,1
69917,-117.647058823529,4,1,0,75,0,1
70264,-109.89010989011,4,1,0,75,0,1
70321,-113.636363636364,4,1,0,75,0,1
70379,-117.647058823529,4,1,0,75,0,1
70725,-100,4,1,0,75,0,0
73956,-103.092783505155,4,1,0,75,0,0
74072,-106.382978723404,4,1,0,75,0,0
74187,-109.89010989011,4,1,0,75,0,0
74302,-113.636363636364,4,1,0,75,0,0
74418,-117.647058823529,4,1,0,75,0,0
75341,-100,4,1,0,75,0,0
75418,-105.263157894737,4,1,0,75,0,0
75495,-111.111111111111,4,1,0,75,0,0
75572,-117.647058823529,4,1,0,75,0,0
77187,-100,4,1,0,75,0,0
77264,-105.263157894737,4,1,0,75,0,0
77341,-111.111111111111,4,1,0,75,0,0
77418,-117.647058823529,4,1,0,75,0,0
79033,-100,4,1,0,75,0,0
79110,-105.263157894737,4,1,0,75,0,0
79187,-111.111111111111,4,1,0,75,0,0
79264,-117.647058823529,4,1,0,75,0,0
80072,-105.263157894737,4,1,0,75,0,0
80302,-95.2380952380952,4,1,0,75,0,0
80418,-86.9565217391304,4,1,0,75,0,0
80648,-80,4,1,0,75,0,0
80764,-74.0740740740741,4,1,0,75,0,0
80995,-68.9655172413793,4,1,0,75,0,0
81110,-64.5161290322581,4,1,0,75,0,0
81341,-60.6060606060606,4,1,0,75,0,0
81572,-57.1428571428571,4,1,0,75,0,0
81687,-54.054054054054,4,1,0,75,0,0
81802,-117.647058823529,4,1,0,75,0,0
82725,-100,4,1,0,75,0,0
82802,-105.263157894737,4,1,0,75,0,0
82879,-111.111111111111,4,1,0,75,0,0
82956,-117.647058823529,4,1,0,75,0,0
84572,-100,4,1,0,75,0,0
84648,-105.263157894737,4,1,0,75,0,0
84725,-111.111111111111,4,1,0,75,0,0
84802,-117.647058823529,4,1,0,75,0,0
87687,-119.047619047619,4,1,0,75,0,0
87802,-120.481927710843,4,1,0,75,0,0
88033,-121.951219512195,4,1,0,75,0,0
88148,-123.456790123457,4,1,0,75,0,0
88379,-125,4,1,0,75,0,0
88495,-126.582278481013,4,1,0,75,0,0
88725,-128.205128205128,4,1,0,75,0,0
88841,-129.87012987013,4,1,0,75,0,0
88956,-131.578947368421,4,1,0,75,0,0
89187,-133.333333333333,4,1,0,75,0,0
90110,-111.111111111111,4,1,0,75,0,0
90187,-117.647058823529,4,1,0,75,0,0
90264,-125,4,1,0,75,0,0
90341,-133.333333333333,4,1,0,75,0,0
91956,-111.111111111111,4,1,0,75,0,0
92033,-117.647058823529,4,1,0,75,0,0
92110,-125,4,1,0,75,0,0
92187,-133.333333333333,4,1,0,75,0,0
93802,-111.111111111111,4,1,0,75,0,0
93879,-117.647058823529,4,1,0,75,0,0
93956,-125,4,1,0,75,0,0
94033,-133.333333333333,4,1,0,75,0,0
94841,-117.647058823529,4,1,0,75,0,0
95072,-105.263157894737,4,1,0,75,0,0
95187,-95.2380952380952,4,1,0,75,0,0
95418,-86.9565217391304,4,1,0,75,0,0
95533,-80,4,1,0,75,0,0
95764,-74.0740740740741,4,1,0,75,0,0
95879,-68.9655172413793,4,1,0,75,0,0
96110,-64.5161290322581,4,1,0,75,0,0
96341,-60.6060606060606,4,1,0,75,0,0
96456,-57.1428571428571,4,1,0,75,0,0
96572,-133.333333333333,4,1,0,75,0,0
97495,-111.111111111111,4,1,0,75,0,0
97572,-117.647058823529,4,1,0,75,0,0
97648,-125,4,1,0,75,0,0
97725,-133.333333333333,4,1,0,75,0,0
99341,-111.111111111111,4,1,0,75,0,0
99418,-117.647058823529,4,1,0,75,0,0
99495,-125,4,1,0,75,0,0
99572,-133.333333333333,4,1,0,75,0,0
102456,-135.135135135135,4,1,0,75,0,0
102572,-136.986301369863,4,1,0,75,0,0
102802,-138.888888888889,4,1,0,75,0,0
102918,-140.845070422535,4,1,0,75,0,0
103148,-142.857142857143,4,1,0,75,0,0
103264,-144.927536231884,4,1,0,75,0,0
103495,-147.058823529412,4,1,0,75,0,0
103610,-149.253731343284,4,1,0,75,0,0
103725,-151.515151515152,4,1,0,75,0,0
103956,-153.846153846154,4,1,0,75,0,0

[HitObjects]
224,160,572,5,4,0:0:0:0:
288,224,1033,1,8,0:0:0:0:
224,224,1264,1,0,0:0:0:0:
288,224,1495,1,8,0:0:0:0:
288,224,1725,1,8,0:0:0:0:
224,224,1956,1,0,0:0:0:0:
224,224,2418,1,0,0:0:0:0:
288,224,2879,1,8,0:0:0:0:
224,224,3110,1,0,0:0:0:0:
288,224,3341,1,8,0:0:0:0:
224,224,3572,1,0,0:0:0:0:
288,224,3802,1,8,0:0:0:0:
224,224,4264,1,0,0:0:0:0:
288,224,4725,1,8,0:0:0:0:
224,224,4956,1,0,0:0:0:0:
288,224,5187,1,8,0:0:0:0:
288,224,5418,1,8,0:0:0:0:
224,224,5648,1,0,0:0:0:0:
224,224,6110,1,0,0:0:0:0:
224,224,6225,1,0,0:0:0:0:
224,224,6341,1,0,0:0:0:0:
224,224,6456,1,0,0:0:0:0:
288,224,6572,1,8,0:0:0:0:
224,224,6802,1,0,0:0:0:0:
224,224,6918,1,0,0:0:0:0:
224,224,7033,1,0,0:0:0:0:
224,224,7148,1,0,0:0:0:0:
224,224,7264,1,0,0:0:0:0:
288,224,7495,1,8,0:0:0:0:
224,160,7956,1,4,0:0:0:0:
288,224,8418,1,8,0:0:0:0:
224,224,8648,1,0,0:0:0:0:
224,224,8879,1,0,0:0:0:0:
224,224,9110,1,0,0:0:0:0:
288,224,9341,1,8,0:0:0:0:
224,224,9802,1,0,0:0:0:0:
288,224,10264,1,8,0:0:0:0:
224,224,10495,1,0,0:0:0:0:
288,224,10725,1,8,0:0:0:0:
288,224,10956,1,8,0:0:0:0:
224,224,11187,1,0,0:0:0:0:
224,224,11648,1,0,0:0:0:0:
224,224,11764,1,0,0:0:0:0:
224,224,11879,1,0,0:0:0:0:
224,224,11995,1,0,0:0:0:0:
288,224,12110,1,8,0:0:0:0:
224,224,12341,1,0,0:0:0:0:
224,224,12456,1,0,0:0:0:0:
224,224,12572,1,0,0:0:0:0:
224,224,12687,1,0,0:0:0:0:
224,224,12802,1,0,0:0:0:0:
224,224,12918,1,0,0:0:0:0:
288,224,13033,1,8,0:0:0:0:
288,224,13264,1,8,0:0:0:0:
288,224,13322,1,8,0:0:0:0:
288,224,13379,1,8,0:0:0:0:
288,224,13437,1,8,0:0:0:0:
224,224,13495,1,0,0:0:0:0:
224,224,13610,1,0,0:0:0:0:
224,224,13725,1,0,0:0:0:0:
224,224,13841,1,0,0:0:0:0:
288,224,13956,1,8,0:0:0:0:
224,224,14187,1,0,0:0:0:0:
224,224,14302,1,0,0:0:0:0:
224,224,14418,1,0,0:0:0:0:
224,224,14533,1,0,0:0:0:0:
224,224,14648,1,0,0:0:0:0:
288,224,14879,1,8,0:0:0:0:
224,160,15341,1,4,0:0:0:0:
224,224,15687,1,0,0:0:0:0:
288,224,15802,1,8,0:0:0:0:
224,160,16033,1,4,0:0:0:0:
288,224,16264,1,8,0:0:0:0:
288,224,16379,1,8,0:0:0:0:
224,224,16495,1,0,0:0:0:0:
288,224,16725,1,8,0:0:0:0:
288,224,16956,1,8,0:0:0:0:
288,224,17072,1,8,0:0:0:0:
224,160,17187,1,4,0:0:0:0:
224,224,17533,1,0,0:0:0:0:
288,224,17648,1,8,0:0:0:0:
224,160,17879,1,4,0:0:0:0:
288,224,18110,1,8,0:0:0:0:
288,224,18225,1,8,0:0:0:0:
224,160,18341,1,4,0:0:0:0:
288,224,18572,1,8,0:0:0:0:
224,160,18687,1,4,0:0:0:0:
224,160,19033,1,4,0:0:0:0:
224,224,19379,1,0,0:0:0:0:
288,224,19495,1,8,0:0:0:0:
224,160,19725,1,4,0:0:0:0:
288,224,19956,1,8,0:0:0:0:
288,224,20072,1,8,0:0:0:0:
224,224,20187,1,0,0:0:0:0:
288,224,20418,1,8,0:0:0:0:
288,224,20648,1,8,0:0:0:0:
288,224,20764,1,8,0:0:0:0:
224,160,20879,1,4,0:0:0:0:
224,224,21110,1,0,0:0:0:0:
288,224,21341,1,8,0:0:0:0:
224,160,21572,1,4,0:0:0:0:
288,224,21687,1,8,0:0:0:0:
288,224,21918,1,8,0:0:0:0:
224,160,22033,1,4,0:0:0:0:
288,224,22264,1,8,0:0:0:0:
224,160,22379,1,4,0:0:0:0:
224,160,22725,1,4,0:0:0:0:
224,224,23072,1,0,0:0:0:0:
288,224,23187,1,8,0:0:0:0:
224,160,23418,1,4,0:0:0:0:
288,224,23648,1,8,0:0:0:0:
288,224,23764,1,8,0:0:0:0:
224,224,23879,1,0,0:0:0:0:
288,224,24110,1,8,0:0:0:0:
288,224,24341,1,8,0:0:0:0:
288,224,24456,1,8,0:0:0:0:
224,160,24572,1,4,0:0:0:0:
224,224,24918,1,0,0:0:0:0:
288,224,25033,1,8,0:0:0:0:
224,160,25264,1,4,0:0:0:0:
288,224,25495,1,8,0:0:0:0:
288,224,25610,1,8,0:0:0:0:
224,160,25725,1,4,0:0:0:0:
288,224,25956,1,8,0:0:0:0:
224,160,26072,1,4,0:0:0:0:
224,160,26418,1,4,0:0:0:0:
224,224,26764,1,0,0:0:0:0:
288,224,26879,1,8,0:0:0:0:
224,160,27110,1,4,0:0:0:0:
288,224,27341,1,8,0:0:0:0:
288,224,27456,1,8,0:0:0:0:
224,224,27572,1,0,0:0:0:0:
288,224,27802,1,8,0:0:0:0:
288,224,28033,1,8,0:0:0:0:
288,224,28148,1,8,0:0:0:0:
224,160,28264,1,4,0:0:0:0:
288,224,28725,1,8,0:0:0:0:
224,224,28956,1,0,0:0:0:0:
288,224,29187,1,8,0:0:0:0:
288,224,29418,1,8,0:0:0:0:
288,224,29648,1,8,0:0:0:0:
224,160,30110,1,4,0:0:0:0:
224,224,30456,1,0,0:0:0:0:
288,224,30572,1,8,0:0:0:0:
224,224,30802,1,0,0:0:0:0:
224,224,31033,1,0,0:0:0:0:
224,224,31148,1,0,0:0:0:0:
288,224,31264,1,8,0:0:0:0:
288,224,31495,1,8,0:0:0:0:
224,224,31725,1,0,0:0:0:0:
224,224,31802,1,0,0:0:0:0:
224,224,31879,1,0,0:0:0:0:
288,224,31956,1,8,0:0:0:0:
224,224,32302,1,0,0:0:0:0:
288,224,32418,1,8,0:0:0:0:
288,224,32648,1,8,0:0:0:0:
288,224,32879,1,8,0:0:0:0:
288,224,32995,1,8,0:0:0:0:
224,224,33110,1,0,0:0:0:0:
288,224,33225,1,8,0:0:0:0:
224,224,33341,1,0,0:0:0:0:
288,224,33572,1,8,0:0:0:0:
224,224,33648,1,0,0:0:0:0:
224,224,33725,1,0,0:0:0:0:
288,224,33802,1,8,0:0:0:0:
224,224,34148,1,0,0:0:0:0:
288,224,34264,1,8,0:0:0:0:
224,224,34495,1,0,0:0:0:0:
288,224,34725,1,8,0:0:0:0:
224,224,34841,1,0,0:0:0:0:
288,224,34956,1,8,0:0:0:0:
288,224,35072,1,8,0:0:0:0:
224,224,35187,1,0,0:0:0:0:
224,224,35418,1,0,0:0:0:0:
224,224,35495,1,0,0:0:0:0:
224,224,35572,1,0,0:0:0:0:
288,224,35648,1,8,0:0:0:0:
224,224,35995,1,0,0:0:0:0:
288,224,36110,1,8,0:0:0:0:
224,224,36341,1,0,0:0:0:0:
288,224,36572,1,8,0:0:0:0:
224,224,36687,1,0,0:0:0:0:
288,224,36802,1,8,0:0:0:0:
224,224,36918,1,0,0:0:0:0:
288,224,37033,1,8,0:0:0:0:
288,224,37264,1,8,0:0:0:0:
224,224,37341,1,0,0:0:0:0:
224,224,37418,1,0,0:0:0:0:
288,224,37495,1,8,0:0:0:0:
224,224,37725,1,0,0:0:0:0:
224,224,37841,1,0,0:0:0:0:
288,224,37956,1,8,0:0:0:0:
224,224,38187,1,0,0:0:0:0:
288,224,38418,1,8,0:0:0:0:
224,224,38648,1,0,0:0:0:0:
224,224,38764,1,0,0:0:0:0:
288,224,38879,1,8,0:0:0:0:
224,224,39110,1,0,0:0:0:0:
288,224,39341,1,8,0:0:0:0:
224,224,39572,1,0,0:0:0:0:
224,224,39687,1,0,0:0:0:0:
288,224,39802,1,8,0:0:0:0:
224,224,40033,1,0,0:0:0:0:
288,224,40264,1,8,0:0:0:0:
224,224,40495,1,0,0:0:0:0:
224,224,40610,1,0,0:0:0:0:
288,224,40725,1,8,0:0:0:0:
224,224,40956,1,0,0:0:0:0:
224,224,41033,1,0,0:0:0:0:
224,224,41110,1,0,0:0:0:0:
288,224,41187,1,8,0:0:0:0:
224,224,41302,1,0,0:0:0:0:
288,224,41418,1,8,0:0:0:0:
224,224,41533,1,0,0:0:0:0:
288,224,41648,1,8,0:0:0:0:
224,224,41764,1,0,0:0:0:0:
288,224,41879,1,8,0:0:0:0:
288,224,41995,1,8,0:0:0:0:
224,224,42110,1,0,0:0:0:0:
224,224,42225,1,0,0:0:0:0:
224,224,42341,1,0,0:0:0:0:
224,224,42456,1,0,0:0:0:0:
224,224,42572,1,0,0:0:0:0:
224,224,42687,1,0,0:0:0:0:
224,224,42802,1,0,0:0:0:0:
224,224,42918,1,0,0:0:0:0:
256,192,43033,12,8,43956,0:0:0:0:
224,224,44879,5,0,0:0:0:0:
224,224,44995,1,0,0:0:0:0:
224,224,45110,1,0,0:0:0:0:
224,224,45225,1,0,0:0:0:0:
224,224,45341,1,0,0:0:0:0:
224,224,45456,1,0,0:0:0:0:
288,224,45572,1,8,0:0:0:0:
288,224,45629,1,8,0:0:0:0:
224,224,45687,1,0,0:0:0:0:
288,224,45802,1,8,0:0:0:0:
288,224,45860,1,8,0:0:0:0:
224,224,45918,1,0,0:0:0:0:
288,224,46033,1,8,0:0:0:0:
224,224,46148,1,0,0:0:0:0:
288,224,46264,1,8,0:0:0:0:
288,224,46322,1,8,0:0:0:0:
224,224,46379,1,0,0:0:0:0:
288,224,46495,1,8,0:0:0:0:
288,224,46610,1,8,0:0:0:0:
224,224,46725,1,0,0:0:0:0:
288,224,46841,1,8,0:0:0:0:
288,224,46956,1,8,0:0:0:0:
288,224,47014,1,8,0:0:0:0:
224,224,47072,1,0,0:0:0:0:
288,224,47187,1,8,0:0:0:0:
288,224,47245,1,8,0:0:0:0:
224,224,47302,1,0,0:0:0:0:
288,224,47418,1,8,0:0:0:0:
224,224,47533,1,0,0:0:0:0:
288,224,47648,1,8,0:0:0:0:
288,224,47706,1,8,0:0:0:0:
224,224,47764,1,0,0:0:0:0:
288,224,47879,1,8,0:0:0:0:
224,224,47995,1,0,0:0:0:0:
288,224,48110,1,8,0:0:0:0:
288,224,48168,1,8,0:0:0:0:
224,224,48225,1,0,0:0:0:0:
224,224,48341,1,0,0:0:0:0:
224,224,48572,1,0,0:0:0:0:
224,224,48687,1,0,0:0:0:0:
224,224,48802,1,0,0:0:0:0:
224,224,48918,1,0,0:0:0:0:
224,224,49033,1,0,0:0:0:0:
224,224,49148,1,0,0:0:0:0:
288,224,49264,1,8,0:0:0:0:
288,224,49322,1,8,0:0:0:0:
224,224,49379,1,0,0:0:0:0:
288,224,49495,1,8,0:0:0:0:
288,224,49552,1,8,0:0:0:0:
224,224,49610,1,0,0:0:0:0:
288,224,49725,1,8,0:0:0:0:
224,224,49841,1,0,0:0:0:0:
288,224,49956,1,8,0:0:0:0:
288,224,50014,1,8,0:0:0:0:
224,224,50072,1,0,0:0:0:0:
288,224,50187,1,8,0:0:0:0:
288,224,50245,1,8,0:0:0:0:
224,224,50302,1,0,0:0:0:0:
224,224,50418,1,0,0:0:0:0:
224,224,50533,1,0,0:0:0:0:
288,224,50648,1,8,0:0:0:0:
224,224,50764,1,0,0:0:0:0:
288,224,50995,1,8,0:0:0:0:
224,224,51110,1,0,0:0:0:0:
288,224,51225,1,8,0:0:0:0:
288,224,51456,1,8,0:0:0:0:
224,224,51572,1,0,0:0:0:0:
288,224,51802,1,8,0:0:0:0:
288,224,52033,1,8,0:0:0:0:
288,224,52091,1,8,0:0:0:0:
288,224,52148,1,8,0:0:0:0:
288,224,52206,1,8,0:0:0:0:
224,224,52264,5,0,0:0:0:0:
224,224,52379,1,0,0:0:0:0:
224,224,52495,1,0,0:0:0:0:
224,224,52610,1,0,0:0:0:0:
224,224,52725,1,0,0:0:0:0:
224,224,52841,1,0,0:0:0:0:
288,224,52956,1,8,0:0:0:0:
288,224,53014,1,8,0:0:0:0:
224,224,53072,1,0,0:0:0:0:
288,224,53187,1,8,0:0:0:0:
288,224,53245,1,8,0:0:0:0:
224,224,53302,1,0,0:0:0:0:
288,224,53418,1,8,0:0:0:0:
224,224,53533,1,0,0:0:0:0:
288,224,53648,1,8,0:0:0:0:
288,224,53706,1,8,0:0:0:0:
224,224,53764,1,0,0:0:0:0:
288,224,53879,1,8,0:0:0:0:
288,224,53995,1,8,0:0:0:0:
224,224,54110,1,0,0:0:0:0:
288,224,54225,1,8,0:0:0:0:
288,224,54341,1,8,0:0:0:0:
288,224,54398,1,8,0:0:0:0:
224,224,54456,1,0,0:0:0:0:
288,224,54572,1,8,0:0:0:0:
288,224,54629,1,8,0:0:0:0:
224,224,54687,1,0,0:0:0:0:
288,224,54802,1,8,0:0:0:0:
224,224,54918,1,0,0:0:0:0:
288,224,55033,1,8,0:0:0:0:
288,224,55091,1,8,0:0:0:0:
224,224,55148,1,0,0:0:0:0:
288,224,55264,1,8,0:0:0:0:
224,224,55379,1,0,0:0:0:0:
288,224,55495,1,8,0:0:0:0:
288,224,55552,1,8,0:0:0:0:
224,224,55610,1,0,0:0:0:0:
224,224,55725,1,0,0:0:0:0:
224,224,55956,1,0,0:0:0:0:
288,224,56072,1,8,0:0:0:0:
224,224,56302,1,0,0:0:0:0:
224,224,56360,1,0,0:0:0:0:
288,224,56418,1,8,0:0:0:0:
224,224,56648,1,0,0:0:0:0:
224,224,56706,1,0,0:0:0:0:
288,224,56764,1,8,0:0:0:0:
224,224,56995,1,0,0:0:0:0:
224,224,57110,1,0,0:0:0:0:
288,224,57341,1,8,0:0:0:0:
288,224,57572,1,8,0:0:0:0:
288,224,57629,1,8,0:0:0:0:
288,224,57687,1,8,0:0:0:0:
288,224,57745,1,8,0:0:0:0:
224,224,57802,1,0,0:0:0:0:
224,224,58148,1,0,0:0:0:0:
288,224,58264,1,8,0:0:0:0:
224,224,58495,1,0,0:0:0:0:
224,224,58552,1,0,0:0:0:0:
288,224,58610,1,8,0:0:0:0:
224,224,58841,1,0,0:0:0:0:
224,224,58898,1,0,0:0:0:0:
288,224,58956,1,8,0:0:0:0:
224,224,59187,1,0,0:0:0:0:
224,224,59648,5,0,0:0:0:0:
224,224,59764,1,0,0:0:0:0:
224,224,59879,1,0,0:0:0:0:
224,224,59995,1,0,0:0:0:0:
224,224,60110,1,0,0:0:0:0:
224,224,60225,1,0,0:0:0:0:
288,224,60341,1,8,0:0:0:0:
288,224,60398,1,8,0:0:0:0:
224,224,60456,1,0,0:0:0:0:
288,224,60572,1,8,0:0:0:0:
288,224,60629,1,8,0:0:0:0:
224,224,60687,1,0,0:0:0:0:
288,224,60802,1,8,0:0:0:0:
224,224,60918,1,0,0:0:0:0:
288,224,61033,1,8,0:0:0:0:
288,224,61091,1,8,0:0:0:0:
224,224,61148,1,0,0:0:0:0:
288,224,61264,1,8,0:0:0:0:
288,224,61379,1,8,0:0:0:0:
224,224,61495,1,0,0:0:0:0:
288,224,61610,1,8,0:0:0:0:
288,224,61725,1,8,0:0:0:0:
288,224,61783,1,8,0:0:0:0:
224,224,61841,1,0,0:0:0:0:
288,224,61956,1,8,0:0:0:0:
288,224,62014,1,8,0:0:0:0:
224,224,62072,1,0,0:0:0:0:
288,224,62187,1,8,0:0:0:0:
224,224,62302,1,0,0:0:0:0:
288,224,62418,1,8,0:0:0:0:
288,224,62475,1,8,0:0:0:0:
224,224,62533,1,0,0:0:0:0:
288,224,62648,1,8,0:0:0:0:
224,224,62764,1,0,0:0:0:0:
288,224,62879,1,8,0:0:0:0:
288,224,62937,1,8,0:0:0:0:
224,224,62995,1,0,0:0:0:0:
224,224,63110,1,0,0:0:0:0:
224,224,63341,1,0,0:0:0:0:
224,224,63456,1,0,0:0:0:0:
224,224,63572,1,0,0:0:0:0:
224,224,63687,1,0,0:0:0:0:
224,224,63802,1,0,0:0:0:0:
224,224,63918,1,0,0:0:0:0:
288,224,64033,1,8,0:0:0:0:
288,224,64091,1,8,0:0:0:0:
224,224,64148,1,0,0:0:0:0:
288,224,64264,1,8,0:0:0:0:
288,224,64322,1,8,0:0:0:0:
224,224,64379,1,0,0:0:0:0:
288,224,64495,1,8,0:0:0:0:
224,224,64610,1,0,0:0:0:0:
288,224,64725,1,8,0:0:0:0:
288,224,64783,1,8,0:0:0:0:
224,224,64841,1,0,0:0:0:0:
288,224,64956,1,8,0:0:0:0:
288,224,65014,1,8,0:0:0:0:
224,224,65072,1,0,0:0:0:0:
224,224,65187,1,0,0:0:0:0:
224,224,65302,1,0,0:0:0:0:
288,224,65418,1,8,0:0:0:0:
224,224,65533,1,0,0:0:0:0:
288,224,65764,1,8,0:0:0:0:
224,224,65879,1,0,0:0:0:0:
288,224,65995,1,8,0:0:0:0:
288,224,66225,1,8,0:0:0:0:
224,224,66341,1,0,0:0:0:0:
288,224,66572,1,8,0:0:0:0:
288,224,66802,1,8,0:0:0:0:
288,224,66860,1,8,0:0:0:0:
288,224,66918,1,8,0:0:0:0:
288,224,66975,1,8,0:0:0:0:
224,224,67033,5,0,0:0:0:0:
224,224,67148,1,0,0:0:0:0:
224,224,67264,1,0,0:0:0:0:
224,224,67379,1,0,0:0:0:0:
224,224,67495,1,0,0:0:0:0:
224,224,67610,1,0,0:0:0:0:
288,224,67725,1,8,0:0:0:0:
288,224,67783,1,8,0:0:0:0:
224,224,67841,1,0,0:0:0:0:
288,224,67956,1,8,0:0:0:0:
288,224,68014,1,8,0:0:0:0:
224,224,68072,1,0,0:0:0:0:
288,224,68187,1,8,0:0:0:0:
224,224,68302,1,0,0:0:0:0:
288,224,68418,1,8,0:0:0:0:
288,224,68475,1,8,0:0:0:0:
224,224,68533,1,0,0:0:0:0:
288,224,68648,1,8,0:0:0:0:
288,224,68764,1,8,0:0:0:0:
224,224,68879,1,0,0:0:0:0:
288,224,68995,1,8,0:0:0:0:
288,224,69110,1,8,0:0:0:0:
288,224,69168,1,8,0:0:0:0:
224,224,69225,1,0,0:0:0:0:
288,224,69341,1,8,0:0:0:0:
288,224,69398,1,8,0:0:0:0:
224,224,69456,1,0,0:0:0:0:
288,224,69572,1,8,0:0:0:0:
224,224,69687,1,0,0:0:0:0:
288,224,69802,1,8,0:0:0:0:
288,224,69860,1,8,0:0:0:0:
224,224,69918,1,0,0:0:0:0:
288,224,70033,1,8,0:0:0:0:
224,224,70148,1,0,0:0:0:0:
288,224,70264,1,8,0:0:0:0:
288,224,70322,1,8,0:0:0:0:
224,224,70379,1,0,0:0:0:0:
224,224,70495,1,0,0:0:0:0:
288,224,70725,1,8,0:0:0:0:
224,224,70841,1,0,0:0:0:0:
288,224,70956,1,8,0:0:0:0:
288,224,71072,1,8,0:0:0:0:
224,224,71187,1,0,0:0:0:0:
288,224,71418,1,8,0:0:0:0:
288,224,71533,1,8,0:0:0:0:
288,224,71764,1,8,0:0:0:0:
288,224,71879,1,8,0:0:0:0:
224,224,72110,1,0,0:0:0:0:
288,224,72341,1,8,0:0:0:0:
288,224,72456,1,8,0:0:0:0:
224,224,72572,1,0,0:0:0:0:
224,224,72802,1,0,0:0:0:0:
288,224,73033,1,8,0:0:0:0:
224,224,73264,1,0,0:0:0:0:
288,224,73379,1,8,0:0:0:0:
288,224,73610,1,8,0:0:0:0:
224,224,73725,1,0,0:0:0:0:
288,224,73956,1,8,0:0:0:0:
224,224,74072,1,0,0:0:0:0:
288,224,74187,1,8,0:0:0:0:
288,224,74302,1,8,0:0:0:0:
224,224,74418,1,0,0:0:0:0:
224,224,74764,1,0,0:0:0:0:
288,224,74879,1,8,0:0:0:0:
224,224,75110,1,0,0:0:0:0:
288,224,75341,1,8,0:0:0:0:
288,224,75418,1,8,0:0:0:0:
288,224,75495,1,8,0:0:0:0:
224,224,75572,1,0,0:0:0:0:
288,224,75802,1,8,0:0:0:0:
288,224,76033,1,8,0:0:0:0:
288,224,76148,1,8,0:0:0:0:
224,224,76264,1,0,0:0:0:0:
224,224,76610,1,0,0:0:0:0:
288,224,76725,1,8,0:0:0:0:
224,224,76956,1,0,0:0:0:0:
288,224,77187,1,8,0:0:0:0:
288,224,77264,1,8,0:0:0:0:
288,224,77341,1,8,0:0:0:0:
224,224,77418,1,0,0:0:0:0:
288,224,77648,1,8,0:0:0:0:
224,224,77764,1,0,0:0:0:0:
288,224,77879,1,8,0:0:0:0:
224,224,78110,1,0,0:0:0:0:
224,224,78456,1,0,0:0:0:0:
288,224,78572,1,8,0:0:0:0:
224,224,78802,1,0,0:0:0:0:
288,224,79033,1,8,0:0:0:0:
288,224,79110,1,8,0:0:0:0:
288,224,79187,1,8,0:0:0:0:
224,224,79264,1,0,0:0:0:0:
288,224,79495,1,8,0:0:0:0:
288,224,79725,1,8,0:0:0:0:
288,224,79841,1,8,0:0:0:0:
224,224,79956,1,0,0:0:0:0:
224,224,80072,1,0,0:0:0:0:
224,224,80302,1,0,0:0:0:0:
288,224,80418,1,8,0:0:0:0:
224,224,80648,1,0,0:0:0:0:
288,224,80764,1,8,0:0:0:0:
288,224,80995,1,8,0:0:0:0:
224,224,81110,1,0,0:0:0:0:
288,224,81341,1,8,0:0:0:0:
288,224,81572,1,8,0:0:0:0:
288,224,81687,1,8,0:0:0:0:
224,224,81802,1,0,0:0:0:0:
224,224,82148,1,0,0:0:0:0:
288,224,82264,1,8,0:0:0:0:
224,224,82495,1,0,0:0:0:0:
288,224,82725,1,8,0:0:0:0:
288,224,82802,1,8,0:0:0:0:
288,224,82879,1,8,0:0:0:0:
224,224,82956,1,0,0:0:0:0:
288,224,83187,1,8,0:0:0:0:
288,224,83418,1,8,0:0:0:0:
288,224,83533,1,8,0:0:0:0:
224,224,83648,1,0,0:0:0:0:
224,224,83995,1,0,0:0:0:0:
288,224,84110,1,8,0:0:0:0:
224,224,84341,1,0,0:0:0:0:
288,224,84572,1,8,0:0:0:0:
288,224,84648,1,8,0:0:0:0:
288,224,84725,1,8,0:0:0:0:
224,224,84802,1,0,0:0:0:0:
288,224,85033,1,8,0:0:0:0:
224,224,85148,1,0,0:0:0:0:
288,224,85264,1,8,0:0:0:0:
224,224,85495,1,0,0:0:0:0:
224,224,85610,1,0,0:0:0:0:
224,224,85841,1,0,0:0:0:0:
288,224,85956,1,8,0:0:0:0:
224,224,86187,1,0,0:0:0:0:
224,224,86302,1,0,0:0:0:0:
224,224,86533,1,0,0:0:0:0:
224,224,86648,1,0,0:0:0:0:
288,224,86879,1,8,0:0:0:0:
224,224,86995,1,0,0:0:0:0:
288,224,87110,1,8,0:0:0:0:
288,224,87187,1,8,0:0:0:0:
288,224,87264,1,8,0:0:0:0:
224,224,87341,1,0,0:0:0:0:
224,224,87456,1,0,0:0:0:0:
224,224,87687,1,0,0:0:0:0:
288,224,87802,1,8,0:0:0:0:
224,224,88033,1,0,0:0:0:0:
224,224,88148,1,0,0:0:0:0:
224,224,88379,1,0,0:0:0:0:
224,224,88495,1,0,0:0:0:0:
288,224,88725,1,8,0:0:0:0:
224,224,88841,1,0,0:0:0:0:
288,224,88956,1,8,0:0:0:0:
224,224,89187,1,0,0:0:0:0:
224,224,89533,1,0,0:0:0:0:
288,224,89648,1,8,0:0:0:0:
224,224,89879,1,0,0:0:0:0:
288,224,90110,1,8,0:0:0:0:
288,224,90187,1,8,0:0:0:0:
288,224,90264,1,8,0:0:0:0:
224,224,90341,1,0,0:0:0:0:
288,224,90572,1,8,0:0:0:0:
288,224,90802,1,8,0:0:0:0:
288,224,90918,1,8,0:0:0:0:
224,224,91033,1,0,0:0:0:0:
224,224,91379,1,0,0:0:0:0:
288,224,91495,1,8,0:0:0:0:
224,224,91725,1,0,0:0:0:0:
288,224,91956,1,8,0:0:0:0:
288,224,92033,1,8,0:0:0:0:
288,224,92110,1,8,0:0:0:0:
224,224,92187,1,0,0:0:0:0:
288,224,92418,1,8,0:0:0:0:
224,224,92533,1,0,0:0:0:0:
288,224,92648,1,8,0:0:0:0:
224,224,92879,1,0,0:0:0:0:
224,224,93225,1,0,0:0:0:0:
288,224,93341,1,8,0:0:0:0:
224,224,93572,1,0,0:0:0:0:
288,224,93802,1,8,0:0:0:0:
288,224,93879,1,8,0:0:0:0:
288,224,93956,1,8,0:0:0:0:
224,224,94033,1,0,0:0:0:0:
288,224,94264,1,8,0:0:0:0:
288,224,94495,1,8,0:0:0:0:
288,224,94610,1,8,0:0:0:0:
224,224,94725,1,0,0:0:0:0:
224,224,94841,1,0,0:0:0:0:
224,224,95072,1,0,0:0:0:0:
288,224,95187,1,8,0:0:0:0:
224,224,95418,1,0,0:0:0:0:
288,224,95533,1,8,0:0:0:0:
288,224,95764,1,8,0:0:0:0:
224,224,95879,1,0,0:0:0:0:
288,224,96110,1,8,0:0:0:0:
288,224,96341,1,8,0:0:0:0:
288,224,96456,1,8,0:0:0:0:
224,224,96572,1,0,0:0:0:0:
224,224,96918,1,0,0:0:0:0:
288,224,97033,1,8,0:0:0:0:
224,224,97264,1,0,0:0:0:0:
288,224,97495,1,8,0:0:0:0:
288,224,97572,1,8,0:0:0:0:
288,224,97648,1,8,0:0:0:0:
224,224,97725,1,0,0:0:0:0:
288,224,97956,1,8,0:0:0:0:
288,224,98187,1,8,0:0:0:0:
288,224,98302,1,8,0:0:0:0:
224,224,98418,1,0,0:0:0:0:
224,224,98764,1,0,0:0:0:0:
288,224,98879,1,8,0:0:0:0:
224,224,99110,1,0,0:0:0:0:
288,224,99341,1,8,0:0:0:0:
288,224,99418,1,8,0:0:0:0:
288,224,99495,1,8,0:0:0:0:
224,224,99572,1,0,0:0:0:0:
288,224,99802,1,8,0:0:0:0:
224,224,99918,1,0,0:0:0:0:
288,224,100033,1,8,0:0:0:0:
224,224,100264,1,0,0:0:0:0:
224,224,100379,1,0,0:0:0:0:
224,224,100610,1,0,0:0:0:0:
288,224,100725,1,8,0:0:0:0:
224,224,100956,1,0,0:0:0:0:
224,224,101072,1,0,0:0:0:0:
224,224,101302,1,0,0:0:0:0:
224,224,101418,1,0,0:0:0:0:
288,224,101648,1,8,0:0:0:0:
224,224,101764,1,0,0:0:0:0:
288,224,101879,1,8,0:0:0:0:
288,224,101956,1,8,0:0:0:0:
288,224,102033,1,8,0:0:0:0:
224,224,102110,1,0,0:0:0:0:
224,224,102225,1,0,0:0:0:0:
224,224,102456,1,0,0:0:0:0:
288,224,102572,1,8,0:0:0:0:
224,224,102802,1,0,0:0:0:0:
224,224,102918,1,0,0:0:0:0:
224,224,103148,1,0,0:0:0:0:
224,224,103264,1,0,0:0:0:0:
288,224,103495,1,8,0:0:0:0:
224,224,103610,1,0,0:0:0:0:
288,224,103725,1,8,0:0:0:0:
256,192,103956,12,0,110160,0:0:0:0:
