osu file format v14

[General]
AudioFilename: 01. Sham Cold Girls.mp3
AudioLeadIn: 0
PreviewTime: 73645
Countdown: 0
SampleSet: None
StackLeniency: 0.3
Mode: 0
LetterboxInBreaks: 1
WidescreenStoryboard: 1

[Editor]
Bookmarks: 14020,74020,101020,161020,203020,227020
DistanceSpacing: 1
BeatDivisor: 4
GridSize: 4
TimelineZoom: 3.299999

[Metadata]
Title:Sham Cold Girls
TitleUnicode:Sham Cold Girls
Artist:Noire (CV:Asami Imai) x Uni (CV:Eri Kitamura)
ArtistUnicode:ノワール (CV:今井麻美)xユニ (CV:喜多村英梨)
Creator:Aikyuu-Chan
Version:Normal
Source:超次元ゲイム ネプテューヌ
Tags:Hyperdimension Game Neptunia 超次元ゲイム ネプテューヌ デュエットシスターズソングVol.2 Choujigen Geimu Neptune Duet Sister Song Vol.2 Noire Uni Cosplay Idol Visual Novel RPG Cosplay
BeatmapID:1421322
BeatmapSetID:672357

[Difficulty]
HPDrainRate:3
CircleSize:3
OverallDifficulty:4
ApproachRate:4
SliderMultiplier:0.99999990463257
SliderTickRate:1

[Events]
//Background and Video events
0,0,"Uni-Noire.jpg",0,0
//Break Periods
2,101020,111700
2,187832,201137
//Storyboard Layer 0 (Background)
//Storyboard Layer 1 (Fail)
//Storyboard Layer 2 (Pass)
//Storyboard Layer 3 (Foreground)
//Storyboard Sound Samples

[TimingPoints]
520,375,4,2,0,100,1,0
1926,-100,4,1,1,100,0,1
2020,-100,4,1,1,100,0,0
14020,-100,4,2,1,100,0,1
14113,-83.3333333333333,4,2,1,100,0,0
38020,-100,4,2,2,100,0,1
38113,-125,4,2,2,100,0,0
50020,-90.9090909090909,4,3,1,100,0,1
50113,-90.9090909090909,4,1,0,100,0,0
74020,-76.9230769230769,4,2,1,100,0,1
85645,-58.8235294117647,4,2,0,5,0,0
86020,-76.9230769230769,4,2,2,100,0,1
99520,-166.666666666667,4,1,0,100,0,0
101020,-100,4,2,1,100,0,1
101113,-83.3333333333333,4,2,1,100,0,0
125020,-90.9090909090909,4,2,2,100,0,1
125113,-111.111111111111,4,2,2,100,0,0
136457,-62.5,4,3,0,100,0,0
137020,-83.3333333333333,4,1,1,100,0,1
137113,-83.3333333333333,4,1,1,100,0,0
148457,-66.6666666666667,4,2,2,100,0,0
149207,-90.9090909090909,4,2,2,100,0,0
161020,-76.9230769230769,4,2,1,100,0,1
172645,-62.5,4,2,3,5,0,0
173020,-76.9230769230769,4,2,2,100,0,1
186520,-90.9090909090909,4,1,0,100,0,0
203020,-166.666666666667,4,2,0,100,0,0
215020,-83.3333333333333,4,2,1,100,0,1
215113,-83.3333333333333,4,2,1,100,0,0
227020,-76.9230769230769,4,2,2,100,0,1
238645,-50,4,3,0,100,0,0
239020,-76.9230769230769,4,2,1,100,0,1
252520,-90.9090909090909,4,2,1,100,0,0
254020,-90.9090909090909,4,1,1,100,0,1
254113,-90.9090909090909,4,1,1,100,0,0
266020,-166.666666666667,4,1,2,100,0,0

[Colours]
Combo1 : 255,255,255
Combo2 : 0,0,0
Combo3 : 128,128,128
Combo4 : 128,0,0
Combo5 : 255,0,0

[HitObjects]
84,160,520,6,2,L|184:136,1,99.999990463257
224,228,1270,2,2,P|288:236|328:212,1,99.999990463257
356,188,1832,6,0,L|436:44,1,149.999985694885,8|8,0:0|0:0,0:0:0:0:
328,60,2770,2,8,P|256:104|256:180,1,149.999985694885
292,188,3520,2,8,P|304:252|232:304,1,149.999985694885
196,288,4270,2,4,L|144:200,1,99.999990463257
112,168,4832,6,8,L|192:88,1,99.999990463257
232,84,5395,1,4,0:0:0:0:
288,168,5770,2,8,P|336:228|400:216,1,149.999985694885
416,168,6520,2,8,P|392:80|328:80,1,149.999985694885
296,76,7270,2,8,B|240:56|240:56|200:72|164:124,1,149.999985694885
148,156,8020,6,4,L|128:276,1,99.999990463257
152,300,8582,2,2,L|252:280,1,99.999990463257
284,244,9145,1,4,0:0:0:0:
340,160,9520,1,4,0:0:0:0:
212,80,10082,6,2,P|144:100|112:136,1,99.999990463257
112,168,10645,2,4,L|116:272,1,99.999990463257
196,324,11395,2,8,P|240:344|292:320,2,99.999990463257
204,276,12332,2,2,L|240:128,1,149.999985694885
284,104,13082,2,2,B|344:128|344:128|360:148|352:228,1,149.999985694885
272,272,14020,6,0,P|188:264|176:240,1,99.999990463257,2|8,0:0|0:0,0:0:0:0:
152,144,14770,2,2,P|240:124|260:84,1,119.999984893799
368,140,15520,1,2,0:0:0:0:
340,256,15895,2,0,P|296:304|224:312,1,119.999984893799,8|2,0:0|0:0,0:0:0:0:
108,228,16645,1,2,0:0:0:0:
40,40,17020,6,2,B|108:80|160:68|160:68|204:124|196:196,1,239.999969787599
256,264,18145,1,2,0:0:0:0:
316,172,18520,2,2,B|309:122|353:66|353:66|405:78|473:38,1,239.999969787599
416,192,19645,1,2,0:0:0:0:
332,276,20020,6,0,P|264:240|208:232,1,119.999984893799,2|8,0:0|0:0,0:0:0:0:
144,140,20770,1,2,0:0:0:0:
248,84,21145,2,0,L|300:112,1,59.9999924468997,2|0,0:0|0:0,0:0:0:0:
344,156,21520,2,0,P|316:228|312:296,2,119.999984893799,2|8|2,0:0|0:0|0:0,0:0:0:0:
396,48,22645,1,2,0:0:0:0:
276,56,23020,6,0,P|232:88|160:64,1,119.999984893799,2|2,0:0|0:0,0:0:0:0:
112,56,23582,2,0,P|88:108|116:176,1,119.999984893799,2|2,0:0|0:0,0:0:0:0:
140,216,24145,2,2,L|124:296,1,59.9999924468997
160,324,24520,2,2,L|224:344,1,59.9999924468997
272,312,24895,6,4,P|308:300|320:264,5,59.9999924468997
344,228,26020,6,0,L|352:92,1,119.999984893799,2|8,0:0|0:0,0:0:0:0:
232,96,26770,1,2,0:0:0:0:
176,120,26957,1,2,0:0:0:0:
116,120,27145,2,0,L|112:180,1,59.9999924468997,4|0,0:0|0:0,0:0:0:0:
144,232,27520,2,0,P|200:240|252:204,3,119.999984893799,2|8|2|4,0:0|0:0|0:0|0:0,0:0:0:0:
288,320,29020,6,0,P|340:336|376:288,1,119.999984893799,2|8,0:0|0:0,0:0:0:0:
308,192,29770,2,0,P|256:228|268:284,1,119.999984893799,2|4,0:0|0:0,0:0:0:0:
380,260,30520,2,0,B|404:160|404:160|400:128,1,119.999984893799,2|8,0:0|0:0,0:0:0:0:
288,180,31270,2,0,P|200:156|196:116,1,119.999984893799,2|4,0:0|0:0,0:0:0:0:
80,108,32020,5,2,0:0:0:0:
88,228,32395,1,2,0:0:0:0:
172,312,32770,1,2,0:0:0:0:
288,284,33145,2,2,L|336:244,1,59.9999924468997,2|2,1:0|1:0,1:0:0:0:
376,200,33520,2,0,P|412:144|412:72,2,119.999984893799,0|2|2,0:0|0:0|0:0,0:0:0:0:
264,156,34645,1,4,0:0:0:0:
84,256,35020,6,2,P|144:304|200:296,1,119.999984893799
244,288,35582,2,2,P|296:240|356:240,1,119.999984893799
400,212,36145,2,2,L|416:152,1,59.9999924468997
376,108,36520,2,2,L|312:72,1,59.9999924468997
276,116,36895,1,4,0:0:0:0:
200,208,37270,6,8,P|220:288|276:312,2,119.999984893799
172,92,38395,5,2,0:0:0:0:
264,44,38770,1,2,0:0:0:0:
348,104,39145,1,2,0:0:0:0:
396,196,39520,2,0,L|420:280,1,79.9999923706056,2|8,0:0|0:0,0:0:0:0:
404,324,40082,1,4,0:0:0:0:
300,336,40457,1,8,0:0:0:0:
248,328,40645,2,0,P|184:288|260:172,1,239.999977111817,4|0,0:0|0:0,0:0:0:0:
288,136,41957,6,2,L|312:88,1,39.9999961853028
280,56,42332,2,2,L|232:32,1,39.9999961853028
196,52,42707,2,2,L|160:84,2,39.9999961853028
248,144,43457,2,2,L|280:168,2,39.9999961853028
196,148,44020,1,4,0:0:0:0:
252,288,44395,6,2,P|304:304|376:284,1,119.999988555908
352,196,45145,2,2,P|368:144|348:72,1,119.999988555908
260,96,45895,2,2,P|208:80|136:100,1,119.999988555908
160,188,46645,2,0,P|104:276|196:272,1,239.999977111817,4|0,0:0|0:0,0:0:0:0:
292,244,47957,6,2,L|324:208,2,39.9999961853028
256,152,48520,2,2,L|280:116,2,39.9999961853028
192,92,49082,1,8,0:0:0:0:
112,212,49457,6,12,L|80:256,2,39.9999961853028
288,80,50207,6,2,P|336:116|340:216,1,164.999989299774
256,284,51145,2,8,L|204:252,1,54.999996433258
156,248,51520,1,0,0:0:0:0:
124,204,51707,2,2,L|100:132,2,54.999996433258
180,196,52270,2,4,L|248:160,1,54.999996433258
280,148,52645,2,0,L|388:80,1,109.999992866516,2|4,0:0|0:0,0:0:0:0:
412,128,53207,6,2,L|416:248,1,109.999992866516
384,284,53770,2,2,L|276:256,1,109.999992866516
224,248,54332,1,8,0:0:0:0:
140,180,54707,2,2,L|172:116,3,54.999996433258
144,80,55457,1,4,0:0:0:0:
404,132,56020,6,2,L|328:236,1,109.999992866516
352,276,56582,2,2,P|372:312|312:348,1,109.999992866516
280,324,57145,2,8,L|256:264,1,54.999996433258
264,220,57520,1,0,0:0:0:0:
264,164,57707,1,0,0:0:0:0:
240,116,57895,1,0,0:0:0:0:
184,116,58082,6,2,L|80:247,1,164.999989299774
80,300,58832,1,8,0:0:0:0:
136,308,59020,2,2,L|264:264,1,109.999992866516
280,248,59582,2,2,P|304:176|344:160,1,109.999992866516
384,176,60145,1,4,0:0:0:0:
400,124,60332,2,2,P|304:80|184:180,1,274.99998216629
180,232,61457,6,12,L|232:288,2,54.999996433258
276,180,62207,5,2,0:0:0:0:
300,132,62395,1,2,0:0:0:0:
348,108,62582,1,2,0:0:0:0:
396,124,62770,2,0,P|424:180|400:240,1,109.999992866516,2|2,0:0|0:0,0:0:0:0:
376,264,63332,2,2,P|296:260|276:296,1,109.999992866516
228,288,63895,2,2,L|160:256,1,54.999996433258
136,228,64270,2,2,L|120:164,1,54.999996433258
120,120,64645,1,8,0:0:0:0:
228,124,65020,1,4,0:0:0:0:
272,160,65207,6,2,L|324:200,1,54.999996433258
360,224,65582,2,2,L|408:196,1,54.999996433258
372,300,66145,2,2,L|308:316,1,54.999996433258
216,272,66707,2,2,P|180:236|176:216,1,54.999996433258
192,180,67082,2,2,P|192:148|176:128,1,54.999996433258
140,92,67457,1,4,0:0:0:0:
80,184,67832,5,2,0:0:0:0:
64,236,68020,2,2,P|88:312|112:308,1,109.999992866516
152,300,68582,2,2,L|236:216,1,109.999992866516
268,184,69145,1,4,0:0:0:0:
316,208,69332,1,4,0:0:0:0:
464,48,70082,5,8,0:0:0:0:
368,100,70457,2,2,L|320:64,2,54.999996433258
384,152,71020,2,0,L|348:272,1,109.999992866516,8|2,0:0|0:0,0:0:0:0:
296,264,71582,2,0,P|240:232|224:176,1,109.999992866516,8|2,0:0|0:0,0:0:0:0:
180,156,72145,2,4,L|112:120,1,54.999996433258
256,192,72520,12,14,73645,0:0:0:0:
144,232,74020,6,0,P|256:288|372:232,1,259.999963302614,8|4,0:0|0:0,0:0:0:0:
288,132,75145,1,4,0:0:0:0:
168,176,75520,1,8,0:0:0:0:
188,304,75895,2,0,L|320:328,2,129.999981651307,2|4|4,0:0|0:0|0:0,0:0:0:0:
144,151,77020,6,0,P|256:95|370:149,1,259.999963302614,8|4,0:0|0:0,0:0:0:0:
288,252,78145,1,4,0:0:0:0:
168,208,78520,1,8,0:0:0:0:
188,80,78895,2,0,L|320:56,2,129.999981651307,2|4|4,0:0|0:0|0:0,0:0:0:0:
84,156,80020,6,0,B|164:184|164:184|176:268|176:268|280:288,1,259.999963302614,8|4,0:0|0:0,0:0:0:0:
256,156,81145,1,4,0:0:0:0:
264,285,81520,2,0,B|352:267|352:267|364:183|364:183|444:155,1,259.999963302614,8|4,0:0|0:0,0:0:0:0:
348,68,82645,1,4,0:0:0:0:
220,92,83020,6,0,P|144:120|248:204,1,259.999963302614,8|2,0:0|0:0,0:0:0:0:
308,112,84145,1,2,0:0:0:0:
228,217,84520,2,0,P|171:312|102:225,1,259.999963302614,8|2,0:0|0:0,0:0:0:0:
180,76,85645,1,6,0:0:0:0:
256,148,86020,6,0,L|308:228,1,64.9999908256536,8|0,0:0|0:0,0:0:0:0:
336,232,86395,2,0,L|408:204,1,64.9999908256536,4|0,1:0|0:0,0:0:0:0:
420,160,86770,2,0,P|356:96|244:80,1,194.999972476961,8|0,0:0|0:0,0:0:0:0:
208,96,87520,2,0,P|223:190|290:259,1,194.999972476961,8|0,0:0|0:0,0:0:0:0:
340,244,88270,2,2,L|408:196,3,64.9999908256536
256,236,89020,6,0,L|204:156,1,64.9999908256536,8|0,0:0|0:0,0:0:0:0:
176,152,89395,2,0,L|104:180,1,64.9999908256536,4|0,1:0|0:0,0:0:0:0:
92,224,89770,2,0,P|156:288|268:304,1,194.999972476961,8|0,0:0|0:0,0:0:0:0:
304,288,90520,2,0,P|288:193|221:124,1,194.999972476961,8|0,0:0|0:0,0:0:0:0:
172,140,91270,2,2,L|104:188,2,64.9999908256536
212,108,91832,1,2,0:0:0:0:
248,144,92020,6,0,P|320:188|372:176,1,129.999981651307,6|0,0:0|0:0,0:0:0:0:
408,204,92582,1,2,0:0:0:0:
376,104,92957,2,2,L|336:52,2,64.9999908256536
324,120,93520,2,0,L|112:296,1,259.999963302614,4|12,0:0|1:0,0:0:0:0:
80,192,94645,6,2,L|88:96,1,64.9999908256536
132,100,95020,2,0,P|184:124|280:100,1,129.999981651307,4|10,0:0|0:0,0:0:0:0:
304,96,95582,1,10,0:0:0:0:
352,72,95770,2,0,P|404:120|428:180,1,129.999981651307,10|8,0:0|1:0,0:0:0:0:
396,216,96332,1,0,0:0:0:0:
360,256,96520,6,0,P|268:268|220:228,1,129.999981651307,4|8,0:0|0:0,0:0:0:0:
188,248,97082,2,10,L|112:252,1,64.9999908256536
104,148,97645,2,8,L|192:124,1,64.9999908256536,8|8,1:0|1:0,1:0:0:0:
256,192,98020,12,14,99520,0:0:0:0:
168,156,113020,6,0,L|160:292,1,119.999984893799,2|8,0:0|0:0,0:0:0:0:
280,288,113770,1,2,0:0:0:0:
336,264,113957,1,0,0:0:0:0:
396,264,114145,2,0,L|400:204,1,59.9999924468997,8|0,0:0|0:0,0:0:0:0:
368,152,114520,2,0,P|312:144|260:180,3,119.999984893799,2|8|2|4,0:0|0:0|0:0|0:0,0:0:0:0:
224,64,116020,6,0,P|172:48|136:96,1,119.999984893799,2|8,0:0|0:0,0:0:0:0:
204,192,116770,2,0,P|256:156|244:100,1,119.999984893799,2|8,0:0|0:0,0:0:0:0:
132,124,117520,2,0,B|108:224|108:224|112:256,1,119.999984893799,2|8,0:0|0:0,0:0:0:0:
224,204,118270,2,0,P|312:228|316:268,1,119.999984893799,2|4,0:0|0:0,0:0:0:0:
432,276,119020,5,2,0:0:0:0:
424,156,119395,1,2,0:0:0:0:
340,72,119770,1,2,0:0:0:0:
224,100,120145,2,2,L|176:140,1,59.9999924468997
136,184,120520,2,0,P|100:240|100:312,2,119.999984893799,8|2|8,0:0|0:0|0:0,0:0:0:0:
248,228,121645,1,4,0:0:0:0:
428,128,122020,6,2,P|368:80|312:88,1,119.999984893799
268,96,122582,2,2,P|216:144|156:144,1,119.999984893799
112,172,123145,2,2,L|96:232,1,59.9999924468997
136,276,123520,2,2,L|200:312,1,59.9999924468997
236,268,123895,1,8,0:0:0:0:
312,176,124270,6,0,P|292:96|236:72,2,119.999984893799,2|2|12,0:0|0:0|0:0,0:0:0:0:
340,292,125395,5,2,0:0:0:0:
248,340,125770,1,2,0:0:0:0:
164,280,126145,1,2,0:0:0:0:
116,188,126520,2,0,L|80:92,1,89.9999886703496,8|0,0:0|0:0,0:0:0:0:
112,68,127082,1,8,0:0:0:0:
212,48,127457,1,8,0:0:0:0:
272,52,127645,2,0,P|344:100|236:188,1,269.999966011049,4|0,0:0|0:0,0:0:0:0:
196,228,128957,6,2,L|168:280,1,44.9999943351748
200,320,129332,2,2,L|252:344,1,44.9999943351748
300,336,129707,2,2,L|344:296,2,44.9999943351748
240,236,130457,2,2,L|200:216,2,44.9999943351748
288,204,131020,1,12,0:0:0:0:
260,96,131395,6,2,P|208:80|132:100,1,134.999983005524
152,156,132145,2,2,P|136:208|160:284,1,134.999983005524
216,284,132895,2,2,P|268:300|344:276,1,134.999983005524
348,220,133645,2,0,P|416:124|304:136,1,269.999966011049,8|8,0:0|0:0,0:0:0:0:
256,112,134957,6,2,L|208:152,2,44.9999943351748
264,172,135520,2,2,L|236:228,2,44.9999943351748
308,208,136082,1,4,1:0:0:0:
400,172,136457,6,12,L|444:84,2,79.9999923706056
224,304,137207,6,2,P|176:268|176:152,1,179.999977340699
304,68,138145,2,8,L|360:108,1,59.9999924468997
384,152,138520,1,4,0:0:0:0:
392,212,138707,2,2,L|408:292,2,59.9999924468997
332,188,139270,2,8,L|256:224,1,59.9999924468997
232,252,139645,2,0,L|116:320,1,119.999984893799,2|4,0:0|0:0,0:0:0:0:
88,268,140207,6,2,L|80:140,1,119.999984893799
120,104,140770,2,2,L|236:136,1,119.999984893799
296,132,141332,1,8,0:0:0:0:
380,220,141707,2,2,L|432:284,3,59.9999924468997
372,304,142457,1,4,0:0:0:0:
108,252,143020,6,6,L|188:144,1,119.999984893799
160,108,143582,2,6,P|140:72|208:36,1,119.999984893799
232,60,144145,2,8,L|256:124,1,59.9999924468997
256,176,144520,1,2,2:0:0:0:
244,236,144707,1,2,2:0:0:0:
272,288,144895,1,2,2:0:0:0:
328,268,145082,6,8,L|440:124,1,179.999977340699,8|8,2:0|2:0,2:0:0:0:
448,68,145832,1,4,0:0:0:0:
388,64,146020,2,4,L|248:112,1,119.999984893799,4|4,2:0|2:0,2:0:0:0:
236,148,146582,2,0,P|212:220|164:240,1,119.999984893799,2|2,2:0|2:0,2:0:0:0:
132,200,147145,1,4,0:0:0:0:
116,256,147332,2,0,P|224:304|344:188,1,299.999962234499,10|0,0:0|0:0,0:0:0:0:
328,120,148457,6,10,L|256:52,2,74.9999957084655
236,204,149207,5,2,0:0:0:0:
212,252,149395,1,2,0:0:0:0:
164,276,149582,1,2,0:0:0:0:
116,260,149770,2,0,P|88:204|112:144,1,109.999992866516,8|0,0:0|0:0,0:0:0:0:
136,120,150332,2,0,P|216:124|236:88,1,109.999992866516,2|2,0:0|0:0,0:0:0:0:
284,96,150895,2,2,L|352:128,1,54.999996433258
376,156,151270,2,2,L|392:220,1,54.999996433258,2|4,0:0|1:0,0:0:0:0:
392,264,151645,1,8,0:0:0:0:
284,260,152020,1,12,1:0:0:0:
240,224,152207,6,2,L|188:184,1,54.999996433258
152,160,152582,2,2,L|104:188,1,54.999996433258
140,84,153145,2,2,L|204:68,1,54.999996433258
296,112,153707,2,2,P|332:148|336:168,1,54.999996433258
320,204,154082,2,2,P|320:236|336:256,1,54.999996433258
372,292,154457,1,6,1:0:0:0:
432,200,154832,5,0,0:0:0:0:
448,148,155020,2,0,P|424:72|400:76,1,109.999992866516,2|0,0:0|0:0,0:0:0:0:
360,84,155582,2,0,L|276:168,1,109.999992866516,2|0,0:0|0:0,0:0:0:0:
244,200,156145,1,2,0:0:0:0:
196,176,156332,1,2,0:0:0:0:
48,336,157082,5,8,0:0:0:0:
144,284,157457,2,2,L|192:320,2,54.999996433258
128,232,158020,2,8,L|164:112,1,109.999992866516
216,120,158582,2,8,P|272:152|288:208,1,109.999992866516
332,228,159145,2,6,L|400:264,1,54.999996433258
256,192,159520,12,2,160645,0:0:0:0:
368,152,161020,6,0,P|256:96|140:152,1,259.999963302614,8|4,0:0|0:0,0:0:0:0:
224,252,162145,1,4,0:0:0:0:
344,208,162520,1,8,0:0:0:0:
324,80,162895,2,0,L|192:56,2,129.999981651307,2|4|4,0:0|0:0|0:0,0:0:0:0:
368,233,164020,6,0,P|256:289|142:235,1,259.999963302614,8|4,0:0|0:0,0:0:0:0:
224,132,165145,1,4,0:0:0:0:
344,176,165520,1,8,0:0:0:0:
324,304,165895,2,0,L|192:328,2,129.999981651307,2|4|4,0:0|0:0|0:0,0:0:0:0:
428,228,167020,6,0,B|348:200|348:200|336:116|336:116|232:96,1,259.999963302614,8|4,0:0|0:0,0:0:0:0:
256,228,168145,1,4,0:0:0:0:
248,99,168520,2,0,B|160:117|160:117|148:201|148:201|68:229,1,259.999963302614,8|4,0:0|0:0,0:0:0:0:
164,316,169645,1,4,0:0:0:0:
333,257,170020,6,0,P|417:185|317:133,1,259.999963302614,8|2,0:0|0:0,0:0:0:0:
204,272,171145,1,2,0:0:0:0:
320,132,171520,2,0,P|377:37|446:124,1,259.999963302614,8|2,0:0|0:0,0:0:0:0:
340,320,172645,1,6,0:0:0:0:
256,236,173020,6,0,L|204:156,1,64.9999908256536,8|0,0:0|0:0,0:0:0:0:
176,152,173395,2,0,L|104:180,1,64.9999908256536,4|0,1:0|0:0,0:0:0:0:
92,224,173770,2,0,P|156:288|268:304,1,194.999972476961,8|0,0:0|0:0,0:0:0:0:
304,288,174520,2,0,P|289:194|222:125,1,194.999972476961,8|0,0:0|0:0,0:0:0:0:
172,140,175270,2,2,L|104:188,3,64.9999908256536
256,148,176020,6,0,L|308:228,1,64.9999908256536,8|0,0:0|0:0,0:0:0:0:
336,232,176395,2,0,L|408:204,1,64.9999908256536,4|0,1:0|0:0,0:0:0:0:
420,160,176770,2,0,P|356:96|244:80,1,194.999972476961,8|0,0:0|0:0,0:0:0:0:
208,96,177520,2,0,P|224:191|291:260,1,194.999972476961,8|0,0:0|0:0,0:0:0:0:
340,244,178270,2,2,L|408:196,2,64.9999908256536
300,276,178832,1,2,0:0:0:0:
264,240,179020,6,0,P|192:196|140:208,1,129.999981651307,6|0,0:0|0:0,0:0:0:0:
104,180,179582,1,2,0:0:0:0:
136,280,179957,2,2,L|176:332,2,64.9999908256536
188,264,180520,2,0,L|400:88,1,259.999963302614,4|12,0:0|1:0,0:0:0:0:
432,192,181645,6,2,L|424:288,1,64.9999908256536
380,284,182020,2,0,P|328:260|232:284,1,129.999981651307,4|10,0:0|0:0,0:0:0:0:
208,288,182582,1,10,0:0:0:0:
160,312,182770,2,0,P|108:264|84:204,1,129.999981651307,10|8,0:0|1:0,0:0:0:0:
116,168,183332,1,0,0:0:0:0:
152,128,183520,6,0,P|244:116|292:156,1,129.999981651307,4|8,0:0|0:0,0:0:0:0:
324,136,184082,2,10,L|400:132,1,64.9999908256536
408,236,184645,2,8,L|320:260,1,64.9999908256536,8|8,1:0|1:0,1:0:0:0:
256,192,185020,12,14,186520,0:0:0:0:
268,256,202457,6,2,L|324:308,2,54.999996433258
148,176,203207,6,8,L|184:120,1,59.9999924468997
224,128,203770,2,8,L|292:136,1,59.9999924468997
312,172,204332,1,8,0:0:0:0:
284,260,204707,2,8,L|264:292,1,29.9999962234499
224,292,205082,2,8,L|184:296,1,29.9999962234499
152,284,205457,2,8,P|128:232|136:192,1,89.9999886703496
144,100,206207,6,2,P|176:96|208:80,1,59.9999924468997
240,112,206770,2,2,P|272:128|300:128,1,59.9999924468997
332,156,207332,1,2,0:0:0:0:
316,244,207707,2,2,L|332:280,3,29.9999962234499
304,312,208457,1,2,0:0:0:0:
176,272,209020,6,4,L|140:212,1,59.9999924468997
136,176,209582,2,4,L|180:136,1,59.9999924468997
216,108,210145,1,4,0:0:0:0:
260,116,210332,2,4,L|268:216,1,89.9999886703496
260,284,211082,6,14,L|316:312,1,59.9999924468997
356,328,211645,1,14,0:0:0:0:
400,320,211832,1,14,0:0:0:0:
416,276,212020,2,14,L|420:204,1,59.9999924468997
392,180,212582,2,14,L|340:140,1,59.9999924468997
300,132,213145,1,14,0:0:0:0:
264,104,213332,6,0,P|212:84|196:160,1,149.999981117249,8|0,1:0|0:0,0:0:0:0:
188,200,214457,2,2,L|180:232,2,29.9999962234499
284,340,215207,5,0,0:0:0:0:
328,300,215395,1,8,0:0:0:0:
360,248,215582,1,0,0:0:0:0:
336,192,215770,2,0,P|292:148|216:148,1,119.999984893799,2|8,0:0|0:0,0:0:0:0:
176,140,216332,2,2,P|148:212|184:244,1,119.999984893799
220,272,216895,1,8,0:0:0:0:
268,308,217082,1,2,0:0:0:0:
316,272,217270,2,2,L|360:216,1,59.9999924468997
304,52,218020,5,4,0:0:0:0:
252,80,218207,2,0,L|192:108,3,59.9999924468997,0|8|0|0,0:0|0:0|0:0|0:0,0:0:0:0:
80,124,219145,2,2,P|104:180|164:200,1,119.999984893799,10|2,0:0|0:0,0:0:0:0:
212,224,219707,1,0,0:0:0:0:
268,204,219895,2,0,P|344:232|368:272,1,119.999984893799,8|0,0:0|0:0,0:0:0:0:
356,320,220457,2,2,L|284:372,1,59.9999924468997,2|10,0:0|0:0,0:0:0:0:
216,276,221020,6,2,L|232:156,1,119.999984893799,2|10,0:0|0:0,0:0:0:0:
220,100,221582,2,2,P|292:56|332:72,1,119.999984893799
352,116,222145,2,2,L|352:192,1,59.9999924468997,10|2,0:0|0:0,0:0:0:0:
140,288,223082,6,2,P|204:260|232:200,1,119.999984893799
212,160,223645,2,2,L|192:100,1,59.9999924468997
224,52,224020,2,2,P|300:80|344:72,1,119.999984893799,6|8,0:0|0:0,0:0:0:0:
396,92,224582,2,0,B|404:160|404:160|376:232,1,119.999984893799,2|0,0:0|0:0,0:0:0:0:
348,256,225145,2,12,L|288:232,1,59.9999924468997,12|12,2:0|2:0,2:0:0:0:
256,192,225520,12,0,226645,0:0:0:0:
24,92,227020,6,2,L|140:152,1,129.999981651307,2|6,0:0|0:0,0:0:0:0:
168,172,227582,2,0,L|208:228,1,64.9999908256536
244,260,227957,1,0,0:0:0:0:
284,292,228145,1,8,0:0:0:0:
332,308,228332,2,2,P|392:268|404:188,1,129.999981651307,2|2,1:0|1:0,1:0:0:0:
396,164,228895,2,10,L|432:100,2,64.9999908256536
360,128,229457,1,10,0:0:0:0:
316,104,229645,2,10,L|264:44,1,64.9999908256536
120,96,230020,6,0,P|152:160|216:168,1,129.999981651307,2|4,0:0|0:0,0:0:0:0:
300,212,230770,2,0,P|256:292|204:288,1,129.999981651307,0|8,0:0|0:0,0:0:0:0:
256,120,231520,2,2,L|204:48,2,64.9999908256536,2|2|6,0:0|0:0|0:0,0:0:0:0:
284,164,232082,1,2,0:0:0:0:
332,144,232270,2,2,P|368:128|388:96,2,64.9999908256536,2|2|10,0:0|0:0|0:0,0:0:0:0:
356,192,232832,1,2,0:0:0:0:
348,244,233020,6,0,L|220:332,1,129.999981651307,2|8,0:0|0:0,0:0:0:0:
192,296,233582,1,0,0:0:0:0:
112,232,233958,1,0,0:0:0:0:
132,184,234145,1,8,0:0:0:0:
176,160,234332,1,0,0:0:0:0:
228,156,234520,2,0,B|316:108|316:108|364:136|348:220|348:220|404:244,1,259.999963302614,2|4,0:0|0:0,0:0:0:0:
248,344,235645,6,0,L|128:280,1,129.999981651307,0|2,0:0|0:0,0:0:0:0:
80,172,236395,2,8,P|152:132|152:80,2,129.999981651307
92,284,237520,2,0,P|148:248|240:248,1,129.999981651307,2|8,0:0|0:0,0:0:0:0:
352,276,238270,2,10,L|368:192,1,64.9999908256536
340,176,238645,2,10,P|328:128|272:152,1,99.999990463257
176,144,239020,6,0,P|108:132|76:64,1,129.999981651307,2|8,0:0|0:0,0:0:0:0:
77,83,239770,2,0,P|145:71|177:3,1,129.999981651307,2|4,0:0|0:0,0:0:0:0:
175,22,240520,2,0,P|243:34|275:102,1,129.999981651307,2|8,0:0|0:0,0:0:0:0:
273,82,241270,2,0,P|261:150|193:182,1,129.999981651307,2|4,0:0|0:0,0:0:0:0:
180,312,242020,5,2,0:0:0:0:
280,280,242395,1,8,0:0:0:0:
360,344,242770,1,2,0:0:0:0:
420,260,243145,1,4,0:0:0:0:
384,164,243520,6,2,L|320:136,1,64.9999908256536
272,132,243895,2,8,L|200:172,1,64.9999908256536
164,156,244270,2,2,L|80:136,1,64.9999908256536
64,176,244645,1,4,0:0:0:0:
40,224,244832,6,0,L|36:316,1,64.9999908256536,4|2,0:0|0:0,0:0:0:0:
136,320,245395,2,0,L|208:312,1,64.9999908256536,8|0,0:0|0:0,0:0:0:0:
304,292,245957,2,0,L|360:248,2,64.9999908256536,0|8|0,0:0|0:0|0:0,0:0:0:0:
256,272,246520,2,0,P|248:152|376:116,1,259.999963302614,2|8,0:0|0:0,0:0:0:0:
388,212,247645,5,8,0:0:0:0:
360,256,247832,1,0,0:0:0:0:
328,296,248020,2,0,P|208:308|184:184,1,259.999963302614,2|12,0:0|0:0,0:0:0:0:
244,236,249520,6,0,P|364:224|388:348,1,259.999963302614,2|12,0:0|0:0,0:0:0:0:
292,316,250645,2,12,L|228:340,1,64.9999908256536,12|12,1:0|1:0,1:0:0:0:
256,192,251020,12,2,252520,0:0:0:0:
256,172,253832,6,0,B|224:132|176:124|136:192|176:248|256:284|256:284|320:248|376:192|340:124|288:132|256:172,1,494.999967899322,2|4,0:0|0:0,0:0:0:0:
104,80,256270,1,8,0:0:0:0:
148,204,256832,2,0,B|204:260|256:176|256:176|312:260|372:200,1,274.99998216629,2|4,0:0|0:0,0:0:0:0:
216,288,258520,2,0,P|152:208|216:124,2,219.999985733032,2|2|4,0:0|0:0|0:0,0:0:0:0:
300,125,260395,1,2,0:0:0:0:
300,125,260582,1,2,0:0:0:0:
300,125,260770,6,0,P|360:208|296:288,2,219.999985733032,4|2|4,0:0|0:0|0:0,0:0:0:0:
212,124,262645,1,4,0:0:0:0:
140,172,263020,2,0,L|116:288,1,109.999992866516,10|4,0:0|0:0,0:0:0:0:
192,328,263770,2,0,P|280:320|300:292,1,109.999992866516,10|4,0:0|0:0,0:0:0:0:
308,268,264332,1,4,0:0:0:0:
152,184,265082,6,10,P|204:108|256:188,1,219.999985733032,10|4,2:0|2:0,2:0:0:0:
256,192,266020,12,14,271270,0:0:0:0:
