osu file format v14

[General]
AudioFilename: audio.mp3
AudioLeadIn: 0
PreviewTime: -1
Countdown: 1
SampleSet: None
StackLeniency: 0.7
Mode: 0
LetterboxInBreaks: 0
WidescreenStoryboard: 0

[Editor]
DistanceSpacing: 1.5
BeatDivisor: 4
GridSize: 4
TimelineZoom: 1

[Metadata]
Title:Yubi Bouenkyou ~Anime-Ban~
TitleUnicode:指望遠鏡~アニメ版~
Artist:Nogizaki46
ArtistUnicode:乃木坂46
Creator:Bacwux
Version:Labyrinth
Source:Magi: The Labyrinth of Magic
Tags:
BeatmapID:1885819
BeatmapSetID:903359

[Difficulty]
HPDrainRate:7
CircleSize:4.3
OverallDifficulty:8
ApproachRate:9
SliderMultiplier:1.5
SliderTickRate:1

[Events]
//Background and Video events
0,0,"Aladdin.(Magi).full.1419902.jpg",0,0
//Break Periods
//Storyboard Layer 0 (Background)
//Storyboard Layer 1 (Fail)
//Storyboard Layer 2 (Pass)
//Storyboard Layer 3 (Foreground)
//Storyboard Sound Samples

[TimingPoints]
1554,333.333333333333,4,1,0,100,1,0
1554,-200,4,1,0,100,0,0
7887,-153.846153846153,4,1,0,100,0,0
8220,-100,4,1,0,100,0,0
24220,-80,4,1,0,100,0,0
34887,-100,4,1,0,100,0,0
40220,-80,4,1,0,100,0,0
44887,-166.666666666667,4,1,0,100,0,0
45220,-100,4,1,0,100,0,0
45553,-71.4285714285714,4,1,0,100,0,1
64220,-100,4,1,0,100,0,0
66887,-66.6666666666667,4,1,0,100,0,1
82887,-133.333333333333,4,1,0,100,0,0

[HitObjects]
175,143,887,5,0,0:0:0:0:
175,143,1220,1,0,0:0:0:0:
175,143,1554,2,0,B|193:183|173:229,1,75
89,261,2220,2,0,B|73:227|91:187,1,75
177,308,2887,2,0,B|213:331|252:313|252:313|288:298|337:315,1,150
321,310,3887,1,0,0:0:0:0:
388,145,4220,6,0,P|381:184|388:225,1,75
476,271,4887,2,0,P|483:232|476:191,1,75
334,67,5553,1,0,0:0:0:0:
256,192,5637,12,0,6887,0:0:0:0:
204,147,7720,5,0,0:0:0:0:
204,147,7803,1,0,0:0:0:0:
204,147,7887,2,0,L|200:225,1,73.1249966526033
178,240,8220,6,0,P|222:234|273:246,1,75
374,293,8553,1,0,0:0:0:0:
131,307,8720,2,0,L|125:143,1,150
256,39,9220,1,0,0:0:0:0:
119,316,9387,2,0,L|113:152,1,150
265,27,9887,1,0,0:0:0:0:
107,325,10053,2,0,L|101:180,1,112.5
101,175,10387,1,0,0:0:0:0:
374,293,10553,2,0,P|327:301|290:292,1,75
206,161,10887,5,0,0:0:0:0:
386,286,11053,2,0,L|378:371,1,75
132,196,11387,6,0,P|165:170|215:163,1,75
290,326,11720,2,0,P|250:310|219:270,1,75
346,70,12053,6,0,P|352:111|333:158,1,75
88,337,12387,2,0,P|81:295|100:248,1,75
332,65,12720,2,0,B|357:54|386:67|386:67|416:79|455:62,1,112.5
471,58,13053,1,0,0:0:0:0:
298,248,13220,2,0,L|295:168,1,75
167,67,13553,6,0,P|117:76|72:145,1,112.5
73,138,13887,2,0,P|72:197|78:231,1,75
229,317,14220,2,0,P|232:279|230:242,1,75
163,153,14553,1,0,0:0:0:0:
238,323,14720,2,0,P|280:334|376:282,1,150
373,150,15220,5,0,0:0:0:0:
457,214,15387,1,0,0:0:0:0:
273,115,15553,2,0,P|231:103|184:111,1,75
83,191,15887,1,0,0:0:0:0:
277,121,16053,2,0,L|269:26,1,75
166,295,16387,5,0,0:0:0:0:
310,254,16553,1,0,0:0:0:0:
91,202,16720,1,0,0:0:0:0:
213,362,16887,1,0,0:0:0:0:
280,139,17053,5,0,0:0:0:0:
224,342,17220,1,0,0:0:0:0:
100,198,17387,2,0,P|94:158|95:120,1,75
212,268,17720,5,0,0:0:0:0:
99,110,17887,1,0,0:0:0:0:
261,159,18053,1,0,0:0:0:0:
123,281,18220,1,0,0:0:0:0:
273,151,18387,2,0,P|320:141|373:152,2,75
218,342,18887,6,0,P|235:286|214:222,1,112.5
213,222,19220,1,0,0:0:0:0:
322,255,19387,1,0,0:0:0:0:
206,213,19553,2,0,P|171:212|128:226,1,75
68,299,19887,1,0,0:0:0:0:
283,186,20053,2,0,B|293:155|283:130|283:130|271:95|295:57,1,112.5
294,60,20387,2,0,P|343:51|384:57,1,75
184,197,20720,1,0,0:0:0:0:
368,134,20887,5,0,0:0:0:0:
368,134,21053,1,0,0:0:0:0:
336,253,21220,2,0,P|289:256|217:227,1,112.5
205,218,21553,1,0,0:0:0:0:
123,69,21720,5,0,0:0:0:0:
184,197,21887,1,0,0:0:0:0:
41,251,22053,1,0,0:0:0:0:
227,137,22220,1,0,0:0:0:0:
204,324,22387,1,0,0:0:0:0:
47,257,22553,1,0,0:0:0:0:
344,230,22720,2,0,P|379:181|370:110,1,112.5
369,111,23053,5,0,0:0:0:0:
206,284,23220,2,0,L|293:287,1,75
280,286,23470,1,0,0:0:0:0:
280,286,23553,1,0,0:0:0:0:
250,129,23720,1,0,0:0:0:0:
75,351,23887,1,0,0:0:0:0:
299,201,24220,6,0,B|330:188|365:204|365:204|402:217|456:192,1,140.625
456,194,24553,2,0,P|445:248|460:303,1,93.75
326,368,24887,2,0,P|337:314|322:259,1,93.75
189,111,25220,1,0,0:0:0:0:
123,251,25387,2,0,P|183:271|266:245,1,140.625
274,242,25720,5,0,0:0:0:0:
287,50,25887,1,0,0:0:0:0:
287,50,26053,1,0,0:0:0:0:
57,173,26220,2,0,L|151:178,1,93.75
364,191,26553,1,0,0:0:0:0:
292,141,26720,2,0,P|275:193|287:240,1,93.75
427,298,27053,5,0,0:0:0:0:
289,240,27220,1,0,0:0:0:0:
325,373,27387,1,0,0:0:0:0:
410,157,27553,1,0,0:0:0:0:
139,220,27720,1,0,0:0:0:0:
321,360,27887,1,0,0:0:0:0:
250,55,28053,6,0,P|175:57|122:107,1,140.625
123,113,28387,2,0,P|121:169|136:210,1,93.75
274,226,28720,1,0,0:0:0:0:
188,334,28887,1,0,0:0:0:0:
207,142,29053,1,0,0:0:0:0:
207,142,29220,2,0,L|313:139,1,93.75
465,282,29553,6,0,P|394:256|377:182,1,140.625
375,181,29887,2,0,P|383:130|362:81,1,93.75
191,185,30220,2,0,P|183:236|204:285,1,93.75
325,328,30553,1,0,0:0:0:0:
143,234,30720,6,0,L|35:232,1,93.75
194,113,31053,2,0,L|302:111,1,93.75
203,287,31387,1,0,0:0:0:0:
107,131,31553,1,0,0:0:0:0:
107,131,31720,1,0,0:0:0:0:
267,194,31887,2,0,P|328:205|397:154,1,140.625
401,150,32220,1,0,0:0:0:0:
111,120,32387,5,0,0:0:0:0:
313,120,32553,1,0,0:0:0:0:
204,271,32720,1,0,0:0:0:0:
158,51,32887,1,0,0:0:0:0:
207,279,33053,1,0,0:0:0:0:
303,122,33220,1,0,0:0:0:0:
143,228,33387,2,0,P|122:287|189:364,1,140.625
182,367,33720,5,0,0:0:0:0:
283,205,33887,1,0,0:0:0:0:
50,195,34053,1,0,0:0:0:0:
53,218,34136,1,0,0:0:0:0:
57,241,34219,1,0,0:0:0:0:
180,98,34387,1,0,0:0:0:0:
286,215,34553,1,0,0:0:0:0:
340,142,34720,1,0,0:0:0:0:
453,299,34887,6,0,L|287:294,1,150
154,231,35387,1,0,0:0:0:0:
159,144,35553,2,0,P|213:160|229:266,1,150
75,276,36053,2,0,L|66:181,1,75
157,70,36387,2,0,L|148:165,1,75
103,15,36720,1,0,0:0:0:0:
228,115,36887,2,0,P|276:130|314:119,1,75
371,68,37220,2,0,P|419:53|457:64,1,75
423,281,37553,6,0,L|258:289,1,150
162,164,38053,1,0,0:0:0:0:
431,287,38220,6,0,L|266:295,1,150
156,155,38720,1,0,0:0:0:0:
439,294,38887,5,0,0:0:0:0:
496,139,39053,2,0,P|449:121|348:156,1,150
435,222,39553,1,0,0:0:0:0:
278,76,39720,1,0,0:0:0:0:
266,329,39887,1,0,0:0:0:0:
266,329,40220,6,0,P|276:265|237:196,1,140.625
226,189,40553,2,0,P|163:181|115:191,1,93.75
70,279,40887,2,0,P|133:287|181:277,1,93.75
230,176,41220,2,0,P|167:168|119:178,1,93.75
329,332,41553,6,0,L|335:235,1,93.75
245,278,41887,2,0,L|239:181,1,93.75
334,238,42220,2,0,L|340:141,1,93.75
239,184,42554,2,0,L|233:87,1,93.75
30,193,42887,6,0,P|101:231|219:196,1,187.5
130,103,43387,2,0,L|107:329,1,187.5
290,314,43887,1,0,0:0:0:0:
376,224,44053,2,0,P|311:192|218:212,1,140.625
227,206,44387,1,0,0:0:0:0:
427,319,44553,1,0,0:0:0:0:
395,69,44720,1,0,0:0:0:0:
135,257,44887,6,0,P|127:293|140:333,1,67.4999979400635
134,322,45220,6,0,B|154:258|124:186,1,112.5
132,210,45553,6,0,P|114:144|131:84,1,104.999996795654
282,72,45887,2,0,P|243:107|220:153,1,104.999996795654
264,299,46220,1,0,0:0:0:0:
338,189,46387,1,0,0:0:0:0:
481,317,46553,2,0,L|357:309,1,104.999996795654
168,298,46887,6,0,P|145:241|191:142,1,157.499995193482
187,143,47220,2,0,L|62:148,1,104.999996795654
272,244,47553,5,0,0:0:0:0:
199,143,47720,1,0,0:0:0:0:
274,253,47887,1,0,0:0:0:0:
323,106,48053,1,0,0:0:0:0:
171,241,48220,6,0,L|50:235,1,104.999996795654
143,65,48553,2,0,L|247:70,1,104.999996795654
163,253,48887,6,0,L|42:247,1,104.999996795654
154,54,49220,2,0,L|258:59,1,104.999996795654
374,235,49553,2,0,P|379:294|315:374,1,157.499995193482
309,375,49887,2,0,L|197:358,1,104.999996795654
265,170,50220,5,0,0:0:0:0:
440,227,50387,1,0,0:0:0:0:
293,285,50553,1,0,0:0:0:0:
362,86,50720,1,0,0:0:0:0:
160,188,50887,6,0,P|151:251|169:299,1,104.999996795654
153,90,51220,2,0,P|102:128|80:174,1,104.999996795654
321,121,51553,6,0,P|371:159|393:206,1,104.999996795654
256,47,51886,2,0,P|319:38|367:56,1,104.999996795654
215,325,52220,6,0,P|208:261|240:212,1,104.999996795654
129,141,52553,2,0,P|193:134|242:166,1,104.999996795654
313,55,52887,2,0,P|320:119|288:168,1,104.999996795654
399,239,53220,2,0,P|335:246|286:214,1,104.999996795654
116,46,53553,6,0,L|129:165,1,104.999996795654
158,327,53887,2,0,L|171:208,1,104.999996795654
203,23,54220,6,0,L|216:142,1,104.999996795654
237,362,54553,2,0,L|250:243,1,104.999996795654
290,0,54887,6,0,L|307:158,1,157.499995193482
311,173,55220,2,0,P|357:199|414:192,1,104.999996795654
407,194,55470,1,0,0:0:0:0:
407,194,55553,1,0,0:0:0:0:
332,80,55720,1,0,0:0:0:0:
204,193,55887,1,0,0:0:0:0:
388,293,56053,1,0,0:0:0:0:
205,183,56220,6,0,P|144:177|85:193,1,104.999996795654
184,313,56553,2,0,P|245:319|304:303,1,104.999996795654
392,194,56887,2,0,P|408:138|373:44,1,157.499995193482
361,36,57220,1,0,0:0:0:0:
301,224,57387,1,0,0:0:0:0:
153,140,57553,6,0,P|146:81|164:38,1,104.999996795654
387,202,57887,1,0,0:0:0:0:
204,201,58053,1,0,0:0:0:0:
336,290,58220,2,0,P|401:304|440:288,1,104.999996795654
342,132,58553,2,0,P|277:118|238:134,1,104.999996795654
115,328,58887,6,0,P|108:252|113:198,1,104.999996795654
168,49,59220,2,0,P|175:125|170:179,1,104.999996795654
1,162,59553,2,0,P|77:155|131:160,1,104.999996795654
280,215,59886,2,0,P|204:222|150:217,1,104.999996795654
316,130,60220,6,0,P|368:172|355:271,1,157.499995193482
355,277,60553,1,0,0:0:0:0:
450,172,60720,1,0,0:0:0:0:
288,53,60887,2,0,L|173:56,1,104.999996795654
70,217,61220,2,0,L|185:220,1,104.999996795654
449,247,61553,6,0,P|453:298|432:346,1,104.999996795654
281,226,61887,2,0,P|276:174|297:126,1,104.999996795654
200,175,62220,6,0,P|195:226|216:274,1,104.999996795654
368,154,62554,2,0,P|372:102|351:54,1,104.999996795654
150,338,62887,6,0,P|210:364|303:298,1,157.499995193482
297,317,63220,1,0,0:0:0:0:
297,126,63387,1,0,0:0:0:0:
119,164,63553,2,0,L|131:273,1,104.999996795654
311,217,63887,1,0,0:0:0:0:
112,92,64053,1,0,0:0:0:0:
381,32,64220,6,0,P|403:84|397:133,1,75
403,101,64470,1,0,0:0:0:0:
403,101,64553,1,0,0:0:0:0:
311,217,64720,1,0,0:0:0:0:
476,152,64887,1,0,0:0:0:0:
235,134,65053,1,0,0:0:0:0:
371,317,65220,5,0,0:0:0:0:
88,253,65553,1,0,0:0:0:0:
283,122,65887,5,0,0:0:0:0:
182,137,66053,1,0,0:0:0:0:
351,195,66220,5,0,0:0:0:0:
176,142,66387,1,0,0:0:0:0:
393,53,66553,5,0,0:0:0:0:
164,144,66720,1,0,0:0:0:0:
393,325,66887,5,0,0:0:0:0:
379,60,67053,1,0,0:0:0:0:
267,309,67220,5,0,0:0:0:0:
302,36,67387,1,0,0:0:0:0:
488,221,67553,5,0,0:0:0:0:
179,242,67720,1,0,0:0:0:0:
451,107,67887,5,0,0:0:0:0:
173,244,68053,1,0,0:0:0:0:
319,369,68220,5,0,0:0:0:0:
208,139,68387,1,0,0:0:0:0:
172,337,68553,5,0,0:0:0:0:
283,107,68720,1,0,0:0:0:0:
75,154,68887,5,0,0:0:0:0:
356,227,69053,1,0,0:0:0:0:
93,57,69220,5,0,0:0:0:0:
156,332,69387,1,0,0:0:0:0:
427,97,69553,5,0,0:0:0:0:
78,58,69720,1,0,0:0:0:0:
416,169,69887,5,0,0:0:0:0:
31,252,70053,1,0,0:0:0:0:
448,273,70220,5,0,0:0:0:0:
66,140,70387,1,0,0:0:0:0:
419,346,70553,5,0,0:0:0:0:
25,334,70720,1,0,0:0:0:0:
279,91,70887,5,0,0:0:0:0:
341,336,71053,1,0,0:0:0:0:
173,176,71220,5,0,0:0:0:0:
404,112,71387,1,0,0:0:0:0:
237,332,71553,5,0,0:0:0:0:
246,190,71720,1,0,0:0:0:0:
105,312,71887,5,0,0:0:0:0:
142,107,72053,1,0,0:0:0:0:
436,269,72220,5,0,0:0:0:0:
144,232,72387,1,0,0:0:0:0:
419,151,72553,5,0,0:0:0:0:
134,233,72720,1,0,0:0:0:0:
72,19,72887,5,0,0:0:0:0:
364,56,73054,1,0,0:0:0:0:
89,137,73220,5,0,0:0:0:0:
374,55,73387,1,0,0:0:0:0:
229,339,73553,5,0,0:0:0:0:
160,109,73720,1,0,0:0:0:0:
436,163,73887,5,0,0:0:0:0:
108,275,74053,1,0,0:0:0:0:
315,49,74220,5,0,0:0:0:0:
427,286,74387,1,0,0:0:0:0:
82,165,74553,5,0,0:0:0:0:
426,277,74720,1,0,0:0:0:0:
191,58,74887,6,0,P|171:124|191:181,1,112.500004291535
395,333,75220,1,0,0:0:0:0:
97,273,75387,1,0,0:0:0:0:
304,109,75553,6,0,P|370:97|440:111,1,112.500004291535
333,319,75887,1,0,0:0:0:0:
138,106,76053,1,0,0:0:0:0:
426,194,76220,6,0,P|445:255|435:316,1,112.500004291535
235,148,76553,2,0,P|230:92|248:39,1,112.500004291535
354,264,76887,5,0,0:0:0:0:
175,253,77053,1,0,0:0:0:0:
372,141,77220,5,0,0:0:0:0:
107,168,77387,1,0,0:0:0:0:
296,349,77553,5,0,0:0:0:0:
302,97,77720,1,0,0:0:0:0:
124,310,77887,5,0,0:0:0:0:
206,27,78053,1,0,0:0:0:0:
388,269,78220,5,0,0:0:0:0:
43,251,78387,1,0,0:0:0:0:
428,139,78553,5,0,0:0:0:0:
50,257,78720,1,0,0:0:0:0:
419,202,78887,5,0,0:0:0:0:
193,59,79053,1,0,0:0:0:0:
360,323,79220,5,0,0:0:0:0:
105,204,79387,1,0,0:0:0:0:
438,202,79553,5,0,0:0:0:0:
83,204,79719,1,0,0:0:0:0:
371,339,79887,5,0,0:0:0:0:
183,41,80053,1,0,0:0:0:0:
123,312,80220,5,0,0:0:0:0:
416,115,80387,1,0,0:0:0:0:
79,130,80553,5,0,0:0:0:0:
430,211,80720,1,0,0:0:0:0:
55,218,80887,5,0,0:0:0:0:
351,73,81053,1,0,0:0:0:0:
22,51,81220,5,0,0:0:0:0:
341,198,81387,1,0,0:0:0:0:
114,314,81553,5,0,0:0:0:0:
209,52,81720,1,0,0:0:0:0:
453,253,81887,5,0,0:0:0:0:
51,220,82053,1,0,0:0:0:0:
445,89,82220,5,0,0:0:0:0:
178,321,82387,1,0,0:0:0:0:
66,50,82553,5,0,0:0:0:0:
483,325,82720,1,0,0:0:0:0:
154,210,82887,6,0,P|141:154|161:93,1,112.500004291535
301,182,83553,2,0,P|314:238|294:299,1,112.500004291535
101,316,84220,2,0,P|147:292|211:307,1,112.500004291535
292,330,84720,1,0,0:0:0:0:
292,330,84887,2,0,L|415:327,1,112.500004291535
475,273,85387,1,0,0:0:0:0:
256,192,85553,12,0,86887,0:0:0:0:
