osu file format v14

[General]
AudioFilename: audio.mp3
AudioLeadIn: 0
PreviewTime: 45916
Countdown: 1
SampleSet: Soft
StackLeniency: 0.7
Mode: 0
LetterboxInBreaks: 0
WidescreenStoryboard: 0

[Editor]
DistanceSpacing: 1
BeatDivisor: 4
GridSize: 32
TimelineZoom: 1

[Metadata]
Title:Yubi Bouenkyou ~Congratulations~
TitleUnicode:指望遠鏡 ~Congratulations~
Artist:Nogizaka46 feat. Roomie, Pewdiepie & Boyinaband
ArtistUnicode:乃木坂46 feat. Roomie, Pewdiepie & Boyinaband
Creator:X4D
Version:Journey
Source:
Tags:
BeatmapID:1995029
BeatmapSetID:955315

[Difficulty]
HPDrainRate:5.5
CircleSize:4
OverallDifficulty:9
ApproachRate:9.2
SliderMultiplier:1.4
SliderTickRate:1

[Events]
//Background and Video events
0,0,"awaw.jpg",0,0
//Break Periods
//Storyboard Layer 0 (Background)
//Storyboard Layer 1 (Fail)
//Storyboard Layer 2 (Pass)
//Storyboard Layer 3 (Foreground)
//Storyboard Sound Samples

[TimingPoints]
0,333.333333333333,4,2,0,96,1,0
9333,-83.3333333333333,4,2,0,96,0,0
14666,-90.9090909090909,4,2,0,96,0,0
25333,-83.3333333333333,4,2,0,96,0,0
35999,-100,4,2,0,96,0,0
39333,-125,4,2,0,96,0,0
39999,-166.666666666667,4,2,0,96,0,0
41333,-90.9090909090909,4,2,0,96,0,0
43999,-83.3333333333333,4,2,0,96,0,0
46333,-133.333333333333,4,2,0,96,0,0
46583,-133.333333333333,4,2,0,5,0,0
46666,-71.4285714285714,4,2,0,96,0,0
48583,-71.4285714285714,4,2,0,5,0,0
48666,-71.4285714285714,4,2,0,96,0,0

[Colours]
Combo1 : 236,19,24
Combo2 : 241,219,188
Combo3 : 188,67,70
Combo4 : 226,191,71

[HitObjects]
256,192,6666,12,0,8666,0:0:0:0:
161,51,8833,5,0,0:0:0:0:
129,36,8916,1,0,0:0:0:0:
95,46,8999,2,0,P|100:142|100:177,1,105
37,215,9333,5,0,0:0:0:0:
204,125,9499,1,0,0:0:0:0:
10,246,9666,1,0,0:0:0:0:
207,370,9833,6,0,P|194:281|184:181,1,167.999994873047
104,271,10333,1,0,0:0:0:0:
231,110,10499,6,0,P|303:90|361:180,1,167.999994873047
272,208,10999,1,0,0:0:0:0:
430,288,11166,6,0,P|438:204|451:121,1,167.999994873047
396,19,11666,1,0,0:0:0:0:
396,19,11999,5,0,0:0:0:0:
272,208,12166,1,0,0:0:0:0:
410,274,12333,1,0,0:0:0:0:
255,100,12499,6,0,P|203:92|145:86,1,83.9999974365235
363,209,12833,1,0,0:0:0:0:
305,21,12999,1,0,0:0:0:0:
187,269,13166,6,0,P|182:227|175:185,1,83.9999974365235
283,368,13499,1,0,0:0:0:0:
341,180,13665,1,0,0:0:0:0:
187,369,13833,6,0,P|115:389|57:299,1,167.999994873047
90,230,14333,1,0,0:0:0:0:
90,230,14666,6,0,P|85:188|78:146,1,77.0000023498536
189,86,14999,2,0,P|183:124|179:162,1,77.0000023498536
257,217,15333,1,0,0:0:0:0:
257,217,15499,1,0,0:0:0:0:
319,68,15666,2,0,P|324:106|328:144,1,77.0000023498536
366,272,15999,6,0,P|401:293|450:285,1,77.0000023498536
500,155,16333,2,0,P|462:154|429:174,1,77.0000023498536
345,303,16666,1,0,0:0:0:0:
345,303,16833,1,0,0:0:0:0:
252,252,16999,1,0,0:0:0:0:
279,371,17166,1,0,0:0:0:0:
237,222,17333,6,0,P|198:216|160:212,1,77.0000023498536
101,333,17666,2,0,P|139:328|177:323,1,77.0000023498536
46,256,17999,1,0,0:0:0:0:
46,256,18166,1,0,0:0:0:0:
146,187,18333,2,0,P|150:148|155:110,1,77.0000023498536
114,3,18666,6,0,P|36:2|3:80,1,154.000004699707
69,177,19166,1,0,0:0:0:0:
69,177,19249,1,0,0:0:0:0:
69,177,19333,2,0,P|107:181|145:186,1,77.0000023498536
286,237,19666,1,0,0:0:0:0:
198,264,19833,1,0,0:0:0:0:
243,98,19999,6,0,P|237:136|233:174,1,77.0000023498536
382,291,20333,1,0,0:0:0:0:
339,166,20499,1,0,0:0:0:0:
284,343,20666,2,0,P|206:344|173:266,1,154.000004699707
88,197,21166,1,0,0:0:0:0:
93,316,21333,5,0,0:0:0:0:
62,177,21499,1,0,0:0:0:0:
171,284,21666,2,0,P|179:207|190:131,1,154.000004699707
165,52,22166,1,0,0:0:0:0:
265,166,22333,2,0,P|303:160|341:156,1,77.0000023498536
477,67,22666,5,0,0:0:0:0:
333,50,22833,1,0,0:0:0:0:
451,159,22999,1,0,0:0:0:0:
431,0,23166,1,0,0:0:0:0:
344,198,23333,1,0,0:0:0:0:
488,181,23500,1,0,0:0:0:0:
368,120,23666,1,0,0:0:0:0:
309,307,23833,6,0,B|214:303|259:248|172:237,1,154.000004699707
83,319,24333,1,0,0:0:0:0:
168,166,24499,1,0,0:0:0:0:
168,166,24583,1,0,0:0:0:0:
168,166,24666,1,0,0:0:0:0:
68,351,24833,1,0,0:0:0:0:
5,209,24999,1,0,0:0:0:0:
5,209,25333,6,0,P|11:164|16:120,1,83.9999974365235
122,29,25666,1,0,0:0:0:0:
178,163,25833,1,0,0:0:0:0:
241,14,25999,1,0,0:0:0:0:
99,117,26166,1,0,0:0:0:0:
260,206,26333,2,0,B|368:201|317:138|409:126,1,167.999994873047
496,186,26833,5,0,0:0:0:0:
395,29,26999,1,0,0:0:0:0:
393,235,27166,1,0,0:0:0:0:
494,78,27332,1,0,0:0:0:0:
474,290,27499,1,0,0:0:0:0:
400,128,27666,2,0,P|406:172|411:216,1,83.9999974365235
343,350,27999,6,0,P|301:354|266:333,1,83.9999974365235
203,192,28333,1,0,0:0:0:0:
325,262,28499,1,0,0:0:0:0:
164,366,28666,2,0,P|159:324|153:282,1,83.9999974365235
298,136,28999,1,0,0:0:0:0:
237,271,29166,1,0,0:0:0:0:
133,81,29333,6,0,P|174:76|209:97,1,83.9999974365235
116,203,29666,1,0,0:0:0:0:
15,40,29833,2,0,P|27:123|36:206,1,167.999994873047
9,349,30333,1,0,0:0:0:0:
9,349,30666,5,0,0:0:0:0:
179,238,30833,1,0,0:0:0:0:
19,218,30999,1,0,0:0:0:0:
103,356,31166,1,0,0:0:0:0:
222,145,31333,2,0,P|210:228|201:311,1,167.999994873047
291,368,31833,1,0,0:0:0:0:
367,191,31999,6,0,P|372:232|377:274,1,83.9999974365235
309,117,32333,1,0,0:0:0:0:
461,147,32499,1,0,0:0:0:0:
282,83,32666,1,0,0:0:0:0:
417,33,32833,1,0,0:0:0:0:
222,145,32999,2,0,P|180:139|138:134,1,83.9999974365235
45,30,33333,6,0,P|86:25|128:19,1,83.9999974365235
2,120,33666,1,0,0:0:0:0:
146,233,33833,2,0,P|104:227|62:222,1,83.9999974365235
255,315,34166,1,0,0:0:0:0:
159,113,34333,1,0,0:0:0:0:
29,337,34499,6,0,B|137:332|86:269|178:257,1,167.999994873047
349,353,34999,1,0,0:0:0:0:
231,193,35166,1,0,0:0:0:0:
231,193,35249,1,0,0:0:0:0:
231,193,35333,1,0,0:0:0:0:
367,374,35499,1,0,0:0:0:0:
413,180,35666,1,0,0:0:0:0:
295,281,35833,1,0,0:0:0:0:
469,375,35999,6,0,P|478:291|490:208,1,140
459,105,36499,1,0,0:0:0:0:
376,251,36666,2,0,P|367:167|355:84,1,140
305,40,37166,2,0,P|272:27|237:29,1,70
191,158,37499,2,0,P|225:159|258:147,1,70
144,80,37833,1,0,0:0:0:0:
71,180,37999,2,0,P|62:96|50:13,1,140
88,377,38666,6,0,P|47:306|154:280,1,210
88,377,39333,6,0,P|47:306|123:260,1,168
88,377,39999,6,0,P|47:306|74:267,1,125.999996154785
169,346,40666,6,0,L|210:349,2,41.9999987182618
322,210,41333,6,0,P|326:251|332:293,1,83.9999974365235
223,207,41666,2,0,P|228:165|233:123,1,83.9999974365235
419,327,41999,1,0,0:0:0:0:
245,290,42166,1,0,0:0:0:0:
394,159,42333,2,0,P|388:117|383:75,1,83.9999974365235
200,8,42666,6,0,P|149:13|114:44,1,77.0000023498536
121,210,42999,1,0,0:0:0:0:
188,95,43166,1,0,0:0:0:0:
188,95,43249,1,0,0:0:0:0:
188,95,43333,1,0,0:0:0:0:
110,244,43499,1,0,0:0:0:0:
30,87,43666,2,0,P|35:128|40:170,1,83.9999974365235
15,347,43999,6,0,P|74:293|153:339,1,167.999994873047
378,321,44499,6,0,P|305:353|247:299,1,167.999994873047
205,384,44999,1,0,0:0:0:0:
186,139,45166,6,0,P|191:180|196:222,1,83.9999974365235
78,44,45499,1,0,0:0:0:0:
291,51,45666,1,0,0:0:0:0:
78,44,45833,1,0,0:0:0:0:
78,44,46333,6,0,P|72:85|67:127,1,78.7500030040742
51,170,46666,6,0,P|94:137|153:155,1,97.9999970092774
198,310,46999,2,0,P|150:313|114:281,1,97.9999970092774
321,202,47333,1,0,0:0:0:0:
305,363,47499,1,0,0:0:0:0:
182,149,47666,1,0,0:0:0:0:
198,310,47832,1,0,0:0:0:0:
334,99,47999,6,0,P|382:93|431:86,1,97.9999970092774
109,210,48333,2,0,P|90:152|130:73,1,146.999995513916
215,45,48666,1,0,0:0:0:0:
6,146,48833,1,0,0:0:0:0:
209,229,48999,2,0,P|160:234|111:241,1,97.9999970092774
