osu file format v14

[General]
AudioFilename: audio.mp3
AudioLeadIn: 0
PreviewTime: 44717
Countdown: 0
SampleSet: Soft
StackLeniency: 0.7
Mode: 0
LetterboxInBreaks: 0
WidescreenStoryboard: 1

[Editor]
DistanceSpacing: 1
BeatDivisor: 4
GridSize: 4
TimelineZoom: 1.7

[Metadata]
Title:Yubi Bouenkyou ~Anime-ban~
TitleUnicode:指望遠鏡~アニメ版~
Artist:Nogizaka46
ArtistUnicode:乃木坂46
Creator:Nevo
Version:~Little's Easy~
Source:Magi: The Labyrinth of Magic
Tags:マギ ending tv size Armin A_r_M_i_N Little Lince Cosmico ShogunMoon Waku Doormat My Angel Kanan Time Capsule CloudSplash16
BeatmapID:1474948
BeatmapSetID:623924

[Difficulty]
HPDrainRate:2
CircleSize:3
OverallDifficulty:2
ApproachRate:3
SliderMultiplier:0.999999999999999
SliderTickRate:1

[Events]
//Background and Video events
0,0,"Aladdin.(Magi).full.1419902.jpg",0,0
//Break Periods
//Storyboard Layer 0 (Background)
//Storyboard Layer 1 (Fail)
//Storyboard Layer 2 (Pass)
//Storyboard Layer 3 (Foreground)
//Storyboard Sound Samples

[TimingPoints]
1551,333.333333333333,4,2,16,60,1,0
8217,-100,4,2,16,70,0,0
45550,-100,4,2,16,80,0,1
64217,-100,4,2,16,80,0,0
66884,-100,4,2,16,80,0,1
82884,-100,4,2,16,60,0,0

[Colours]
Combo1 : 234,210,115
Combo2 : 55,155,255
Combo3 : 207,207,207

[HitObjects]
148,104,1551,6,0,B|197:124|221:169|221:169|264:144|315:140,2,200,2|0|2,0:0|0:0|0:0,0:0:0:0:
68,288,3550,2,0,P|112:308|161:301,1,99.9999999999999
256,267,4217,2,0,P|349:246|421:310,2,200,2|0|2,0:0|0:0|0:0,0:0:0:0:
256,267,8217,6,0,B|405:251,1,150,4|4,0:0|0:0,0:0:0:0:
476,180,9050,1,0,0:0:0:0:
379,155,9384,2,0,P|356:112|362:63,1,99.9999999999999,4|0,0:0|0:0,0:0:0:0:
272,16,10050,2,0,B|256:165,1,150,4|8,0:0|0:0,0:0:0:0:
199,248,10884,6,0,P|133:278|64:252,1,150,4|2,0:0|0:0,0:0:0:0:
28,160,11717,1,2,0:0:0:0:
88,80,12050,2,0,B|140:76|140:76|182:97,1,99.9999999999999,4|2,0:0|0:0,0:0:0:0:
256,165,12717,2,0,P|327:144|401:130,1,150,4|8,0:0|0:0,0:0:0:0:
480,196,13550,5,4,0:0:0:0:
452,292,13884,2,0,P|377:352|286:323,1,200,8|8,0:0|0:0,0:0:0:0:
200,272,14884,2,0,P|160:256|96:268,1,99.9999999999999,0|8,0:0|0:0,0:0:0:0:
24,204,15550,1,0,0:0:0:0:
112,155,15884,2,0,P|119:106|120:56,1,99.9999999999999,8|0,0:0|0:0,0:0:0:0:
220,60,16550,6,0,B|208:112|224:160|224:160|272:144|321:147,1,200,8|8,0:0|0:0,0:0:0:0:
400,212,17550,2,0,L|388:311,1,99.9999999999999,0|8,0:0|0:0,0:0:0:0:
296,352,18217,2,0,L|284:252,1,99.9999999999999,0|8,0:0|0:0,0:0:0:0:
184,252,18884,5,0,0:0:0:0:
100,308,19217,2,0,P|50:296|1:292,2,99.9999999999999,8|0|8,0:0|0:0|0:0,0:0:0:0:
183,252,20217,2,0,P|191:203|176:156,1,99.9999999999999,0|8,0:0|0:0,0:0:0:0:
248,88,20884,2,0,P|295:100|344:88,1,99.9999999999999,0|8,0:0|0:0,0:0:0:0:
432,40,21550,5,0,0:0:0:0:
496,116,21884,2,0,L|484:215,1,99.9999999999999,8|0,0:0|0:0,0:0:0:0:
408,343,22717,2,0,P|337:363|271:330,1,150,4|8,0:0|0:0,0:0:0:0:
228,240,23550,2,0,L|239:140,1,99.9999999999999,0|8,0:0|0:0,0:0:0:0:
316,76,24217,5,4,0:0:0:0:
403,123,24550,2,0,P|452:131|499:116,2,99.9999999999999,8|0|8,0:0|0:0|0:0,0:0:0:0:
320,180,25550,2,0,P|303:226|311:275,1,100,0|8,0:0|0:0,0:0:0:0:
248,352,26217,2,0,L|148:344,1,99.9999999999999,0|8,0:0|0:0,0:0:0:0:
60,296,26884,5,0,0:0:0:0:
144,240,27217,2,0,B|152:192|152:192|132:124|132:124|144:44,1,200,8|8,0:0|0:0,0:0:0:0:
244,32,28217,2,0,P|267:75|265:124,1,99.9999999999999,0|8,0:0|0:0,0:0:0:0:
248,224,28884,2,0,L|347:216,1,99.9999999999999,0|8,0:0|0:0,0:0:0:0:
436,260,29550,5,0,0:0:0:0:
368,332,29884,2,0,L|268:339,2,99.9999999999999,8|0|8,0:0|0:0|0:0,0:0:0:0:
435,259,30884,2,0,P|448:211|434:163,1,99.9999999999999,0|8,0:0|0:0,0:0:0:0:
356,100,31550,2,0,L|256:92,1,99.9999999999999,0|8,0:0|0:0,0:0:0:0:
156,84,32217,5,0,0:0:0:0:
196,176,32550,2,0,P|204:224|187:271,1,99.9999999999999,8|0,0:0|0:0,0:0:0:0:
40,296,33384,2,0,P|7:230|26:159,1,150,4|8,0:0|0:0,0:0:0:0:
108,104,34217,2,0,L|207:96,1,99.9999999999999,8|8,0:0|0:3,0:0:0:0:
296,144,34884,6,0,B|352:128|404:152|404:152|436:120|439:72,2,200,4|8|0,0:0|0:0|0:0,0:0:0:0:
212,196,36550,1,0,0:0:0:0:
300,244,36884,2,0,P|318:290|327:339,1,99.9999999999999,8|0,0:0|0:0,0:0:0:0:
428,356,37550,6,0,L|464:160,1,200,4|12,0:0|0:0,0:0:0:0:
300,44,38884,2,0,L|264:240,1,200,4|12,0:0|0:0,0:0:0:0:
84,328,40217,6,0,P|13:263|34:169,1,200,4|0,0:0|0:0,0:0:0:0:
120,116,41217,1,8,0:0:0:0:
208,164,41550,2,0,P|227:209|222:258,1,99.9999999999999,0|8,0:0|0:0,0:0:0:0:
316,292,42217,2,0,P|311:242|330:197,1,99.9999999999999,0|8,0:0|0:0,0:0:0:0:
428,176,42884,6,0,B|448:128|448:128|425:32,1,150,4|4,0:0|0:0,0:0:0:0:
328,12,43717,1,0,0:0:0:0:
240,60,44050,2,0,L|140:52,2,99.9999999999999,4|8|8,0:0|0:0|0:0,0:0:0:0:
239,60,45550,6,0,P|166:121|183:215,1,200,4|0,0:0|0:0,0:0:0:0:
268,272,46550,1,8,0:0:0:0:
352,216,46884,2,0,L|359:116,1,99.9999999999999,0|8,0:0|0:0,0:0:0:0:
456,148,47550,2,0,L|448:247,1,99.9999999999999,0|8,0:0|0:0,0:0:0:0:
396,332,48217,6,0,B|328:368|268:296|201:331,1,200,2|0,0:0|0:0,0:0:0:0:
104,304,49217,1,8,0:0:0:0:
176,236,49550,2,0,P|205:144|144:70,1,200,2|0,0:0|0:0,0:0:0:0:
44,88,50550,1,8,0:0:0:0:
4,180,50884,6,0,L|16:280,1,99.9999999999999,0|8,0:0|0:0,0:0:0:0:
80,356,51550,2,0,P|128:367|175:352,1,99.9999999999999,0|8,0:0|0:0,0:0:0:0:
260,300,52217,2,0,B|272:256|256:212|256:212|252:148|296:114,1,200
396,96,53217,1,8,0:0:0:0:
452,180,53550,6,0,P|418:257|361:195,2,200
279,76,55550,2,0,P|232:88|184:74,1,99.9999999999999,8|8,0:0|0:3,0:0:0:0:
96,120,56217,6,0,L|88:219,1,99.9999999999999,4|8,0:0|0:0,0:0:0:0:
124,312,56884,2,0,P|215:338|283:271,1,200
240,180,57884,1,8,0:0:0:0:
308,108,58217,2,0,L|408:96,1,99.9999999999999,0|8,0:0|0:0,0:0:0:0:
452,188,58884,6,0,L|352:200,1,99.9999999999999,2|8,0:0|0:0,0:0:0:0:
283,271,59550,2,0,L|183:259,1,99.9999999999999,0|8,0:0|0:0,0:0:0:0:
96,208,60217,2,0,B|68:160|88:104|88:104|136:88|177:109,1,200,2|0,0:0|0:0,0:0:0:0:
264,160,61217,1,8,0:0:0:0:
359,136,61550,6,0,P|390:96|395:47,1,99.9999999999999,4|8,0:0|0:0,0:0:0:0:
496,40,62217,2,0,L|511:138,1,99.9999999999999,0|8,0:0|0:0,0:0:0:0:
436,204,62884,2,0,B|416:248|420:300|420:300|376:276|321:283,1,200
232,332,63884,1,8,0:0:0:0:
144,284,64217,6,0,B|140:228|140:228|128:204|128:204|124:137,2,150,4|4|4,0:0|0:0|0:0,0:0:0:0:
232,332,65550,2,0,P|310:279|294:185,1,200,4|0,0:0|0:0,0:0:0:0:
220,120,66550,1,8,0:0:0:0:
312,84,66884,6,0,L|416:76,1,99.9999999999999,12|8,0:0|0:0,0:0:0:0:
496,128,67550,2,0,B|524:204|464:260|464:260|412:242,1,200,8|8,0:0|0:0,0:0:0:0:
316,212,68550,1,8,0:0:0:0:
216,220,68884,2,0,P|169:236|137:274,1,99.9999999999999,8|8,0:0|0:0,0:0:0:0:
196,356,69550,6,0,P|242:339|274:301,1,99.9999999999999,8|8,0:0|0:0,0:0:0:0:
316,212,70217,2,0,B|312:160|312:160|332:104|332:104|324:16,1,200,8|8,0:0|0:0,0:0:0:0:
232,56,71217,1,8,0:0:0:0:
140,96,71550,2,0,L|40:84,1,99.9999999999999,8|8,0:0|0:0,0:0:0:0:
24,184,72217,6,0,L|124:196,1,99.9999999999999,12|8,0:0|0:0,0:0:0:0:
208,252,72884,2,0,L|220:152,1,99.9999999999999,8|8,0:0|0:0,0:0:0:0:
316,128,73550,2,0,L|304:228,1,99.9999999999999,12|8,0:0|0:0,0:0:0:0:
280,324,74217,2,0,L|380:336,1,99.9999999999999,8|8,0:0|0:0,0:0:0:0:
464,280,74884,6,0,P|485:186|421:114,2,200,12|12|12,0:0|0:0|0:0,0:0:0:0:
268,328,76884,2,0,P|221:310|172:314,1,99.9999999999999,8|8,0:0|0:0,0:0:0:0:
71,327,77550,6,0,P|7:257|31:164,2,200,4|8|8,0:0|0:0|0:0,0:0:0:0:
244,224,79550,2,0,P|247:174|246:124,1,99.9999999999999,8|8,0:0|0:0,0:0:0:0:
184,48,80217,6,0,B|132:56|96:91|96:91|60:56|8:48,2,200,8|8|8,0:0|0:0|0:0,0:0:0:0:
368,124,82217,2,0,P|371:173|370:223,1,99.9999999999999,8|8,0:0|0:0,0:0:0:0:
315,308,82884,6,0,P|270:327|221:320,1,99.9999999999999,2|0,0:0|0:0,0:0:0:0:
144,256,83550,2,0,P|124:210|131:161,1,99.9999999999999
223,123,84217,2,0,P|149:63|58:93,2,200,2|0|0,0:0|0:0|0:0,0:0:0:0:
