osu file format v14

[General]
AudioFilename: audio.mp3
AudioLeadIn: 0
PreviewTime: 44717
Countdown: 0
SampleSet: Soft
StackLeniency: 0.4
Mode: 0
LetterboxInBreaks: 0
WidescreenStoryboard: 0

[Editor]
Bookmarks: 13551,27884,34884,42884,49550,66884,68217,69550,70884,72217,73550,74884,77550
DistanceSpacing: 2
BeatDivisor: 4
GridSize: 16
TimelineZoom: 1.7

[Metadata]
Title:Yubi Bouenkyou ~Anime-ban~
TitleUnicode:指望遠鏡~アニメ版~
Artist:Nogizaka46
ArtistUnicode:乃木坂46
Creator:Nevo
Version:~Lince's Insane~
Source:Magi: The Labyrinth of Magic
Tags:マギ ending tv size Armin A_r_M_i_N Little Lince Cosmico ShogunMoon Waku Doormat My Angel Kanan Time Capsule CloudSplash16
BeatmapID:1474947
BeatmapSetID:623924

[Difficulty]
HPDrainRate:5
CircleSize:4
OverallDifficulty:7
ApproachRate:9
SliderMultiplier:1.69
SliderTickRate:1

[Events]
//Background and Video events
0,0,"Aladdin.(Magi).full.1419902.jpg",0,0
//Break Periods
//Storyboard Layer 0 (Background)
//Storyboard Layer 1 (Fail)
//Storyboard Layer 2 (Pass)
//Storyboard Layer 3 (Foreground)
//Storyboard Sound Samples

[TimingPoints]
1551,333.333333333333,4,2,1,40,1,0
1551,-133.333333333333,4,2,1,40,0,0
7550,-100,4,2,1,5,0,0
7717,-86.9565217391304,4,2,1,70,0,0
7884,-200,4,2,1,50,0,0
8134,-200,4,2,1,5,0,0
8217,-100,4,2,1,60,0,0
10550,-200,4,2,1,50,0,0
10800,-200,4,2,1,5,0,0
10884,-100,4,2,1,60,0,0
13217,-200,4,2,1,50,0,0
13467,-200,4,2,1,5,0,0
13550,-105.263157894737,4,2,1,60,0,0
18550,-200,4,2,1,50,0,0
18800,-200,4,2,1,5,0,0
18884,-105.263157894737,4,2,1,60,0,0
34884,-133.333333333333,4,2,1,50,0,0
40217,-105.263157894737,4,2,1,50,0,0
42550,-200,4,2,1,50,0,0
42800,-200,4,2,1,5,0,0
42884,-105.263157894737,4,2,1,50,0,0
43134,-105.263157894737,4,2,1,5,0,0
43217,-105.263157894737,4,2,1,50,0,0
44384,-105.263157894737,4,2,1,60,0,0
44884,-105.263157894737,4,2,1,50,0,0
45050,-105.263157894737,4,2,1,5,0,0
45217,-105.263157894737,4,2,1,50,0,0
45384,-105.263157894737,4,2,1,5,0,0
45550,-86.9565217391304,4,2,1,70,0,1
54884,-100,4,2,1,70,0,1
55884,-200,4,2,1,70,0,1
56134,-200,4,2,1,5,0,0
56217,-86.9565217391304,4,2,1,70,0,1
64217,-86.9565217391304,4,2,1,70,0,0
65550,-100,4,2,1,50,0,0
66884,-86.9565217391304,4,2,1,70,0,1
82884,-105.263157894737,4,2,1,30,0,0
85217,-105.263157894737,4,2,1,20,0,0
85884,-105.263157894737,4,2,1,15,0,0
86550,-105.263157894737,4,2,1,10,0,0
86884,-105.263157894737,4,2,1,5,0,0

[Colours]
Combo1 : 234,210,115
Combo2 : 55,155,255
Combo3 : 207,207,207

[HitObjects]
128,93,884,5,8,1:0:0:0:
141,210,1217,1,8,1:0:0:0:
314,175,1551,6,0,P|263:139|202:144,1,126.75,6|0,1:0|0:0,0:0:0:0:
157,308,2217,2,0,P|213:280|240:224,1,126.750004835129,8|0,1:0|0:0,0:0:0:0:
141,210,2884,1,6,1:0:0:0:
141,210,3550,5,8,1:0:0:0:
160,335,3884,1,0,0:0:0:0:
84,120,4217,2,0,P|132:102|205:124,1,126.750004835129,6|0,1:0|0:0,0:0:0:0:
90,306,4884,2,0,P|50:273|32:199,1,126.750004835129,8|0,1:0|0:0,0:0:0:0:
262,211,5550,1,6,1:0:0:0:
256,192,5634,12,0,7550,0:0:0:0:
367,131,7717,5,2,0:0:0:0:
364,150,7800,1,2,0:0:0:0:
362,169,7884,2,0,L|294:166,1,63.375,8|0,0:0|0:0,0:0:0:0:
277,165,8217,6,0,L|281:260,1,84.5,6|2,0:0|0:0,0:0:0:0:
284,334,8550,1,8,0:0:0:0:
123,278,8717,2,0,L|130:106,1,169,6|2,0:0|0:0,0:0:0:0:
133,24,9217,1,8,0:0:0:0:
247,148,9384,6,0,B|332:185|321:111|412:148,1,169,6|2,0:0|0:0,0:0:0:0:
367,219,9884,1,8,0:0:0:0:
286,71,10050,2,0,P|227:64|158:147,1,169,6|2,0:0|0:0,0:0:0:0:
203,315,10550,2,0,L|282:309,1,63.375,8|0,0:0|0:0,0:0:0:0:
291,307,10884,5,6,0:0:0:0:
320,192,11050,2,0,P|277:188|231:205,1,84.5,2|8,0:0|0:0,0:0:0:0:
373,267,11384,2,0,P|401:238|414:194,1,84.5,6|0,0:0|0:0,0:0:0:0:
279,121,11717,2,0,P|291:161|319:191,1,84.5,6|8,0:0|0:0,0:0:0:0:
439,82,12050,5,6,0:0:0:0:
362,122,12217,1,0,0:0:0:0:
490,278,12384,2,0,L|495:194,1,84.5,6|8,0:0|0:0,0:0:0:0:
379,382,12717,2,0,L|370:208,1,169,6|2,0:0|0:0,0:0:0:0:
279,121,13217,2,0,L|275:192,1,63.375,8|0,0:0|0:0,0:0:0:0:
273,212,13550,6,0,B|193:245|198:181|113:212,1,160.549995712853,6|8,0:0|0:0,0:0:0:0:
104,354,14050,1,0,0:0:0:0:
104,354,14217,2,0,P|133:333|154:293,1,80.2749978564263,2|2,0:0|0:0,0:0:0:0:
27,222,14550,2,0,P|47:259|80:282,1,80.2749978564263,8|0,0:0|0:0,0:0:0:0:
192,191,14884,6,0,B|208:142|208:142|187:22,1,160.549995712853,0|8,0:0|0:0,0:0:0:0:
189,34,15384,1,0,0:0:0:0:
317,37,15550,2,0,B|298:144|298:144|314:193,1,160.549995712853,2|8,0:0|0:0,0:0:0:0:
429,250,16050,1,0,0:0:0:0:
429,250,16217,6,0,P|445:210|440:166,1,80.2749978564263,0|0,0:0|0:0,0:0:0:0:
342,278,16550,1,8,0:0:0:0:
401,339,16717,1,0,0:0:0:0:
364,200,16884,2,0,P|318:202|285:223,1,80.2749978564263,2|2,0:0|0:0,0:0:0:0:
244,356,17217,1,8,0:0:0:0:
201,278,17384,6,0,B|156:259|156:259|41:278,1,160.549995712853,2|2,0:0|0:0,0:0:0:0:
6,121,17884,1,8,0:0:0:0:
113,189,18050,1,2,0:0:0:0:
136,184,18134,1,0,0:0:0:0:
159,180,18217,1,2,0:0:0:0:
316,145,18384,1,8,0:0:0:0:
259,52,18550,2,0,P|228:79|214:112,1,63.375,2|0,0:0|0:0,0:0:0:0:
215,122,18884,6,0,B|234:182|234:182|216:223|216:223|226:275,1,160.549995712853,6|8,0:0|0:0,0:0:0:0:
300,376,19384,1,0,0:0:0:0:
300,376,19550,2,0,L|468:363,1,160.549995712853,2|8,0:0|0:0,0:0:0:0:
390,218,20050,6,0,P|370:257|373:305,1,80.2749978564263,2|0,0:0|0:0,0:0:0:0:
463,277,20384,1,2,0:0:0:0:
407,127,20550,1,8,0:0:0:0:
390,218,20717,2,0,B|339:234|339:234|225:214,1,160.549995712853,2|2,0:0|0:0,0:0:0:0:
137,86,21217,2,0,L|145:166,1,80.2749978564263,8|8,0:0|0:0,0:0:0:0:
36,285,21550,6,0,L|44:205,1,80.2749978564263,6|0,0:0|0:0,0:0:0:0:
193,266,21884,1,8,0:0:0:0:
121,318,22050,1,0,0:0:0:0:
280,300,22217,1,2,0:0:0:0:
178,174,22384,5,2,0:0:0:0:
193,266,22550,1,8,0:0:0:0:
292,139,22717,6,0,B|345:122|345:122|461:147,1,160.549995712853,6|2,0:0|0:0,0:0:0:0:
447,144,23217,1,8,0:0:0:0:
370,285,23384,2,0,P|348:241|348:202,1,80.2749978564263,8|2,0:0|0:0,0:0:0:0:
431,346,23717,1,8,0:0:0:0:
431,346,23884,2,0,P|453:302|453:263,1,80.2749978564263,2|0,0:0|0:0,0:0:0:0:
372,136,24217,6,0,L|268:139,1,80.2749978564263,6|0,0:0|0:0,0:0:0:0:
226,249,24550,2,0,L|330:252,1,80.2749978564263,8|0,0:0|0:0,0:0:0:0:
179,150,24884,1,2,0:0:0:0:
136,231,25050,1,2,0:0:0:0:
269,141,25217,1,8,0:0:0:0:
119,82,25384,6,0,P|96:119|90:158,1,80.2749978564263,0|0,0:0|0:0,0:0:0:0:
255,321,25717,2,0,P|247:281|225:248,1,80.2749978564263,0|8,0:0|0:0,0:0:0:0:
97,315,26050,1,0,0:0:0:0:
97,315,26217,2,0,B|130:321|130:321|197:304,1,80.2749978564263,2|2,0:0|0:0,0:0:0:0:
256,170,26550,1,8,0:0:0:0:
136,231,26717,1,0,0:0:0:0:
273,342,26884,5,2,0:0:0:0:
273,342,27050,2,0,L|264:258,1,80.2749978564263,0|8,0:0|0:0,0:0:0:0:
166,133,27384,1,0,0:0:0:0:
166,133,27550,2,0,L|175:49,1,80.2749978564263,2|2,0:0|0:0,0:0:0:0:
328,3,27884,1,8,0:0:0:0:
418,134,28050,6,0,B|365:150|365:150|254:128,1,160.549995712853,2|2,0:0|0:0,0:0:0:0:
95,89,28550,1,8,0:0:0:0:
212,35,28717,1,2,0:0:0:0:
221,195,28884,2,0,L|136:189,1,80.2749978564263,8|2,0:0|0:0,0:0:0:0:
279,118,29217,1,8,0:0:0:0:
275,278,29384,1,8,0:0:0:0:
275,278,29550,6,0,L|451:271,1,160.549995712853,6|8,0:0|0:0,0:0:0:0:
397,115,30050,1,0,0:0:0:0:
397,115,30217,2,0,P|361:143|347:177,1,80.2749978564263,2|2,0:0|0:0,0:0:0:0:
437,198,30550,1,8,0:0:0:0:
322,55,30717,1,0,0:0:0:0:
322,55,30884,6,0,L|233:62,1,80.2749978564263,2|0,0:0|0:0,0:0:0:0:
148,71,31217,1,8,0:0:0:0:
201,222,31384,1,0,0:0:0:0:
201,222,31550,2,0,P|211:181|205:141,1,80.2749978564263,2|2,0:0|0:0,0:0:0:0:
117,178,31884,1,8,0:0:0:0:
203,312,32050,1,0,0:0:0:0:
291,177,32217,5,6,0:0:0:0:
291,177,32384,2,0,L|397:183,1,80.2749978564263,0|8,0:0|0:0,0:0:0:0:
465,186,32717,1,0,0:0:0:0:
325,266,32884,1,2,0:0:0:0:
297,89,33050,5,2,0:0:0:0:
325,293,33217,1,8,0:0:0:0:
169,251,33384,2,0,L|186:84,1,160.549995712853,6|2,0:0|0:0,0:0:0:0:
83,216,33884,1,8,0:0:0:0:
259,208,34050,1,2,0:0:0:0:
260,191,34134,1,0,0:0:0:0:
262,175,34217,1,2,0:0:0:0:
251,303,34384,5,8,0:0:0:0:
327,361,34550,1,2,0:0:0:0:
436,336,34717,1,10,0:0:0:0:
489,220,34884,6,0,B|443:198|388:215|388:215|392:231|416:247,1,126.750004835129,6|0,0:0|0:0,0:0:0:0:
474,131,35384,1,2,0:0:0:0:
474,131,35550,2,0,P|433:127|397:132,1,63.3750024175645,8|0,0:0|0:0,0:0:0:0:
313,211,35884,1,0,0:0:0:0:
313,211,36050,6,0,P|272:215|236:210,1,63.3750024175645,2|0,0:0|0:0,0:0:0:0:
172,145,36384,2,0,P|166:114|171:74,1,63.3750024175645,2|2,0:0|0:0,0:0:0:0:
150,247,36717,1,0,0:0:0:0:
150,247,36800,1,0,0:0:0:0:
150,247,36884,6,0,P|114:256|36:242,1,95.0625036263467,8|0,0:0|0:0,0:0:0:0:
31,230,37217,2,0,L|39:329,1,95.0625036263467,0|0,0:0|0:0,0:0:0:0:
42,356,37550,6,0,B|108:384|96:328|168:353,1,126.750004835129,6|0,0:0|0:0,0:0:0:0:
246,382,38050,1,2,0:0:0:0:
334,236,38217,2,0,P|278:246|232:301,1,126.750004835129,12|0,0:0|0:0,0:0:0:0:
322,330,38717,1,2,0:0:0:0:
349,142,38884,5,4,0:0:0:0:
233,296,39050,1,2,0:0:0:0:
233,296,39384,1,2,0:0:0:0:
181,180,39550,5,8,0:0:0:0:
334,236,39717,1,2,0:0:0:0:
217,88,39884,5,8,0:0:0:0:
322,330,40050,1,0,0:0:0:0:
145,267,40217,6,0,B|28:260|28:260|55:299,1,160.549995712853,6|8,0:0|0:0,0:0:0:0:
204,349,40717,1,0,0:0:0:0:
204,349,40884,2,0,P|233:319|245:274,1,80.2749978564263,2|2,0:0|0:0,0:0:0:0:
170,140,41217,2,0,P|182:177|210:206,1,80.2749978564263,8|0,0:0|0:0,0:0:0:0:
331,115,41550,5,2,0:0:0:0:
253,138,41717,1,0,0:0:0:0:
411,165,41884,2,0,P|426:124|421:87,1,80.2749978564263,8|0,0:0|0:0,0:0:0:0:
362,32,42134,1,0,0:0:0:0:
362,32,42217,2,0,L|274:38,1,80.2749978564263,2|2,0:0|0:0,0:0:0:0:
170,140,42550,2,0,L|243:146,1,63.375,8|0,0:0|0:0,0:0:0:0:
265,148,42884,6,0,B|245:197|245:197|256:268,1,120.412496784639,6|2,0:0|0:0,0:0:0:0:
262,295,43217,1,8,0:0:0:0:
116,364,43384,2,0,B|126:297|126:297|94:205,1,160.549995712853,6|2,0:0|0:0,0:0:0:0:
95,209,43884,1,8,0:0:0:0:
169,76,44050,6,0,B|231:101|231:101|328:93,1,160.549995712853,12|2,0:0|0:0,0:0:0:0:
484,77,44550,1,8,0:0:0:0:
484,77,44717,1,2,0:0:0:0:
484,77,44884,6,0,L|474:158,1,80.2749978564263,0|0,0:0|0:0,0:0:0:0:
362,272,45217,2,0,L|352:192,1,80.2749978564263,8|0,0:0|0:0,0:0:0:0:
169,76,45550,6,0,P|156:132|167:171,1,97.1750018534661,6|0,0:0|0:0,0:0:0:0:
229,244,45884,2,0,P|239:290|226:337,1,97.1750018534661,8|2,0:0|0:0,0:0:0:0:
145,286,46217,1,0,0:0:0:0:
251,122,46384,1,2,0:0:0:0:
325,251,46550,2,0,L|225:243,1,97.1750018534661,8|0,0:0|0:0,0:0:0:0:
404,208,46884,6,0,P|415:260|399:304,1,97.1750018534661,2|0,0:0|0:0,0:0:0:0:
324,153,47217,2,0,P|363:117|409:109,1,97.1750018534661,8|2,0:0|0:0,0:0:0:0:
325,251,47550,1,0,0:0:0:0:
243,106,47717,1,2,0:0:0:0:
160,249,47884,1,8,0:0:0:0:
244,201,48050,1,2,0:0:0:0:
78,201,48217,6,0,P|67:255|85:306,1,97.1750018534661,6|0,0:0|0:0,0:0:0:0:
234,374,48550,2,0,P|245:327|234:280,1,97.1750018534661,8|2,0:0|0:0,0:0:0:0:
144,128,48884,2,0,P|167:179|215:205,1,97.1750018534661,0|2,0:0|0:0,0:0:0:0:
325,109,49217,2,0,B|272:96|219:128,1,97.1750018534661,8|0,0:0|0:0,0:0:0:0:
396,173,49550,5,2,0:0:0:0:
411,86,49717,1,0,0:0:0:0:
308,200,49884,1,8,0:0:0:0:
376,264,50050,1,2,0:0:0:0:
325,109,50217,2,0,P|268:114|228:155,1,97.1750018534661,0|2,0:0|0:0,0:0:0:0:
271,283,50550,2,0,P|304:243|306:193,1,97.1750018534661,8|8,0:0|0:0,0:0:0:0:
164,262,50884,6,0,P|169:319|195:357,1,97.1750018534661,6|0,0:0|0:0,0:0:0:0:
115,190,51217,2,0,P|82:236|77:282,1,97.1750018534661,8|2,0:0|0:0,0:0:0:0:
123,103,51550,1,0,0:0:0:0:
31,137,51717,1,2,0:0:0:0:
195,153,51884,2,0,P|208:105|193:51,1,97.1750018534661,8|0,0:0|0:0,0:0:0:0:
367,9,52217,6,0,P|356:56|369:102,1,97.1750018534661,2|0,0:0|0:0,0:0:0:0:
285,116,52550,2,0,P|307:158|347:185,1,97.1750018534661,8|2,0:0|0:0,0:0:0:0:
502,205,52884,1,0,0:0:0:0:
449,123,53050,1,2,0:0:0:0:
373,302,53217,2,0,L|479:295,1,97.1750018534661,8|2,0:0|0:0,0:0:0:0:
294,211,53550,5,6,0:0:0:0:
270,365,53717,1,2,0:0:0:0:
165,277,53884,2,0,L|276:286,1,97.1750018534661,8|2,0:0|0:0,0:0:0:0:
351,111,54217,1,4,0:0:0:0:
359,286,54384,1,2,0:0:0:0:
456,192,54550,2,0,L|350:200,1,97.1750018534661,8|2,0:0|0:0,0:0:0:0:
208,171,54884,6,0,P|192:121|197:86,1,84.5,6|0,0:0|0:0,0:0:0:0:
363,29,55217,2,0,P|365:70|350:110,1,84.5,8|2,0:0|0:0,0:0:0:0:
301,179,55467,1,0,0:0:0:0:
301,179,55550,2,0,P|298:220|313:260,1,84.5,12|2,0:0|0:0,0:0:0:0:
372,321,55884,2,0,L|443:318,1,63.375,8|0,0:0|0:0,0:0:0:0:
473,314,56217,6,0,P|482:260|468:219,1,97.1750018534661,6|0,0:0|0:0,0:0:0:0:
301,179,56550,1,8,0:0:0:0:
378,239,56717,1,2,0:0:0:0:
334,89,56884,2,0,P|280:84|239:104,1,97.1750018534661,0|0,0:0|0:0,0:0:0:0:
205,193,57217,2,0,P|227:242|264:266,1,97.1750018534661,8|2,0:0|0:0,0:0:0:0:
359,252,57550,6,0,B|397:219|394:166|394:166|433:204|483:195,1,194.350003706932,2|8,0:0|0:0,0:0:0:0:
463,101,58050,1,2,0:0:0:0:
301,179,58217,1,0,0:0:0:0:
359,252,58384,1,2,0:0:0:0:
362,97,58550,1,8,0:0:0:0:
264,88,58717,1,2,0:0:0:0:
193,269,58884,6,0,P|233:273|291:248,1,97.1750018534661,6|0,0:0|0:0,0:0:0:0:
129,196,59217,2,0,P|105:228|98:291,1,97.1750018534661,8|2,0:0|0:0,0:0:0:0:
224,178,59550,2,0,P|207:141|156:103,1,97.1750018534661,0|2,0:0|0:0,0:0:0:0:
19,208,59884,2,0,L|123:213,1,97.1750018534661,8|0,0:0|0:0,0:0:0:0:
106,37,60217,5,2,0:0:0:0:
70,121,60384,1,0,0:0:0:0:
260,262,60550,1,8,0:0:0:0:
224,178,60717,1,2,0:0:0:0:
100,328,60884,6,0,L|208:325,1,97.1750018534661,0|2,0:0|0:0,0:0:0:0:
321,180,61217,2,0,L|213:177,1,97.1750018534661,8|8,0:0|0:0,0:0:0:0:
408,238,61550,6,0,P|427:189|421:141,1,97.1750018534661,6|0,0:0|0:0,0:0:0:0:
279,11,61884,2,0,P|275:59|293:103,1,97.1750018534661,8|2,0:0|0:0,0:0:0:0:
460,50,62217,2,0,P|428:41|353:45,1,97.1750018534661,0|2,0:0|0:0,0:0:0:0:
234,161,62550,2,0,P|187:171|139:168,1,97.1750018534661,8|0,0:0|0:0,0:0:0:0:
35,26,62884,5,2,0:0:0:0:
181,91,63050,1,0,0:0:0:0:
38,252,63217,5,8,0:0:0:0:
88,106,63384,1,2,0:0:0:0:
204,328,63550,6,0,L|97:320,1,97.1750018534661,0|2,0:0|0:0,0:0:0:0:
211,191,63884,1,8,0:0:0:0:
299,363,64050,1,2,0:0:0:0:
299,363,64217,6,0,L|402:358,1,97.1750018534661,6|0,0:0|0:0,0:0:0:0:
415,356,64467,1,0,0:0:0:0:
434,354,64550,1,8,0:0:0:0:
506,173,64717,2,0,L|306:160,1,194.350003706932,6|2,0:0|0:0,0:0:0:0:
154,274,65217,2,0,L|311:265,1,145.762502780199,12|2,0:0|0:0,0:0:0:0:
342,265,65550,5,0,0:0:0:0:
166,175,65717,1,8,0:0:0:0:
334,158,65884,1,2,0:0:0:0:
256,333,66050,1,8,0:0:0:0:
256,333,66217,5,2,0:0:0:0:
257,232,66384,1,2,0:0:0:0:
257,130,66550,1,8,0:0:0:0:
257,28,66717,1,0,0:0:0:0:
175,81,66884,6,0,P|162:126|175:177,1,97.1750018534661,6|2,0:0|0:0,0:0:0:0:
338,173,67217,2,0,P|350:127|337:81,1,97.1750018534661,8|2,0:0|0:0,0:0:0:0:
176,284,67550,1,12,0:0:0:0:
176,284,67717,1,2,0:0:0:0:
333,287,67884,1,8,0:0:0:0:
333,287,68051,1,2,0:0:0:0:
88,234,68217,6,0,P|76:283|88:332,1,97.1750018534661,12|2,0:0|0:0,0:0:0:0:
423,330,68550,2,0,P|432:283|421:237,1,97.1750018534661,10|2,0:0|0:0,0:0:0:0:
173,173,68884,1,6,0:0:0:0:
176,284,69050,1,8,0:0:0:0:
336,176,69217,1,2,0:0:0:0:
333,287,69383,1,8,0:0:0:0:
114,97,69550,6,0,P|83:137|79:191,1,97.1750018534661,6|2,0:0|0:0,0:0:0:0:
117,373,69884,2,0,L|215:367,1,97.1750018534661,8|2,0:0|0:0,0:0:0:0:
396,100,70217,2,0,P|427:140|431:194,1,97.1750018534661,6|2,0:0|0:0,0:0:0:0:
395,373,70551,2,0,L|297:367,1,97.1750018534661,8|2,0:0|0:0,0:0:0:0:
173,173,70884,5,12,0:0:0:0:
336,176,71050,1,2,0:0:0:0:
176,284,71217,1,8,0:0:0:0:
333,287,71383,1,2,0:0:0:0:
174,83,71550,5,6,0:0:0:0:
175,317,71717,1,8,0:0:0:0:
338,83,71884,1,2,0:0:0:0:
336,316,72051,1,8,0:0:0:0:
428,202,72217,6,0,P|374:181|321:176,1,97.1750018534661,6|2,0:0|0:0,0:0:0:0:
81,199,72550,2,0,P|135:178|188:173,1,97.1750018534661,8|2,0:0|0:0,0:0:0:0:
360,278,72884,2,0,P|353:333|331:374,1,97.1750018534661,12|2,0:0|0:0,0:0:0:0:
177,369,73217,2,0,P|156:326|152:278,1,97.1750018534661,8|2,0:0|0:0,0:0:0:0:
338,83,73550,6,0,L|437:91,1,97.1750018534661,12|2,0:0|0:0,0:0:0:0:
456,270,73884,2,0,L|359:277,1,97.1750018534661,8|2,0:0|0:0,0:0:0:0:
174,83,74217,2,0,L|75:91,1,97.1750018534661,12|2,0:0|0:0,0:0:0:0:
56,270,74551,2,0,L|152:277,1,97.1750018534661,8|2,0:0|0:0,0:0:0:0:
323,184,74884,5,6,0:0:0:0:
338,83,75050,1,0,0:0:0:0:
189,184,75217,5,8,0:0:0:0:
174,83,75383,1,0,0:0:0:0:
320,220,75550,5,6,0:0:0:0:
338,83,75716,1,0,0:0:0:0:
192,220,75884,5,8,0:0:0:0:
174,83,76050,1,0,0:0:0:0:
256,284,76217,5,6,0:0:0:0:
256,89,76384,1,0,0:0:0:0:
256,311,76550,5,8,0:0:0:0:
256,116,76717,1,2,0:0:0:0:
102,236,76884,6,0,P|124:283|174:307,1,97.1750018534661,4|2,0:0|0:0,0:0:0:0:
350,304,77217,2,0,P|390:279|410:236,1,97.1750018534661,8|8,0:0|0:0,0:0:0:0:
174,83,77550,6,0,B|135:75|135:75|76:86,1,97.1750018534661,6|0,0:0|0:0,0:0:0:0:
338,83,77884,2,0,B|377:75|377:75|436:86,1,97.1750018534661,8|2,0:0|0:0,0:0:0:0:
168,245,78217,2,0,P|140:200|135:150,1,97.1750018534661,4|2,0:0|0:0,0:0:0:0:
377,156,78550,2,0,P|370:204|344:245,1,97.1750018534661,8|2,0:0|0:0,0:0:0:0:
175,344,78884,5,6,0:0:0:0:
168,245,79050,1,0,0:0:0:0:
344,245,79217,1,8,0:0:0:0:
337,344,79383,1,2,0:0:0:0:
100,299,79550,2,0,P|78:257|84:209,1,97.1750018534661,6|0,0:0|0:0,0:0:0:0:
427,209,79884,2,0,P|433:257|411:299,1,97.1750018534661,8|0,0:0|0:0,0:0:0:0:
190,149,80217,6,0,B|172:112|172:112|177:50,1,97.1750018534661,6|0,0:0|0:0,0:0:0:0:
314,193,80550,2,0,B|332:156|332:156|327:94,1,97.1750018534661,8|2,0:0|0:0,0:0:0:0:
198,247,80884,2,0,L|86:239,1,97.1750018534661,4|2,0:0|0:0,0:0:0:0:
315,309,81217,2,0,L|427:301,1,97.1750018534661,8|2,0:0|0:0,0:0:0:0:
190,149,81550,5,6,0:0:0:0:
315,309,81717,1,0,0:0:0:0:
314,193,81884,1,8,0:0:0:0:
198,247,82050,1,2,0:0:0:0:
395,358,82217,2,0,P|407:307|397:263,1,97.1750018534661,4|8,0:0|0:0,0:0:0:0:
111,101,82550,2,0,P|99:152|109:196,1,97.1750018534661,2|8,0:0|0:0,0:0:0:0:
214,357,82884,5,6,1:0:0:0:
256,192,82967,12,0,86884,0:0:0:0:
