osu file format v14

[General]
AudioFilename: audio.mp3
AudioLeadIn: 0
PreviewTime: 44717
Countdown: 0
SampleSet: Soft
StackLeniency: 0.7
Mode: 0
LetterboxInBreaks: 0
WidescreenStoryboard: 1

[Editor]
Bookmarks: 13551,27884,34884,42884,49550,66884,68217,69550,70884,72217,73550,74884,77550
DistanceSpacing: 2.3
BeatDivisor: 4
GridSize: 16
TimelineZoom: 1.7

[Metadata]
Title:Yubi Bouenkyou ~Anime-ban~
TitleUnicode:指望遠鏡~アニメ版~
Artist:Nogizaka46
ArtistUnicode:乃木坂46
Creator:Nevo
Version:~Extra~
Source:Magi: The Labyrinth of Magic
Tags:マギ ending tv size Armin A_r_M_i_N Little Lince Cosmico ShogunMoon Waku Doormat My Angel Kanan Time Capsule CloudSplash16
BeatmapID:1474946
BeatmapSetID:623924

[Difficulty]
HPDrainRate:5.7
CircleSize:4.2
OverallDifficulty:8
ApproachRate:9.2
SliderMultiplier:1.69
SliderTickRate:1

[Events]
//Background and Video events
0,0,"Aladdin.(Magi).full.1419902.jpg",0,0
//Break Periods
//Storyboard Layer 0 (Background)
//Storyboard Layer 1 (Fail)
//Storyboard Layer 2 (Pass)
//Storyboard Layer 3 (Foreground)
//Storyboard Sound Samples

[TimingPoints]
1551,333.333333333333,4,2,1,40,1,0
1551,-133.333333333333,4,2,1,40,0,0
7550,-100,4,2,1,5,0,0
7717,-86.9565217391304,4,2,1,70,0,0
13550,-105.263157894737,4,2,1,70,0,0
13551,-105.263157894737,4,2,1,60,0,0
34884,-133.333333333333,4,2,1,60,0,0
40217,-105.263157894737,4,2,1,60,0,0
43134,-105.263157894737,4,2,1,5,0,0
43217,-105.263157894737,4,2,1,60,0,0
44384,-105.263157894737,4,2,1,70,0,0
44884,-105.263157894737,4,2,1,60,0,0
45050,-105.263157894737,4,2,1,5,0,0
45217,-105.263157894737,4,2,1,60,0,0
45384,-105.263157894737,4,2,1,5,0,0
45550,-80,4,2,1,80,0,1
54884,-100,4,2,1,80,0,1
55384,-80,4,2,1,80,0,1
55884,-100,4,2,1,80,0,1
56134,-100,4,2,1,5,0,1
56217,-80,4,2,1,80,0,1
64217,-86.9565217391304,4,2,1,80,0,0
65550,-100,4,2,1,60,0,0
66884,-80,4,2,1,80,0,1
82884,-105.263157894737,4,2,1,30,0,0
85217,-105.263157894737,4,2,1,20,0,0
85884,-105.263157894737,4,2,1,15,0,0
86550,-105.263157894737,4,2,1,10,0,0
86884,-105.263157894737,4,2,1,5,0,0

[Colours]
Combo1 : 234,210,115
Combo2 : 55,155,255
Combo3 : 207,207,207

[HitObjects]
256,192,884,5,8,1:0:0:0:
256,192,1217,1,8,1:0:0:0:
256,192,1551,6,0,P|285:180|371:221,1,126.750004835129,6|0,1:0|0:0,0:0:0:0:
344,326,2217,2,0,P|332:297|373:211,1,126.750004835129,8|0,1:0|0:0,0:0:0:0:
409,283,2884,1,6,1:0:0:0:
300,125,3550,6,0,P|271:113|185:154,1,126.750004835129,8|0,1:0|0:0,0:0:0:0:
211,259,4217,2,0,P|223:230|182:144,1,126.750004835129,6|0,1:0|0:0,0:0:0:0:
143,213,4884,1,8,1:0:0:0:
211,259,5217,1,0,0:0:0:0:
256,192,5550,1,6,1:0:0:0:
256,192,5634,12,0,7550,0:0:0:0:
206,240,7717,5,2,0:0:0:0:
206,240,7800,1,2,0:0:0:0:
206,240,7884,2,0,L|102:234,1,97.1750018534661,8|0,0:0|0:0,0:0:0:0:
275,154,8217,5,6,0:0:0:0:
250,326,8384,1,2,0:0:0:0:
178,145,8550,1,8,0:0:0:0:
369,180,8717,2,0,P|336:231|296:249,1,97.1750018534661,6|0,0:0|0:0,0:0:0:0:
243,73,9050,1,2,0:0:0:0:
431,91,9217,1,8,0:0:0:0:
178,145,9384,2,0,L|41:133,1,97.1750018534661,6|0,0:0|0:0,0:0:0:0:
326,22,9717,5,2,0:0:0:0:
369,180,9884,1,8,0:0:0:0:
178,145,10050,2,0,P|149:84|158:31,1,97.1750018534661,6|0,0:0|0:0,0:0:0:0:
431,91,10384,5,2,0:0:0:0:
269,237,10550,1,8,0:0:0:0:
269,237,10884,5,6,0:0:0:0:
461,269,11050,1,2,0:0:0:0:
373,136,11217,1,8,0:0:0:0:
391,327,11384,2,0,P|446:300|464:249,1,97.1750018534661,2|0,0:0|0:0,0:0:0:0:
373,136,11717,2,0,L|377:233,1,97.1750018534661,2|8,0:0|0:0,0:0:0:0:
466,122,12050,2,0,P|439:67|388:49,1,97.1750018534661,6|0,0:0|0:0,0:0:0:0:
275,141,12384,2,0,L|372:136,1,97.1750018534661,2|8,0:0|0:0,0:0:0:0:
259,49,12717,2,0,P|204:76|186:127,1,97.1750018534661,6|0,0:0|0:0,0:0:0:0:
238,303,13050,5,2,0:0:0:0:
276,141,13217,1,8,0:0:0:0:
276,141,13550,6,0,L|373:135,1,80.2749978564263,6|0,0:0|0:0,0:0:0:0:
223,203,13884,1,8,0:0:0:0:
194,126,14050,1,0,0:0:0:0:
302,217,14217,2,0,P|281:257|233:283,1,80.2749978564263,2|2,0:0|0:0,0:0:0:0:
145,186,14550,2,0,P|166:146|215:121,1,80.2749978564263,8|0,0:0|0:0,0:0:0:0:
171,262,14884,6,0,P|108:257|73:153,1,160.549995712853,0|8,0:0|0:0,0:0:0:0:
157,107,15384,1,0,0:0:0:0:
145,186,15550,1,2,0:0:0:0:
77,97,15717,1,2,0:0:0:0:
220,158,15884,2,0,L|336:153,1,80.2749978564263,8|0,0:0|0:0,0:0:0:0:
211,29,16217,6,0,L|95:24,1,80.2749978564263,0|0,0:0|0:0,0:0:0:0:
264,90,16550,1,8,0:0:0:0:
290,15,16717,1,0,0:0:0:0:
186,105,16884,1,2,0:0:0:0:
342,77,17050,1,2,0:0:0:0:
276,229,17217,2,0,P|248:200|237:161,1,80.2749978564263,8|2,0:0|0:0,0:0:0:0:
358,233,17550,6,0,L|349:332,1,80.2749978564263,0|2,0:0|0:0,0:0:0:0:
318,163,17884,1,8,0:0:0:0:
406,172,18050,1,2,0:0:0:0:
406,172,18134,1,0,0:0:0:0:
406,172,18217,1,2,0:0:0:0:
277,232,18384,1,8,0:0:0:0:
381,98,18550,2,0,L|474:92,1,80.2749978564263,2|8,0:0|0:0,0:0:0:0:
232,167,18884,6,0,B|157:186|149:140|71:167,1,160.549995712853,6|8,0:0|0:0,0:0:0:0:
43,266,19384,1,0,0:0:0:0:
117,237,19550,1,2,0:0:0:0:
0,199,19717,1,2,0:0:0:0:
105,318,19884,2,0,L|198:312,1,80.2749978564263,8|2,0:0|0:0,0:0:0:0:
279,243,20217,6,0,L|186:237,1,80.2749978564263,0|2,0:0|0:0,0:0:0:0:
344,290,20550,1,8,0:0:0:0:
293,164,20717,1,2,0:0:0:0:
271,323,20884,1,0,0:0:0:0:
354,213,21050,1,2,0:0:0:0:
219,193,21217,2,0,P|243:225|279:243,1,80.2749978564263,8|8,0:0|0:0,0:0:0:0:
160,138,21550,6,0,P|141:180|153:240,1,80.2749978564263,6|0,0:0|0:0,0:0:0:0:
236,115,21884,1,8,0:0:0:0:
179,59,22050,1,0,0:0:0:0:
219,193,22217,1,2,0:0:0:0:
312,90,22384,1,2,0:0:0:0:
160,138,22550,1,8,0:0:0:0:
270,256,22717,1,2,0:0:0:0:
270,256,23050,5,2,0:0:0:0:
312,90,23217,1,8,0:0:0:0:
219,193,23384,1,8,0:0:0:0:
219,193,23467,1,0,0:0:0:0:
219,193,23550,1,2,0:0:0:0:
381,131,23717,5,8,0:0:0:0:
272,302,23884,1,2,0:0:0:0:
272,302,24217,6,0,L|192:295,1,80.2749978564263,6|0,0:0|0:0,0:0:0:0:
135,184,24550,1,8,0:0:0:0:
210,214,24717,1,0,0:0:0:0:
83,247,24884,1,2,0:0:0:0:
54,171,25050,1,2,0:0:0:0:
159,277,25217,2,0,P|132:311|88:329,1,80.2749978564263,8|0,0:0|0:0,0:0:0:0:
135,184,25550,6,0,L|215:177,1,80.2749978564263,0|0,0:0|0:0,0:0:0:0:
314,260,25884,2,0,L|235:254,1,80.2749978564263,8|0,0:0|0:0,0:0:0:0:
361,196,26217,1,2,0:0:0:0:
394,270,26384,1,2,0:0:0:0:
282,188,26550,1,8,0:0:0:0:
440,205,26717,1,0,0:0:0:0:
344,332,26884,6,0,P|320:299|314:260,1,80.2749978564263,2|0,0:0|0:0,0:0:0:0:
407,132,27217,1,8,0:0:0:0:
394,270,27384,1,0,0:0:0:0:
327,124,27550,1,2,0:0:0:0:
440,205,27717,1,2,0:0:0:0:
282,188,27884,2,0,L|202:181,1,80.2749978564263,8|2,0:0|0:0,0:0:0:0:
67,311,28217,6,0,P|108:295|134:255,1,80.2749978564263,0|2,0:0|0:0,0:0:0:0:
153,118,28550,2,0,P|128:149|124:188,1,80.2749978564263,8|2,0:0|0:0,0:0:0:0:
235,254,28884,1,8,0:0:0:0:
202,181,29050,1,2,0:0:0:0:
190,320,29217,1,8,0:0:0:0:
314,262,29384,1,8,0:0:0:0:
155,247,29550,6,0,L|75:240,1,80.2749978564263,6|0,0:0|0:0,0:0:0:0:
202,181,29884,1,8,0:0:0:0:
235,254,30050,1,0,0:0:0:0:
123,175,30217,1,2,0:0:0:0:
284,186,30384,1,2,0:0:0:0:
165,326,30550,2,0,L|153:237,1,80.2749978564263,8|0,0:0|0:0,0:0:0:0:
294,106,30884,6,0,L|283:185,1,80.2749978564263,2|0,0:0|0:0,0:0:0:0:
123,175,31217,2,0,L|112:95,1,80.2749978564263,8|0,0:0|0:0,0:0:0:0:
193,216,31550,1,2,0:0:0:0:
123,255,31717,1,2,0:0:0:0:
192,136,31884,1,8,0:0:0:0:
192,296,32050,1,0,0:0:0:0:
55,213,32217,6,0,P|84:186|122:174,1,80.2749978564263,6|0,0:0|0:0,0:0:0:0:
261,257,32550,1,8,0:0:0:0:
123,255,32717,1,0,0:0:0:0:
263,177,32884,1,2,0:0:0:0:
192,296,33050,1,2,0:0:0:0:
184,127,33217,1,8,0:0:0:0:
332,218,33384,6,0,P|342:184|320:119,1,80.2749978564263,6|0,0:0|0:0,0:0:0:0:
207,51,33717,1,2,0:0:0:0:
263,177,33884,1,8,0:0:0:0:
344,65,34050,1,2,0:0:0:0:
344,65,34134,1,0,0:0:0:0:
344,65,34217,1,2,0:0:0:0:
184,127,34384,5,8,0:0:0:0:
406,112,34550,1,2,0:0:0:0:
187,207,34717,1,10,0:0:0:0:
419,191,34884,6,0,P|481:138|474:74,1,126.750004835129,6|0,0:0|0:0,0:0:0:0:
256,113,35384,1,2,0:0:0:0:
256,113,35550,2,0,L|263:184,1,63.3750024175645,8|0,0:0|0:0,0:0:0:0:
193,295,35884,1,0,0:0:0:0:
137,179,36050,1,2,0:0:0:0:
137,179,36384,5,2,0:0:0:0:
137,179,36550,2,0,L|130:249,1,63.3750024175645,2|0,0:0|0:0,0:0:0:0:
262,176,36884,2,0,L|207:221,1,63.3750024175645,8|0,0:0|0:0,0:0:0:0:
350,263,37217,2,0,L|279:256,1,63.3750024175645,0|2,0:0|0:0,0:0:0:0:
197,362,37550,6,0,L|327:350,1,126.750004835129,6|0,0:0|0:0,0:0:0:0:
492,279,38050,1,2,0:0:0:0:
413,268,38217,6,0,L|283:256,1,126.750004835129,12|0,0:0|0:0,0:0:0:0:
180,163,38717,1,2,0:0:0:0:
259,152,38884,5,4,0:0:0:0:
170,245,39050,1,2,0:0:0:0:
170,245,39384,5,2,0:0:0:0:
208,89,39550,1,8,0:0:0:0:
259,152,39717,1,2,0:0:0:0:
180,163,39884,2,0,L|93:155,1,63.3750024175645,8|0,0:0|0:0,0:0:0:0:
170,245,40217,6,0,L|276:230,1,80.2749978564263,6|0,0:0|0:0,0:0:0:0:
338,163,40550,2,0,L|232:148,1,80.2749978564263,8|0,0:0|0:0,0:0:0:0:
363,256,40884,1,2,0:0:0:0:
431,191,41050,1,2,0:0:0:0:
326,83,41217,2,0,L|341:189,1,80.2749978564263,8|0,0:0|0:0,0:0:0:0:
420,81,41550,6,0,L|435:-25,1,80.2749978564263,2|0,0:0|0:0,0:0:0:0:
326,83,41884,1,8,0:0:0:0:
392,163,42050,1,0,0:0:0:0:
392,163,42134,1,0,0:0:0:0:
392,163,42217,1,2,0:0:0:0:
372,18,42384,1,2,0:0:0:0:
272,21,42550,2,0,P|245:69|245:112,1,80.2749978564263,8|0,0:0|0:0,0:0:0:0:
320,203,42884,6,0,L|326:76,1,120.412496784639,6|2,0:0|0:0,0:0:0:0:
325,82,43217,1,8,0:0:0:0:
225,211,43384,6,0,P|249:267|346:297,1,160.549995712853,6|2,0:0|0:0,0:0:0:0:
320,203,43884,1,8,0:0:0:0:
264,124,44050,2,0,P|212:115|164:139,1,80.2749978564263,12|0,0:0|0:0,0:0:0:0:
225,211,44384,5,2,0:0:0:0:
360,115,44550,1,8,0:0:0:0:
212,39,44717,1,2,0:0:0:0:
320,203,44884,6,0,P|368:212|439:171,1,120.412496784639,0|0,0:0|0:0,0:0:0:0:
388,59,45217,2,0,B|365:31|365:31|358:130,1,120.412496784639,8|0,0:0|0:0,0:0:0:0:
320,203,45550,6,0,L|214:193,1,105.625,6|0,0:0|0:0,0:0:0:0:
79,64,45884,2,0,L|204:53,1,105.625,8|2,0:0|0:0,0:0:0:0:
144,278,46217,2,0,P|111:232|119:166,1,105.625,0|2,0:0|0:0,0:0:0:0:
297,158,46550,2,0,P|330:204|322:270,1,105.625,8|0,0:0|0:0,0:0:0:0:
205,132,46884,5,2,0:0:0:0:
364,89,47050,1,0,0:0:0:0:
248,227,47217,2,0,L|142:217,1,105.625,8|2,0:0|0:0,0:0:0:0:
282,76,47550,1,0,0:0:0:0:
342,237,47717,1,2,0:0:0:0:
205,132,47884,2,0,P|187:68|205:22,1,105.625,8|2,0:0|0:0,0:0:0:0:
387,85,48217,6,0,L|281:75,1,105.625,6|0,0:0|0:0,0:0:0:0:
142,236,48550,2,0,L|248:226,1,105.625,8|2,0:0|0:0,0:0:0:0:
76,169,48884,1,0,0:0:0:0:
125,331,49050,1,2,0:0:0:0:
167,145,49217,2,0,P|133:92|87:74,1,105.625,8|0,0:0|0:0,0:0:0:0:
142,236,49550,6,0,L|248:226,1,105.625,2|0,0:0|0:0,0:0:0:0:
364,357,49884,2,0,L|258:347,1,105.625,8|2,0:0|0:0,0:0:0:0:
399,204,50217,1,0,0:0:0:0:
459,365,50384,1,2,0:0:0:0:
322,260,50551,2,0,P|304:196|322:150,1,105.625,8|8,0:0|0:0,0:0:0:0:
452,31,50884,6,0,P|470:80|459:131,1,105.625,6|0,0:0|0:0,0:0:0:0:
216,133,51217,1,8,0:0:0:0:
377,87,51384,1,2,0:0:0:0:
322,260,51550,1,0,0:0:0:0:
284,67,51717,1,2,0:0:0:0:
411,231,51884,2,0,P|409:297|374:348,1,105.625,8|0,0:0|0:0,0:0:0:0:
216,269,52217,6,0,L|341:258,1,105.625,2|0,0:0|0:0,0:0:0:0:
171,354,52550,2,0,L|46:343,1,105.625,8|2,0:0|0:0,0:0:0:0:
171,185,52884,1,0,0:0:0:0:
265,348,53050,1,2,0:0:0:0:
110,258,53217,2,0,P|80:215|80:163,1,105.625,8|2,0:0|0:0,0:0:0:0:
231,113,53550,6,0,P|260:155|260:207,1,105.625,6|2,0:0|0:0,0:0:0:0:
138,95,53884,1,8,0:0:0:0:
294,42,54050,1,2,0:0:0:0:
171,185,54217,1,0,0:0:0:0:
201,24,54384,1,2,0:0:0:0:
366,212,54550,2,0,L|229:205,1,105.625,8|2,0:0|0:0,0:0:0:0:
78,333,54884,6,0,P|132:283|222:297,1,169,2|8,0:0|0:0,0:0:0:0:
168,376,55384,1,2,0:0:0:0:
168,376,55467,1,0,0:0:0:0:
168,376,55550,1,8,0:0:0:0:
171,185,55717,1,2,0:0:0:0:
221,296,55884,2,0,P|279:327|346:303,1,126.75,8|0,0:0|0:0,0:0:0:0:
382,249,56217,6,0,L|386:143,1,105.625,6|0,0:0|0:0,0:0:0:0:
166,79,56550,2,0,L|170:184,1,105.625,8|2,0:0|0:0,0:0:0:0:
449,73,56884,2,0,P|402:50|338:62,1,105.625,0|0,0:0|0:0,0:0:0:0:
283,231,57217,2,0,P|330:254|394:242,1,105.625,8|2,0:0|0:0,0:0:0:0:
252,143,57550,5,2,0:0:0:0:
226,306,57717,1,0,0:0:0:0:
345,161,57884,2,0,L|349:55,1,105.625,8|2,0:0|0:0,0:0:0:0:
283,231,58217,1,0,0:0:0:0:
438,189,58384,1,2,0:0:0:0:
252,143,58550,2,0,P|209:169|191:247,1,105.625,8|2,0:0|0:0,0:0:0:0:
311,321,58884,6,0,P|354:295|372:217,1,105.625,6|0,0:0|0:0,0:0:0:0:
320,68,59217,1,8,0:0:0:0:
283,231,59384,1,2,0:0:0:0:
438,189,59550,1,0,0:0:0:0:
252,143,59717,1,2,0:0:0:0:
417,98,59884,2,0,P|481:107|525:148,1,105.625,8|0,0:0|0:0,0:0:0:0:
476,340,60217,5,2,0:0:0:0:
438,189,60384,1,0,0:0:0:0:
438,189,60467,1,0,0:0:0:0:
438,189,60550,1,8,0:0:0:0:
311,321,60717,1,2,0:0:0:0:
252,143,60884,1,0,0:0:0:0:
374,245,61050,1,2,0:0:0:0:
183,209,61217,2,0,L|45:202,1,105.625,8|8,0:0|0:0,0:0:0:0:
205,326,61550,6,0,L|343:319,1,105.625,6|0,0:0|0:0,0:0:0:0:
413,159,61884,1,8,0:0:0:0:
283,231,62050,1,2,0:0:0:0:
410,307,62217,1,0,0:0:0:0:
350,94,62384,1,2,0:0:0:0:
289,311,62550,2,0,P|321:301|360:206,1,105.625,8|0,0:0|0:0,0:0:0:0:
273,125,62884,6,0,L|283:236,1,105.625,2|0,0:0|0:0,0:0:0:0:
350,94,63217,1,8,0:0:0:0:
284,46,63384,1,2,0:0:0:0:
378,171,63550,1,0,0:0:0:0:
359,15,63717,1,2,0:0:0:0:
273,125,63884,2,0,P|221:139|158:115,1,105.625,8|2,0:0|0:0,0:0:0:0:
66,33,64217,6,0,L|76:136,1,97.1750018534661,6|0,0:0|0:0,0:0:0:0:
75,129,64467,1,0,0:0:0:0:
75,129,64550,1,8,0:0:0:0:
162,222,64717,2,0,L|172:119,1,97.1750018534661,2|0,0:0|0:0,0:0:0:0:
272,246,65050,1,2,0:0:0:0:
196,295,65217,2,0,P|143:300|98:271,1,97.1750018534661,8|2,0:0|0:0,0:0:0:0:
244,156,65550,6,0,L|328:163,1,84.5,2|8,0:0|0:0,0:0:0:0:
366,341,65884,1,2,0:0:0:0:
272,246,66050,1,8,0:0:0:0:
398,128,66217,2,0,P|406:181|387:218,1,84.5,2|2,0:0|0:0,0:0:0:0:
236,140,66550,2,0,L|243:55,1,84.5,8|0,0:0|0:0,0:0:0:0:
114,91,66884,5,6,0:0:0:0:
177,306,67051,1,2,0:0:0:0:
243,56,67217,5,8,0:0:0:0:
254,287,67385,1,0,0:0:0:0:
391,68,67550,5,12,0:0:0:0:
343,294,67717,1,2,0:0:0:0:
509,116,67884,5,8,0:0:0:0:
416,330,68050,1,2,0:0:0:0:
234,149,68217,5,12,0:0:0:0:
482,219,68384,1,2,0:0:0:0:
224,254,68550,5,10,0:0:0:0:
430,127,68717,1,2,0:0:0:0:
254,345,68884,6,0,P|196:346|148:306,1,105.625,6|8,0:0|0:0,0:0:0:0:
234,149,69217,2,0,L|223:267,1,105.625,2|8,0:0|0:0,0:0:0:0:
158,93,69550,5,6,0:0:0:0:
339,158,69717,1,2,0:0:0:0:
119,199,69884,5,8,0:0:0:0:
295,76,70051,1,2,0:0:0:0:
254,345,70217,5,12,0:0:0:0:
234,149,70384,1,2,0:0:0:0:
357,310,70550,5,8,0:0:0:0:
130,293,70717,1,2,0:0:0:0:
339,158,70884,5,12,0:0:0:0:
254,345,71050,1,2,0:0:0:0:
234,149,71217,5,8,0:0:0:0:
357,310,71384,1,2,0:0:0:0:
156,204,71550,6,0,P|141:141|158:94,1,105.625,6|8,0:0|0:0,0:0:0:0:
339,158,71884,2,0,L|211:146,1,105.625,2|8,0:0|0:0,0:0:0:0:
399,84,72217,5,6,0:0:0:0:
357,310,72384,1,2,0:0:0:0:
304,69,72550,5,8,0:0:0:0:
278,295,72717,1,2,0:0:0:0:
194,70,72884,5,12,0:0:0:0:
198,303,73050,1,2,0:0:0:0:
85,89,73217,5,8,0:0:0:0:
121,330,73384,1,2,0:0:0:0:
242,183,73550,5,12,0:0:0:0:
11,148,73717,1,2,0:0:0:0:
198,303,73884,5,8,0:0:0:0:
194,70,74050,1,2,0:0:0:0:
345,253,74217,6,0,P|313:306|264:319,1,105.625,12|2,0:0|0:0,0:0:0:0:
319,163,74550,2,0,L|430:156,1,105.625,8|2,0:0|0:0,0:0:0:0:
442,327,74884,5,6,0:0:0:0:
267,240,75050,1,0,0:0:0:0:
467,235,75217,5,8,0:0:0:0:
274,320,75384,1,0,0:0:0:0:
398,128,75550,5,6,0:0:0:0:
350,379,75717,1,0,0:0:0:0:
319,103,75884,5,8,0:0:0:0:
442,327,76050,1,0,0:0:0:0:
428,54,76217,5,6,0:0:0:0:
358,280,76384,1,0,0:0:0:0:
507,150,76550,5,8,0:0:0:0:
319,103,76717,1,2,0:0:0:0:
274,320,76884,6,0,P|218:335|164:317,1,105.625,4|2,0:0|0:0,0:0:0:0:
358,280,77217,2,0,P|370:330|351:379,1,105.625,8|8,0:0|0:0,0:0:0:0:
224,225,77550,5,6,0:0:0:0:
484,242,77717,1,0,0:0:0:0:
214,130,77884,5,8,0:0:0:0:
472,164,78051,1,2,0:0:0:0:
226,38,78217,5,4,0:0:0:0:
481,84,78384,1,2,0:0:0:0:
301,220,78550,5,8,0:0:0:0:
408,25,78717,1,2,0:0:0:0:
375,255,78884,6,0,P|327:297|270:297,1,105.625,6|0,0:0|0:0,0:0:0:0:
228,187,79217,2,0,P|276:145|333:145,1,105.625,8|2,0:0|0:0,0:0:0:0:
151,243,79550,6,0,L|139:109,1,105.625,4|8,0:0|0:0,0:0:0:0:
301,220,79884,2,0,L|289:353,1,105.625,2|8,0:0|0:0,0:0:0:0:
400,236,80217,5,6,0:0:0:0:
151,243,80384,1,0,0:0:0:0:
415,145,80551,5,8,0:0:0:0:
167,166,80718,1,2,0:0:0:0:
408,53,80884,5,4,0:0:0:0:
162,86,81051,1,2,0:0:0:0:
323,221,81217,5,8,0:0:0:0:
224,15,81384,1,2,0:0:0:0:
249,256,81550,6,0,P|297:298|354:298,1,105.625,6|0,0:0|0:0,0:0:0:0:
397,188,81884,2,0,P|349:146|292:146,1,105.625,8|2,0:0|0:0,0:0:0:0:
472,243,82217,6,0,L|483:110,1,105.625,4|8,0:0|0:0,0:0:0:0:
323,221,82550,2,0,L|334:354,1,105.625,2|8,0:0|0:0,0:0:0:0:
167,166,82884,6,0,P|235:174|300:97,1,160.549995712853,6|8,1:0|1:0,0:0:0:0:
83,125,83550,2,0,P|75:193|152:258,1,160.549995712853,8|0,1:0|1:0,0:0:0:0:
326,170,84217,2,0,L|166:165,1,160.549995712853,8|6,1:0|1:0,0:0:0:0:
169,278,84717,1,8,1:0:0:0:
169,278,84884,2,0,L|260:277,1,80.2749978564263,8|0,1:0|0:0,0:0:0:0:
108,222,85217,1,6,1:0:0:0:
92,301,85384,1,8,1:0:0:0:
256,192,85467,12,0,86884,0:0:0:0:
