osu file format v14

[General]
AudioFilename: audio.mp3
AudioLeadIn: 0
PreviewTime: 44717
Countdown: 0
SampleSet: Soft
StackLeniency: 0.7
Mode: 0
LetterboxInBreaks: 0
WidescreenStoryboard: 1

[Editor]
DistanceSpacing: 1
BeatDivisor: 4
GridSize: 4
TimelineZoom: 1.7

[Metadata]
Title:Yubi Bouenkyou ~Anime-ban~
TitleUnicode:指望遠鏡~アニメ版~
Artist:Nogizaka46
ArtistUnicode:乃木坂46
Creator:Nevo
Version:~Doormat's Normal~
Source:Magi: The Labyrinth of Magic
Tags:マギ ending tv size Armin A_r_M_i_N Little Lince Cosmico ShogunMoon Waku Doormat My Angel Kanan Time Capsule CloudSplash16
BeatmapID:1474945
BeatmapSetID:623924

[Difficulty]
HPDrainRate:3
CircleSize:3.5
OverallDifficulty:4
ApproachRate:5
SliderMultiplier:1.1
SliderTickRate:1

[Events]
//Background and Video events
0,0,"Aladdin.(Magi).full.1419902.jpg",0,0
//Break Periods
//Storyboard Layer 0 (Background)
//Storyboard Layer 1 (Fail)
//Storyboard Layer 2 (Pass)
//Storyboard Layer 3 (Foreground)
//Storyboard Sound Samples

[TimingPoints]
1551,333.333333333333,4,2,16,60,1,0
8217,-100,4,2,16,70,0,0
45550,-100,4,2,16,80,0,1
64217,-100,4,2,16,80,0,0
66884,-100,4,2,16,80,0,1
82884,-100,4,2,16,60,0,0
86884,-100,4,2,16,5,0,0

[Colours]
Combo1 : 234,210,115
Combo2 : 55,155,255
Combo3 : 207,207,207

[HitObjects]
316,64,1551,5,2,0:0:0:0:
240,142,1884,1,2,0:0:0:0:
318,218,2217,2,0,L|440:204,2,110,2|2|2,0:0|0:0|0:0,0:0:0:0:
318,218,3550,1,0,0:0:0:0:
240,142,3884,1,0,0:0:0:0:
164,220,4217,5,2,0:0:0:0:
242,296,4550,1,2,0:0:0:0:
166,374,4884,2,0,L|44:360,2,110,2|2|2,0:0|0:0|0:0,0:0:0:0:
384,79,7717,2,0,L|393:153,1,55,8|2,0:0|0:0,0:0:0:0:
292,181,8217,6,0,L|279:71,1,110,6|8,0:0|0:0,0:0:0:0:
280,17,8717,2,0,L|177:57,1,110,6|2,0:0|0:0,0:0:0:0:
124,45,9217,1,8,0:0:0:0:
124,45,9384,2,0,P|144:89|120:157,1,110,6|2,0:0|0:0,0:0:0:0:
84,177,9884,1,8,0:0:0:0:
84,177,10051,1,4,0:0:0:0:
148,265,10384,1,2,0:0:0:0:
148,265,10550,1,8,0:0:0:0:
250,231,10884,5,6,0:0:0:0:
250,231,11050,2,0,L|303:220,1,55,2|8,0:0|0:0,0:0:0:0:
352,249,11384,1,6,0:0:0:0:
444,189,11717,2,0,L|428:113,1,55,2|8,0:0|0:0,0:0:0:0:
452,85,12050,2,0,P|401:103|349:88,1,110,6|2,0:0|0:0,0:0:0:0:
306,53,12550,1,8,0:0:0:0:
306,53,12717,2,0,P|254:37|203:56,1,110,6|2,0:0|0:0,0:0:0:0:
168,97,13217,1,8,0:0:0:0:
64,57,13550,5,6,0:0:0:0:
0,145,13884,2,0,L|12:257,1,110,8|2,0:0|0:0,0:0:0:0:
120,277,14550,2,0,L|126:222,1,55,8|0,0:0|0:0,0:0:0:0:
104,173,14884,2,0,P|160:189|216:169,1,110,0|8,0:0|0:0,0:0:0:0:
248,137,15384,1,0,0:0:0:0:
248,137,15550,2,0,P|300:122|352:138,1,110,2|8,0:0|0:0,0:0:0:0:
400,237,16217,6,0,P|386:289|346:326,1,110,0|8,0:0|0:0,0:0:0:0:
236,328,16884,2,0,L|228:388,2,55,2|2|8,0:0|0:0|0:0,0:0:0:0:
196,287,17384,2,0,L|184:155,1,110,2|0,0:0|0:0,0:0:0:0:
168,127,17884,2,0,P|212:115|224:103,1,55,8|0,0:0|0:0,0:0:0:0:
236,55,18217,2,0,P|195:19|141:16,1,110,2|8,0:0|0:0,0:0:0:0:
52,80,18884,6,0,P|42:133|66:181,1,110,2|8,0:0|0:0,0:0:0:0:
108,216,19384,1,0,0:0:0:0:
108,216,19550,1,2,0:0:0:0:
200,160,19884,2,0,L|254:155,1,55,8|0,0:0|0:0,0:0:0:0:
300,124,20217,2,0,P|296:168|320:236,1,110,0|8,0:0|0:0,0:0:0:0:
428,224,20884,2,0,L|436:156,2,55,2|2|8,0:0|0:0|0:0,0:0:0:0:
392,329,21550,6,0,P|340:329|260:337,1,110,2|8,0:0|0:0,0:0:0:0:
172,321,22217,2,0,P|172:361|184:389,2,55,2|2|8,0:0|0:0|0:0,0:0:0:0:
196,273,22717,2,0,P|216:229|192:149,1,110,6|2,0:0|0:0,0:0:0:0:
168,133,23217,1,8,0:0:0:0:
168,133,23383,2,0,P|221:143|271:122,1,110,6|2,0:0|0:0,0:0:0:0:
312,85,23884,1,8,0:0:0:0:
236,9,24217,6,0,L|116:13,1,110,6|8,0:0|0:0,0:0:0:0:
64,105,24884,1,2,0:0:0:0:
168,133,25217,2,0,L|228:131,1,55,8|0,0:0|0:0,0:0:0:0:
272,104,25550,2,0,P|268:159|293:207,1,110,0|8,0:0|0:0,0:0:0:0:
404,205,26217,2,0,P|429:157|425:102,1,110,2|8,0:0|0:0,0:0:0:0:
400,53,26717,1,2,0:0:0:0:
400,52,26884,6,0,L|459:46,2,55,2|2|8,0:0|0:0|0:0,0:0:0:0:
296,84,27550,2,0,L|236:78,2,55,2|2|8,0:0|0:0|0:0,0:0:0:0:
328,131,28050,2,0,P|308:180|321:233,1,110,2|0,0:0|0:0,0:0:0:0:
364,268,28550,2,0,L|358:333,1,55,8|0,0:0|0:0,0:0:0:0:
352,376,28884,2,0,P|302:355|249:368,1,110,2|8,0:0|0:0,0:0:0:0:
144,384,29550,5,2,0:0:0:0:
112,280,29884,2,0,L|120:156,2,110,8|2|8,0:0|0:0|0:0,0:0:0:0:
32,361,30884,1,2,0:0:0:0:
0,257,31217,2,0,P|-8:209|8:145,1,110,8|2,0:0|0:0,0:0:0:0:
84,73,31884,1,8,0:0:0:0:
164,149,32217,6,0,L|284:121,1,110,2|8,0:0|0:0,0:0:0:0:
380,125,32884,2,0,P|372:77|364:61,2,55,2|2|8,0:0|0:0|0:0,0:0:0:0:
368,176,33384,2,0,P|360:230|383:280,1,110,6|2,0:0|0:0,0:0:0:0:
436,293,33884,1,8,0:0:0:0:
436,293,34050,2,0,P|479:260|498:209,1,110,8|2,0:0|0:0,0:0:0:0:
500,153,34550,2,0,L|488:93,1,55,8|2,0:0|0:0,0:0:0:0:
488,45,34884,5,6,0:0:0:0:
392,97,35217,1,2,0:0:0:0:
292,53,35550,2,0,P|241:32|188:40,1,110,2|8,0:0|0:0,0:0:0:0:
172,149,36217,2,0,P|222:169|275:161,1,110,0|8,0:0|0:0,0:0:0:0:
324,137,36717,1,0,0:0:0:0:
324,137,36884,2,0,L|316:265,1,110,2|8,0:0|0:0,0:0:0:0:
428,253,37550,6,0,L|436:125,2,110,6|2|6,0:0|0:0|0:0,0:0:0:0:
368,345,38550,1,2,0:0:0:0:
317,246,38884,2,0,P|240:225|172:268,1,165,6|2,0:0|0:0,0:0:0:0:
144,313,39550,2,0,L|144:373,2,55,8|2|2,0:0|0:0|0:0,0:0:0:0:
48,264,40217,5,6,0:0:0:0:
116,180,40550,2,0,P|120:108|120:56,1,110,8|2,0:0|0:0,0:0:0:0:
96,20,41050,1,2,0:0:0:0:
96,20,41217,1,8,0:0:0:0:
208,28,41550,2,0,L|324:16,1,110,6|8,0:0|0:0,0:0:0:0:
420,60,42217,2,0,P|432:20|432:4,2,55,2|0|8,0:0|0:0|0:0,0:0:0:0:
336,128,42884,6,0,P|320:172|340:248,1,110,6|8,0:0|0:0,0:0:0:0:
372,268,43384,2,0,P|316:244|220:288,1,165,6|8,0:0|0:0,0:0:0:0:
184,320,44050,2,0,P|200:276|180:200,1,110,6|8,0:0|0:0,0:0:0:0:
152,172,44550,2,0,L|92:188,2,55,2|8|2,0:0|0:0|0:0,0:0:0:0:
224,85,45217,1,2,0:0:0:0:
320,141,45550,6,0,P|360:153|436:121,1,110,6|8,0:0|0:0,0:0:0:0:
488,45,46217,1,2,0:0:0:0:
384,5,46550,1,8,0:0:0:0:
288,57,46884,2,0,L|176:41,1,110,6|8,0:0|0:0,0:0:0:0:
68,29,47550,2,0,L|81:141,1,110,2|8,0:0|0:0,0:0:0:0:
176,193,48217,5,6,0:0:0:0:
153,300,48550,1,8,0:0:0:0:
247,354,48884,1,2,0:0:0:0:
328,280,49217,1,8,0:0:0:0:
283,179,49550,2,0,P|272:137|292:65,1,110,6|8,0:0|0:0,0:0:0:0:
380,17,50217,1,2,0:0:0:0:
476,69,50550,1,8,0:0:0:0:
432,169,50884,6,0,P|417:221|428:274,2,110,6|8|2,0:0|0:0|0:0,0:0:0:0:
476,69,51884,1,8,0:0:0:0:
380,17,52217,2,0,L|256:33,1,110,6|8,0:0|0:0,0:0:0:0:
192,105,52884,2,0,L|68:89,1,110,2|8,0:0|0:0,0:0:0:0:
4,169,53550,5,6,0:0:0:0:
53,268,53883,1,8,0:0:0:0:
132,190,54216,1,6,0:0:0:0:
181,289,54550,1,8,0:0:0:0:
259,210,54884,2,0,P|268:161|252:97,1,110,6|8,0:0|0:0,0:0:0:0:
152,65,55550,2,0,L|156:5,2,55,2|2|8,0:0|0:0|0:0,0:0:0:0:
59,120,56217,6,0,P|74:172|82:227,1,110,6|8,0:0|0:0,0:0:0:0:
180,281,56884,2,0,P|187:226|203:173,1,110,2|8,0:0|0:0,0:0:0:0:
300,124,57550,2,0,P|364:176|488:120,1,220,6|2,0:0|0:0,0:0:0:0:
512,23,58550,1,8,0:0:0:0:
404,0,58884,6,0,L|280:16,1,110,6|8,0:0|0:0,0:0:0:0:
200,72,59550,1,2,0:0:0:0:
300,124,59884,1,8,0:0:0:0:
205,181,60217,2,0,L|80:168,1,110,6|8,0:0|0:0,0:0:0:0:
116,280,60884,2,0,L|241:293,1,110,2|8,0:0|0:0,0:0:0:0:
324,248,61550,5,6,0:0:0:0:
367,346,61883,1,8,0:0:0:0:
465,302,62216,1,2,0:0:0:0:
421,203,62550,1,8,0:0:0:0:
324,248,62884,2,0,P|270:259|221:238,1,110,6|8,0:0|0:0,0:0:0:0:
176,204,63384,1,0,0:0:0:0:
176,204,63550,2,0,P|158:255|115:287,1,110,2|8,0:0|0:0,0:0:0:0:
12,244,64217,6,0,P|-2:191|14:141,1,110,6|2,0:0|0:0,0:0:0:0:
28,88,64717,2,0,P|79:104|132:90,1,110,6|2,0:0|0:0,0:0:0:0:
176,56,65217,1,6,0:0:0:0:
280,20,65550,2,0,L|400:44,1,110,8|0,0:0|0:0,0:0:0:0:
444,36,66050,1,2,0:0:0:0:
444,36,66217,2,0,P|428:84|432:108,1,55,8|2,0:0|0:0,0:0:0:0:
448,140,66550,2,0,P|460:164|463:191,1,55,8|2,0:0|0:0,0:0:0:0:
452,244,66884,5,6,0:0:0:0:
348,212,67217,1,8,0:0:0:0:
285,301,67550,1,2,0:0:0:0:
181,269,67884,1,8,0:0:0:0:
118,358,68217,2,0,L|4:344,1,110,6|8,0:0|0:0,0:0:0:0:
4,236,68884,1,2,0:0:0:0:
80,156,69217,1,8,0:0:0:0:
184,196,69550,6,0,P|228:208|288:188,1,110,6|8,0:0|0:0,0:0:0:0:
356,102,70217,2,0,L|345:49,2,55,2|2|8,0:0|0:0|0:0,0:0:0:0:
464,116,70884,1,6,0:0:0:0:
484,224,71217,1,8,0:0:0:0:
380,260,71550,2,0,L|384:328,2,55,2|2|8,0:0|0:0|0:0,0:0:0:0:
288,196,72217,5,6,0:0:0:0:
196,256,72550,1,8,0:0:0:0:
110,187,72884,2,0,L|48:192,2,55,2|2|8,0:0|0:0|0:0,0:0:0:0:
149,84,73550,1,6,0:0:0:0:
258,89,73884,1,8,0:0:0:0:
288,196,74217,2,0,L|350:201,2,55,2|2|8,0:0|0:0|0:0,0:0:0:0:
196,256,74884,5,6,0:0:0:0:
256,348,75217,1,8,0:0:0:0:
348,288,75551,1,6,0:0:0:0:
408,380,75884,1,8,0:0:0:0:
500,320,76217,2,0,L|484:200,1,110,6|8,0:0|0:0,0:0:0:0:
436,112,76884,2,0,P|468:100|492:100,2,55,2|2|8,0:0|0:0|0:0,0:0:0:0:
356,188,77550,5,6,0:0:0:0:
264,128,77884,1,8,0:0:0:0:
176,192,78217,2,0,L|120:196,2,55,2|2|8,0:0|0:0|0:0,0:0:0:0:
268,252,78884,1,6,0:0:0:0:
356,188,79217,1,8,0:0:0:0:
444,124,79550,2,0,L|497:135,2,55,2|2|8,0:0|0:0|0:0,0:0:0:0:
392,28,80217,5,6,0:0:0:0:
284,0,80550,1,8,0:0:0:0:
200,72,80884,1,2,0:0:0:0:
92,44,81217,1,8,0:0:0:0:
8,116,81550,2,0,P|0:168|24:236,1,110,6|8,0:0|0:0,0:0:0:0:
116,272,82217,2,0,L|110:326,2,55,2|0|8,0:0|0:0|0:0,0:0:0:0:
204,208,82884,6,0,P|304:155|411:201,2,220,6|0|0,0:0|0:0|0:0,0:0:0:0:
116,272,84550,2,0,L|96:212,2,55
256,192,85384,12,0,86884,0:0:0:0:
