osu file format v14

[General]
AudioFilename: audio.mp3
AudioLeadIn: 0
PreviewTime: 44717
Countdown: 0
SampleSet: Soft
StackLeniency: 0.7
Mode: 0
LetterboxInBreaks: 0
WidescreenStoryboard: 1

[Editor]
Bookmarks: 13551,27884,34884,38217,42884,49550,66884,68217,69550,70884,72217,73550,74884,76217,77550
DistanceSpacing: 1.5
BeatDivisor: 4
GridSize: 4
TimelineZoom: 1.7

[Metadata]
Title:Yubi Bouenkyou ~Anime-ban~
TitleUnicode:指望遠鏡~アニメ版~
Artist:Nogizaka46
ArtistUnicode:乃木坂46
Creator:Nevo
Version:~A r M i N's Adventure~
Source:Magi: The Labyrinth of Magic
Tags:マギ ending tv size Armin A_r_M_i_N Little Lince Cosmico ShogunMoon Waku Doormat My Angel Kanan Time Capsule CloudSplash16
BeatmapID:1474956
BeatmapSetID:623924

[Difficulty]
HPDrainRate:6
CircleSize:4
OverallDifficulty:8.8
ApproachRate:9.3
SliderMultiplier:1.70000000596046
SliderTickRate:1

[Events]
//Background and Video events
0,0,"Aladdin.(Magi).full.1419902.jpg",0,0
//Break Periods
//Storyboard Layer 0 (Background)
//Storyboard Layer 1 (Fail)
//Storyboard Layer 2 (Pass)
//Storyboard Layer 3 (Foreground)
//Storyboard Sound Samples

[TimingPoints]
1551,333.333333333333,4,2,1,40,1,0
1551,-133.333333333333,4,2,1,40,0,0
7550,-100,4,2,1,5,0,0
7717,-86.9565217391304,4,2,1,70,0,0
13551,-117.647058823529,4,2,1,60,0,0
34884,-133.333333333333,4,2,1,60,0,0
40217,-111.111111111111,4,2,1,60,0,0
42884,-100,4,2,1,60,0,0
43134,-100,4,2,1,5,0,0
43217,-100,4,2,1,60,0,0
44384,-100,4,2,1,70,0,0
44884,-100,4,2,1,60,0,0
45050,-100,4,2,1,5,0,0
45217,-100,4,2,1,60,0,0
45384,-100,4,2,1,5,0,0
45550,-90.9090909090909,4,2,1,80,0,1
64217,-90.9090909090909,4,2,1,80,0,0
65550,-90.9090909090909,4,2,1,60,0,0
66884,-90.9090909090909,4,2,1,80,0,1
82884,-133.333333333333,4,2,1,30,0,0
85217,-133.333333333333,4,2,1,20,0,0
85884,-100,4,2,1,15,0,0
86550,-100,4,2,1,10,0,0
86884,-100,4,2,1,5,0,0

[Colours]
Combo1 : 234,210,115
Combo2 : 55,155,255
Combo3 : 207,207,207

[HitObjects]
137,176,884,5,8,1:0:0:0:
137,176,1217,1,8,1:0:0:0:
137,176,1551,6,0,P|135:240|131:303,1,127.500005310774,6|0,1:0|0:0,0:0:0:0:
44,138,2217,2,0,P|76:95|145:75,1,127.500005310774,8|0,1:0|0:0,0:0:0:0:
384,176,2884,6,0,B|256:224|256:128|136:176,1,255.000010621548,6|8,1:0|1:0,0:0:0:0:
197,258,3884,1,0,0:0:0:0:
142,48,4217,6,0,P|137:111|135:175,1,127.500005310774,6|0,1:0|0:0,0:0:0:0:
203,384,4884,2,0,P|201:320|196:256,1,127.500005310774,8|0,1:0|0:0,0:0:0:0:
262,178,5550,5,6,1:0:0:0:
256,192,5634,12,0,7550,0:0:0:0:
383,76,7717,5,2,0:0:0:0:
382,95,7800,1,2,0:0:0:0:
381,114,7884,2,0,P|382:162|386:210,1,97.7500022071598,8|0,0:0|0:0,0:0:0:0:
256,360,8217,5,6,0:0:0:0:
139,213,8384,2,0,P|186:201|233:187,1,97.7500022071598,2|8,0:0|0:0,0:0:0:0:
125,313,8717,2,0,P|68:285|59:152,1,195.50000441432,6|2,0:0|0:0,0:0:0:0:
139,213,9217,1,8,0:0:0:0:
215,48,9384,6,0,B|311:16|311:80|407:48,1,195.50000441432,6|2,0:0|0:0,0:0:0:0:
495,7,9884,1,8,0:0:0:0:
480,196,10050,2,0,P|423:168|414:35,1,195.50000441432,6|2,0:0|0:0,0:0:0:0:
480,196,10550,2,0,P|478:244|474:292,1,97.7500022071598,8|0,0:0|0:0,0:0:0:0:
283,205,10884,5,6,0:0:0:0:
180,360,11050,2,0,P|176:311|174:262,1,97.7500022071598,2|8,0:0|0:0,0:0:0:0:
288,107,11384,2,0,P|286:155|282:204,1,97.7500022071598,2|0,0:0|0:0,0:0:0:0:
202,54,11717,2,0,P|247:14|287:5,1,97.7500022071598,2|8,0:0|0:0,0:0:0:0:
368,253,12050,2,0,P|323:293|283:302,1,97.7500022071598,6|0,0:0|0:0,0:0:0:0:
391,107,12384,6,0,P|439:108|488:112,1,97.7500022071598,2|8,0:0|0:0,0:0:0:0:
287,301,12717,2,0,B|191:333|191:269|95:301,1,195.50000441432,6|2,0:0|0:0,0:0:0:0:
282,204,13217,2,0,P|281:256|287:303,1,97.7500022071598,8|0,0:0|0:0,0:0:0:0:
349,129,13550,6,0,P|257:106|186:168,1,195.50000441432,6|8,0:0|0:0,0:0:0:0:
282,204,14050,1,0,0:0:0:0:
234,362,14217,2,0,P|230:326|229:289,1,72.250001631379,2|2,0:0|0:0,0:0:0:0:
282,204,14550,1,8,0:0:0:0:
210,132,14717,6,0,B|138:116|138:148|66:132,1,144.500003262758,0|0,0:0|0:0,0:0:0:0:
205,59,15217,2,0,P|208:94|209:131,1,72.250001631379,8|0,0:0|0:0,0:0:0:0:
62,204,15550,2,0,P|63:167|66:131,1,72.250001631379,2|2,0:0|0:0,0:0:0:0:
154,245,15884,1,8,0:0:0:0:
154,245,16050,6,0,P|119:288|20:296,1,144.500003262758,0|0,0:0|0:0,0:0:0:0:
62,204,16550,1,8,0:0:0:0:
232,308,16717,1,0,0:0:0:0:
158,172,16884,2,0,P|154:207|153:244,1,72.250001631379,2|2,0:0|0:0,0:0:0:0:
232,308,17217,1,8,0:0:0:0:
283,220,17384,6,0,P|213:208|153:244,1,144.500003262758,2|2,0:0|0:0,0:0:0:0:
333,309,17884,2,0,P|360:286|379:252,1,72.250001631379,8|2,0:0|0:0,0:0:0:0:
288,148,18217,2,0,P|284:183|283:220,1,72.250001631379,2|8,0:0|0:0,0:0:0:0:
476,285,18550,2,0,P|474:248|471:212,1,72.250001631379,2|8,0:0|0:0,0:0:0:0:
395,69,18884,6,0,P|356:128|287:147,1,144.500003262758,6|8,0:0|0:0,0:0:0:0:
202,93,19384,1,0,0:0:0:0:
160,256,19550,2,0,P|156:220|155:183,1,72.250001631379,2|2,0:0|0:0,0:0:0:0:
247,306,19884,1,8,0:0:0:0:
247,306,20050,6,0,P|192:353|109:344,1,144.500003262758,2|2,0:0|0:0,0:0:0:0:
155,183,20550,2,0,P|156:220|160:256,1,72.250001631379,8|2,0:0|0:0,0:0:0:0:
338,360,20884,2,0,P|341:324|342:287,1,72.250001631379,0|2,0:0|0:0,0:0:0:0:
283,75,21217,2,0,P|284:111|287:147,1,72.250001631379,8|8,0:0|0:0,0:0:0:0:
468,246,21550,6,0,P|412:290|341:287,1,144.500003262758,6|8,0:0|0:0,0:0:0:0:
263,223,22050,1,0,0:0:0:0:
202,362,22217,1,2,0:0:0:0:
98,260,22384,2,0,P|134:261|170:264,1,72.250001631379,2|8,0:0|0:0,0:0:0:0:
36,340,22717,6,0,P|1:288|19:197,1,144.500003262758,2|2,0:0|0:0,0:0:0:0:
74,131,23217,1,8,0:0:0:0:
170,264,23384,1,8,0:0:0:0:
170,264,23467,1,0,0:0:0:0:
170,264,23550,2,0,P|173:228|174:191,1,72.250001631379,2|8,0:0|0:0,0:0:0:0:
69,58,23884,2,0,P|70:94|73:130,1,72.250001631379,2|0,0:0|0:0,0:0:0:0:
240,116,24217,6,0,P|210:97|175:90,1,72.250001631379,6|0,0:0|0:0,0:0:0:0:
170,264,24550,2,0,P|200:283|235:290,1,72.250001631379,8|0,0:0|0:0,0:0:0:0:
351,189,24884,1,2,0:0:0:0:
337,361,25050,2,0,P|333:325|332:288,1,72.250001631379,2|8,0:0|0:0,0:0:0:0:
437,138,25384,6,0,P|384:93|313:95,1,144.500003262758,0|0,0:0|0:0,0:0:0:0:
351,189,25884,1,8,0:0:0:0:
468,24,26050,1,0,0:0:0:0:
510,115,26217,2,0,P|508:151|505:187,1,72.250001631379,2|2,0:0|0:0,0:0:0:0:
332,288,26550,1,8,0:0:0:0:
444,346,26717,2,0,P|442:309|439:273,1,72.250001631379,0|2,0:0|0:0,0:0:0:0:
312,95,27050,5,0,0:0:0:0:
210,250,27217,1,8,0:0:0:0:
394,199,27384,1,0,0:0:0:0:
293,194,27550,1,2,0:0:0:0:
444,346,27717,1,2,0:0:0:0:
501,140,27884,1,8,0:0:0:0:
389,271,28050,6,0,P|390:234|393:198,1,72.250001631379,2|0,0:0|0:0,0:0:0:0:
205,177,28384,2,0,P|208:212|209:249,1,72.250001631379,2|8,0:0|0:0,0:0:0:0:
293,359,28717,2,0,P|294:322|297:286,1,72.250001631379,2|8,0:0|0:0,0:0:0:0:
109,265,29051,2,0,P|112:300|113:337,1,72.250001631379,2|8,0:0|0:0,0:0:0:0:
205,177,29384,1,8,0:0:0:0:
205,177,29550,6,0,P|206:140|209:104,1,72.250001631379,6|0,0:0|0:0,0:0:0:0:
42,182,29884,2,0,P|78:180|114:177,1,72.250001631379,8|0,0:0|0:0,0:0:0:0:
209,104,30217,1,2,0:0:0:0:
121,53,30384,1,2,0:0:0:0:
217,205,30550,1,8,0:0:0:0:
281,99,30717,6,0,P|244:100|208:103,1,72.250001631379,0|2,0:0|0:0,0:0:0:0:
287,278,31050,2,0,P|323:279|359:282,1,72.250001631379,0|8,0:0|0:0,0:0:0:0:
217,205,31384,1,0,0:0:0:0:
217,205,31550,2,0,P|194:239|186:278,1,72.250001631379,2|2,0:0|0:0,0:0:0:0:
389,345,31884,2,0,P|379:310|358:281,1,72.250001631379,8|0,0:0|0:0,0:0:0:0:
224,353,32217,6,0,P|259:349|296:348,1,72.250001631379,6|0,0:0|0:0,0:0:0:0:
416,193,32550,1,8,0:0:0:0:
316,214,32717,1,0,0:0:0:0:
479,275,32884,1,2,0:0:0:0:
402,37,33050,1,2,0:0:0:0:
316,214,33217,1,8,0:0:0:0:
193,13,33384,6,0,P|187:84|185:157,1,144.500003262758,6|2,0:0|0:0,0:0:0:0:
316,214,33884,1,8,0:0:0:0:
220,290,34050,1,2,0:0:0:0:
221,271,34133,1,0,0:0:0:0:
222,252,34217,1,2,0:0:0:0:
353,119,34384,1,8,0:0:0:0:
316,214,34550,1,2,0:0:0:0:
289,38,34717,1,10,0:0:0:0:
406,31,34884,6,0,P|346:14|289:38,1,127.500005310774,6|0,0:0|0:0,0:0:0:0:
233,109,35384,1,2,0:0:0:0:
233,109,35550,2,0,P|172:126|115:101,1,127.500005310774,8|0,0:0|0:0,0:0:0:0:
49,41,36050,6,0,P|31:70|25:102,1,63.7500026553869,2|0,0:0|0:0,0:0:0:0:
68,177,36384,2,0,P|85:203|91:234,1,63.7500026553869,2|2,0:0|0:0,0:0:0:0:
49,313,36717,1,0,0:0:0:0:
133,342,36884,2,0,P|164:340|196:338,1,63.7500026553869,8|0,0:0|0:0,0:0:0:0:
275,296,37217,2,0,P|306:297|338:299,1,63.7500026553869,0|2,0:0|0:0,0:0:0:0:
411,351,37550,6,0,P|383:300|405:225,1,127.500005310774,6|0,0:0|0:0,0:0:0:0:
470,285,38050,1,2,0:0:0:0:
404,107,38217,2,0,P|399:170|396:234,1,127.500005310774,12|0,0:0|0:0,0:0:0:0:
311,208,38717,1,2,0:0:0:0:
492,58,38884,5,4,0:0:0:0:
492,58,39050,2,0,P|455:20|379:9,1,127.500005310774,2|2,0:0|0:0,0:0:0:0:
311,208,39550,1,8,0:0:0:0:
404,107,39717,1,2,0:0:0:0:
321,72,39884,2,0,P|285:72|251:85,1,63.7500026553869,8|0,0:0|0:0,0:0:0:0:
306,284,40217,6,0,P|309:244|310:205,1,76.499997933626,6|0,0:0|0:0,0:0:0:0:
167,49,40550,2,0,P|168:87|171:125,1,76.499997933626,8|0,0:0|0:0,0:0:0:0:
107,287,40884,1,2,0:0:0:0:
206,247,41050,1,2,0:0:0:0:
72,107,41217,2,0,P|73:145|76:183,1,76.499997933626,8|0,0:0|0:0,0:0:0:0:
282,251,41550,6,0,P|243:247|205:246,1,76.499997933626,2|0,0:0|0:0,0:0:0:0:
366,343,41884,1,8,0:0:0:0:
423,166,42050,1,0,0:0:0:0:
423,166,42134,1,0,0:0:0:0:
423,166,42217,2,0,P|424:204|427:242,1,76.499997933626,2|2,0:0|0:0,0:0:0:0:
201,322,42550,2,0,P|204:283|205:245,1,76.499997933626,8|0,0:0|0:0,0:0:0:0:
331,65,42884,6,0,P|333:131|338:197,1,127.500000447035,6|2,0:0|0:0,0:0:0:0:
338,192,43217,1,8,0:0:0:0:
187,99,43384,2,0,P|267:116|330:64,1,170.000000596046,6|2,0:0|0:0,0:0:0:0:
245,25,43884,1,8,0:0:0:0:
108,193,44050,6,0,P|111:108|117:23,1,170.000000596046,12|2,0:0|0:0,0:0:0:0:
223,175,44550,1,8,0:0:0:0:
3,243,44717,1,2,0:0:0:0:
181,332,44884,6,0,P|179:285|175:239,1,85.000000298023,0|0,0:0|0:0,0:0:0:0:
117,23,45217,2,0,P|113:65|112:107,1,85.000000298023,8|0,0:0|0:0,0:0:0:0:
286,249,45550,5,6,0:0:0:0:
342,146,45717,1,0,0:0:0:0:
443,342,45884,2,0,P|396:345|349:347,1,93.500003181219,8|2,0:0|0:0,0:0:0:0:
342,146,46217,2,0,P|388:147|435:151,1,93.500003181219,0|2,0:0|0:0,0:0:0:0:
286,249,46550,2,0,P|239:252|192:254,1,93.500003181219,8|0,0:0|0:0,0:0:0:0:
211,47,46884,6,0,P|300:65|342:145,1,187.000006362438,2|8,0:0|0:0,0:0:0:0:
239,150,47384,1,2,0:0:0:0:
415,59,47550,2,0,P|426:104|434:150,1,93.500003181219,0|2,0:0|0:0,0:0:0:0:
322,237,47884,2,0,P|330:191|341:145,1,93.500003181219,8|2,0:0|0:0,0:0:0:0:
267,349,48217,6,0,P|313:347|360:343,1,93.500003181219,6|0,0:0|0:0,0:0:0:0:
434,150,48550,2,0,P|387:146|340:144,1,93.500003181219,8|2,0:0|0:0,0:0:0:0:
104,276,48884,2,0,P|151:271|198:270,1,93.500003181219,0|2,0:0|0:0,0:0:0:0:
454,349,49217,2,0,P|407:345|360:343,1,93.500003181219,8|0,0:0|0:0,0:0:0:0:
238,172,49550,6,0,P|255:83|336:41,1,187.000006362438,2|8,0:0|0:0,0:0:0:0:
340,144,50050,1,2,0:0:0:0:
162,57,50217,2,0,P|150:102|142:148,1,93.500003181219,0|2,0:0|0:0,0:0:0:0:
257,263,50551,2,0,P|248:217|237:171,1,93.500003181219,8|8,0:0|0:0,0:0:0:0:
336,41,50884,5,6,0:0:0:0:
237,171,51050,1,0,0:0:0:0:
437,214,51217,1,8,0:0:0:0:
340,144,51384,1,2,0:0:0:0:
403,329,51550,1,0,0:0:0:0:
500,113,51717,1,2,0:0:0:0:
257,263,51884,2,0,P|303:261|350:257,1,93.500003181219,8|0,0:0|0:0,0:0:0:0:
403,41,52217,5,2,0:0:0:0:
340,144,52384,1,0,0:0:0:0:
249,12,52550,5,8,0:0:0:0:
225,130,52717,1,2,0:0:0:0:
94,37,52883,5,0,0:0:0:0:
112,156,53050,1,2,0:0:0:0:
239,382,53217,5,8,0:0:0:0:
257,263,53384,1,2,0:0:0:0:
52,275,53550,6,0,P|98:271|145:269,1,93.500003181219,6|2,0:0|0:0,0:0:0:0:
316,359,53884,1,8,0:0:0:0:
257,263,54050,1,2,0:0:0:0:
426,185,54217,2,0,P|379:181|332:179,1,93.500003181219,0|2,0:0|0:0,0:0:0:0:
316,359,54550,2,0,P|362:355|409:353,1,93.500003181219,8|2,0:0|0:0,0:0:0:0:
257,263,54884,6,0,P|210:259|163:257,1,93.500003181219,2|0,0:0|0:0,0:0:0:0:
332,179,55217,1,8,0:0:0:0:
178,30,55384,1,2,0:0:0:0:
177,49,55467,1,0,0:0:0:0:
176,68,55551,1,8,0:0:0:0:
163,257,55717,1,2,0:0:0:0:
326,85,55884,2,0,P|329:131|331:178,1,93.500003181219,8|8,0:0|0:0,0:0:0:0:
75,178,56217,5,6,0:0:0:0:
176,68,56384,1,0,0:0:0:0:
257,263,56550,2,0,P|260:309|262:356,1,93.500003181219,8|2,0:0|0:0,0:0:0:0:
187,180,56884,2,0,P|254:240|343:224,1,187.000006362438,0|8,0:0|0:0,0:0:0:0:
282,140,57384,1,2,0:0:0:0:
127,278,57550,6,0,P|123:324|121:371,1,93.500003181219,2|0,0:0|0:0,0:0:0:0:
187,180,57884,2,0,P|185:133|181:86,1,93.500003181219,8|2,0:0|0:0,0:0:0:0:
43,190,58217,1,0,0:0:0:0:
127,278,58384,1,2,0:0:0:0:
280,185,58550,2,0,P|233:181|186:179,1,93.500003181219,8|2,0:0|0:0,0:0:0:0:
262,356,58884,6,0,P|308:354|355:350,1,93.500003181219,6|0,0:0|0:0,0:0:0:0:
403,153,59217,2,0,P|399:199|397:246,1,93.500003181219,8|2,0:0|0:0,0:0:0:0:
186,179,59550,2,0,P|184:132|180:85,1,93.500003181219,0|2,0:0|0:0,0:0:0:0:
267,262,59884,2,0,P|263:308|261:355,1,93.500003181219,8|0,0:0|0:0,0:0:0:0:
396,246,60217,6,0,P|392:152|383:59,1,187.000006362438,2|8,0:0|0:0,0:0:0:0:
295,7,60717,1,2,0:0:0:0:
186,179,60884,2,0,P|232:182|279:184,1,93.500003181219,0|2,0:0|0:0,0:0:0:0:
144,20,61217,2,0,P|97:23|50:25,1,93.500003181219,8|8,0:0|0:0,0:0:0:0:
88,251,61550,5,6,0:0:0:0:
186,179,61717,1,0,0:0:0:0:
50,25,61884,2,0,P|46:71|44:118,1,93.500003181219,8|2,0:0|0:0,0:0:0:0:
191,272,62217,2,0,P|189:225|185:178,1,93.500003181219,0|2,0:0|0:0,0:0:0:0:
336,24,62550,2,0,P|332:70|330:117,1,93.500003181219,8|0,0:0|0:0,0:0:0:0:
466,280,62884,6,0,P|399:220|310:236,1,187.000006362438,2|8,0:0|0:0,0:0:0:0:
371,320,63384,1,2,0:0:0:0:
470,136,63550,2,0,P|468:89|464:42,1,93.500003181219,0|2,0:0|0:0,0:0:0:0:
303,142,63884,2,0,P|304:188|308:235,1,93.500003181219,8|2,0:0|0:0,0:0:0:0:
123,142,64217,6,0,B|211:182|211:102|303:142,1,187.000006362438,6|8,0:0|0:0,0:0:0:0:
109,41,64717,2,0,P|55:67|30:182,1,187.000006362438,2|2,0:0|0:0,0:0:0:0:
134,328,65217,2,0,P|136:281|140:234,1,93.500003181219,8|2,0:0|0:0,0:0:0:0:
240,80,65550,5,2,0:0:0:0:
109,41,65717,1,8,0:0:0:0:
255,212,65884,1,2,0:0:0:0:
134,328,66050,1,8,0:0:0:0:
240,80,66217,1,2,0:0:0:0:
380,254,66384,1,2,0:0:0:0:
161,217,66550,2,0,P|207:213|254:211,1,93.500003181219,8|0,0:0|0:0,0:0:0:0:
380,254,66884,5,6,0:0:0:0:
134,328,67050,1,2,0:0:0:0:
394,344,67217,5,8,0:0:0:0:
161,217,67383,1,2,0:0:0:0:
498,199,67550,5,12,0:0:0:0:
239,289,67716,1,2,0:0:0:0:
495,311,67884,5,8,0:0:0:0:
262,184,68050,1,2,0:0:0:0:
466,89,68217,5,12,0:0:0:0:
394,344,68383,1,2,0:0:0:0:
318,52,68550,5,10,0:0:0:0:
314,316,68716,1,2,0:0:0:0:
165,54,68884,5,6,0:0:0:0:
229,310,69050,1,8,0:0:0:0:
17,95,69218,5,2,0:0:0:0:
145,326,69384,1,8,0:0:0:0:
318,52,69550,5,6,0:0:0:0:
73,215,69717,1,2,0:0:0:0:
423,180,69884,5,8,0:0:0:0:
165,54,70051,1,2,0:0:0:0:
465,100,70217,5,12,0:0:0:0:
195,179,70384,1,2,0:0:0:0:
473,274,70550,5,8,0:0:0:0:
243,101,70717,1,2,0:0:0:0:
460,7,70884,6,0,P|463:53|465:100,1,93.500003181219,12|2,0:0|0:0,0:0:0:0:
314,316,71217,2,0,P|315:269|319:222,1,93.500003181219,8|2,0:0|0:0,0:0:0:0:
237,7,71550,2,0,P|240:53|242:100,1,93.500003181219,6|8,0:0|0:0,0:0:0:0:
91,316,71883,2,0,P|92:269|96:222,1,93.500003181219,2|8,0:0|0:0,0:0:0:0:
40,26,72217,5,6,0:0:0:0:
213,213,72384,1,2,0:0:0:0:
237,7,72550,5,8,0:0:0:0:
96,222,72717,1,2,0:0:0:0:
146,35,72884,5,12,0:0:0:0:
319,222,73051,1,2,0:0:0:0:
343,16,73217,5,8,0:0:0:0:
213,213,73384,1,2,0:0:0:0:
488,192,73550,5,12,0:0:0:0:
242,100,73717,1,2,0:0:0:0:
466,77,73884,5,8,0:0:0:0:
213,213,74051,1,2,0:0:0:0:
436,303,74217,5,12,0:0:0:0:
160,139,74384,1,2,0:0:0:0:
409,147,74550,5,8,0:0:0:0:
193,302,74717,1,2,0:0:0:0:
166,45,74884,6,0,P|162:91|160:138,1,93.500003181219,6|0,0:0|0:0,0:0:0:0:
320,317,75217,1,8,0:0:0:0:
409,147,75384,1,0,0:0:0:0:
193,302,75550,6,0,P|194:255|198:208,1,93.500003181219,6|0,0:0|0:0,0:0:0:0:
282,14,75883,1,8,0:0:0:0:
409,147,76050,1,0,0:0:0:0:
165,45,76217,6,0,P|118:46|71:50,1,93.500003181219,6|0,0:0|0:0,0:0:0:0:
198,208,76550,2,0,P|244:209|291:213,1,93.500003181219,8|2,0:0|0:0,0:0:0:0:
375,8,76884,2,0,P|328:9|281:13,1,93.500003181219,4|2,0:0|0:0,0:0:0:0:
408,171,77217,2,0,P|454:172|501:176,1,93.500003181219,8|8,0:0|0:0,0:0:0:0:
298,130,77550,5,6,0:0:0:0:
360,335,77717,1,0,0:0:0:0:
380,77,77884,5,8,0:0:0:0:
266,305,78051,1,2,0:0:0:0:
281,12,78217,5,4,0:0:0:0:
421,256,78384,1,2,0:0:0:0:
462,24,78550,5,8,0:0:0:0:
327,226,78717,1,2,0:0:0:0:
281,12,78884,5,6,0:0:0:0:
360,335,79050,1,0,0:0:0:0:
380,77,79217,5,8,0:0:0:0:
266,305,79384,1,2,0:0:0:0:
155,62,79550,5,4,0:0:0:0:
408,171,79717,1,8,0:0:0:0:
281,12,79884,5,2,0:0:0:0:
172,275,80050,1,8,0:0:0:0:
31,5,80217,5,6,0:0:0:0:
298,130,80384,1,0,0:0:0:0:
66,123,80550,5,8,0:0:0:0:
281,12,80717,1,2,0:0:0:0:
0,227,80884,5,4,0:0:0:0:
266,305,81050,1,2,0:0:0:0:
155,62,81217,5,8,0:0:0:0:
60,330,81383,1,2,0:0:0:0:
265,216,81550,6,0,P|268:169|270:122,1,93.500003181219,6|0,0:0|0:0,0:0:0:0:
55,237,81884,2,0,P|56:283|60:330,1,93.500003181219,8|2,0:0|0:0,0:0:0:0:
373,266,82217,2,0,P|376:219|378:172,1,93.500003181219,4|8,0:0|0:0,0:0:0:0:
163,287,82551,2,0,P|164:333|168:380,1,93.500003181219,2|8,0:0|0:0,0:0:0:0:
481,316,82884,6,0,P|486:252|487:188,1,127.500005310774,6|8,1:0|1:0,0:0:0:0:
257,88,83550,2,0,P|258:152|264:215,1,127.500005310774,8|0,1:0|1:0,0:0:0:0:
142,113,84217,6,0,P|210:120|259:82,1,127.500005310774,8|6,1:0|1:0,0:0:0:0:
184,30,84717,1,8,1:0:0:0:
142,113,84884,2,0,P|143:177|148:242,1,127.500005310774,8|6,1:0|1:0,0:0:0:0:
172,333,85384,1,8,1:0:0:0:
256,192,85467,12,0,86884,0:0:0:0:
