osu file format v14

[General]
AudioFilename: audio.mp3
AudioLeadIn: 0
PreviewTime: -1
Countdown: 1
SampleSet: None
StackLeniency: 0.7
Mode: 0
LetterboxInBreaks: 0
WidescreenStoryboard: 1

[Editor]
DistanceSpacing: 1.4
BeatDivisor: 4
GridSize: 16
TimelineZoom: 2

[Metadata]
Title:Yubi Bouenkyou ~Anime-ban~
TitleUnicode:Yubi Bouenkyou ~Anime-ban~
Artist:Nogizaka46
ArtistUnicode:???46
Creator:CharlesMoveOn
Version:samo
Source:Magi: The Labyrinth of Magic
Tags:?? ending magi:the labyrinth of magic
BeatmapID:1930495
BeatmapSetID:910308

[Difficulty]
HPDrainRate:6
CircleSize:4
OverallDifficulty:7.5
ApproachRate:9
SliderMultiplier:1.4
SliderTickRate:1

[Events]
//Background and Video events
0,0,"68747470733a2f2f646c2e64726f70626f7875736572636f6e74656e742e636f6d2f752f36343330393535332f6f73752f496d70726f76656420496d616765732f6d6f6e7374726174612f6d61672e6a7067.jpg",0,0
//Break Periods
//Storyboard Layer 0 (Background)
//Storyboard Layer 1 (Fail)
//Storyboard Layer 2 (Pass)
//Storyboard Layer 3 (Foreground)
//Storyboard Sound Samples

[TimingPoints]
1480,333.333333333333,4,2,1,100,1,0
1480,-133.333333333333,4,2,1,100,0,0
7646,-100,4,2,1,100,0,0
13479,-100,4,2,1,100,0,0
44814,-100,4,2,1,100,0,0
45479,-83.3333333333333,4,2,1,100,0,1
68146,-100,4,2,1,100,0,0
90813,-83.3333333333333,4,2,1,100,0,1
112146,-133.333333333333,4,2,1,75,0,0
120146,-133.333333333333,4,2,1,100,0,0
121479,-133.333333333333,4,2,1,100,0,0
122813,-90.9090909090909,4,2,1,100,0,0
132146,-100,4,2,1,100,0,0
135479,-200,4,2,1,100,0,0
136146,-83.3333333333333,4,2,1,100,0,1
154813,-83.3333333333333,4,2,1,100,0,0
157479,-71.4285714285714,4,2,1,100,0,1
176146,-83.3333333333333,4,2,1,100,0,1
178813,-100,4,2,1,100,0,0
194813,-133.333333333333,4,2,1,60,0,0
199479,-133.333333333333,4,2,1,5,0,0

[HitObjects]
54,62,1480,6,0,P|125:86|252:42,1,210.000008010865
265,328,2646,1,0,0:0:0:0:
265,328,2813,2,0,P|232:268|101:223,1,210.000008010865
57,297,3813,1,0,0:0:0:0:
146,144,4146,6,0,L|195:45,2,105.000004005432
246,247,5146,1,0,0:0:0:0:
348,346,5479,2,0,B|291:284|284:164|346:79|346:79|338:165|410:189,1,420.000016021729
431,103,7646,5,0,0:0:0:0:
431,103,7729,1,0,0:0:0:0:
431,103,7813,2,0,L|459:197,1,70
477,312,8146,5,0,0:0:0:0:
371,195,8313,2,0,P|323:154|290:140,1,70
199,306,8646,2,0,P|248:262|255:229,1,70
258,65,8979,2,0,P|269:102|267:144,1,70
110,99,9313,1,0,0:0:0:0:
110,99,9646,2,0,P|82:77|51:61,1,70
198,242,9979,2,0,P|253:243|286:233,1,70
367,156,10313,1,0,0:0:0:0:
63,232,10479,1,0,0:0:0:0:
42,210,10813,5,0,0:0:0:0:
247,93,10979,2,0,P|196:112|157:123,1,70
354,164,11313,2,0,L|379:109,1,35
248,262,11646,2,0,P|269:278|299:325,1,70
432,140,11979,2,0,L|470:79,2,70
414,231,12479,1,0,0:0:0:0:
192,67,12646,2,0,P|162:97|146:139,1,70
156,276,12979,1,0,0:0:0:0:
9,60,13146,1,0,0:0:0:0:
324,243,13479,5,0,0:0:0:0:
324,243,13813,2,0,L|412:229,1,70
354,120,14146,2,0,P|386:94|409:60,1,70
260,31,14479,1,0,0:0:0:0:
285,204,14646,2,0,P|335:248|356:328,1,140
454,326,15146,1,0,0:0:0:0:
440,213,15313,5,0,0:0:0:0:
356,316,15479,1,0,0:0:0:0:
420,368,15646,1,0,0:0:0:0:
430,151,15813,2,0,L|466:106,1,35
321,141,15979,1,0,0:0:0:0:
398,204,16146,6,0,P|351:147|299:175,1,140
281,273,16646,1,0,0:0:0:0:
162,228,16813,1,0,0:0:0:0:
234,149,16979,1,0,0:0:0:0:
186,326,17146,2,0,P|132:308|98:314,1,70
29,187,17479,6,0,P|31:242|47:276,1,70
132,250,17813,1,0,0:0:0:0:
214,109,17979,1,0,0:0:0:0:
250,66,18063,1,0,0:0:0:0:
261,17,18146,2,0,P|210:9|175:17,1,70
45,53,18479,1,0,0:0:0:0:
95,306,18813,6,0,P|136:277|243:289,1,140
141,150,19313,1,0,0:0:0:0:
251,313,19479,2,0,P|300:320|335:303,1,70
437,191,19813,2,0,P|423:223|400:249,1,70
468,71,20146,2,0,P|413:64|323:18,1,140
342,148,20646,2,0,P|366:179|357:235,1,70
312,288,20979,5,0,0:0:0:0:
159,178,21146,1,0,0:0:0:0:
227,115,21313,1,0,0:0:0:0:
177,319,21479,2,0,P|129:269|105:268,2,70
116,380,21979,5,0,0:0:0:0:
57,306,22146,1,0,0:0:0:0:
214,379,22313,1,0,0:0:0:0:
266,302,22479,1,0,0:0:0:0:
126,77,22646,2,0,L|43:212,1,140
107,292,23063,1,0,0:0:0:0:
111,253,23146,1,0,0:0:0:0:
194,119,23313,2,0,L|249:97,1,35
311,52,23479,1,0,0:0:0:0:
430,108,23646,5,0,0:0:0:0:
311,52,23813,1,0,0:0:0:0:
352,209,23979,1,0,0:0:0:0:
346,171,24146,6,0,B|316:210|316:210|299:320,1,140
508,360,24646,1,0,0:0:0:0:
449,284,24813,2,0,P|430:241|434:200,1,70
447,110,25146,1,0,0:0:0:0:
254,27,25313,6,0,P|326:98|386:136,1,140
407,40,25813,1,0,0:0:0:0:
406,202,25979,1,0,0:0:0:0:
508,324,26146,1,0,0:3:0:0:
482,243,26313,1,0,0:3:0:0:
269,290,26479,1,0,0:0:0:0:
345,247,26646,1,0,0:0:0:0:
405,336,26813,6,0,L|323:304,1,70
238,242,27146,1,0,0:0:0:0:
249,121,27313,2,0,P|192:125|153:114,2,70
312,2,27813,1,0,0:0:0:0:
205,145,27979,2,0,P|170:202|133:287,1,140
199,359,28479,1,0,0:0:0:0:
189,199,28646,2,0,L|144:161,1,35
90,124,28813,1,0,0:0:0:0:
67,219,28979,2,0,P|111:191|200:166,1,140
376,155,29479,1,0,0:0:0:0:
459,341,29813,6,0,P|399:275|353:248,1,140
446,188,30313,1,0,0:0:0:0:
255,95,30479,1,0,0:0:0:0:
345,49,30646,2,0,P|341:107|359:137,1,70
411,191,30979,2,0,P|446:206|490:198,1,70
319,203,31313,2,0,P|267:210|233:246,1,70
265,308,31646,5,0,0:0:0:0:
146,162,31813,1,0,0:0:0:0:
245,114,31979,1,0,0:0:0:0:
234,364,32146,2,0,L|176:353,1,35
106,342,32313,1,0,0:0:0:0:
5,381,32479,1,0,0:0:0:0:
116,175,32646,1,0,0:0:0:0:
181,325,32813,1,0,0:0:0:0:
289,191,32979,1,0,0:0:0:0:
202,230,33146,2,0,L|180:202,1,35
266,284,33313,2,0,P|274:209|344:163,1,140
440,142,33813,1,0,0:0:0:0:
449,272,33979,1,0,0:0:0:0:
441,298,34063,1,0,0:0:0:0:
410,318,34146,1,0,0:0:0:0:
297,301,34313,5,0,0:0:0:0:
331,181,34479,1,0,0:0:0:0:
213,206,34646,1,0,0:0:0:0:
350,249,34813,2,0,P|315:203|306:261,1,140
229,311,35313,1,0,0:0:0:0:
200,208,35479,2,0,P|243:141|310:118,1,140
150,103,35979,2,0,P|121:155|112:191,1,70
215,45,36313,2,0,P|253:25|305:24,1,70
377,28,36646,1,0,0:0:0:0:
289,218,36813,1,0,0:0:0:0:
379,160,36979,1,0,0:0:0:0:
195,148,37146,1,0,0:0:0:0:
427,172,37313,5,0,0:0:0:0:
471,195,37396,1,0,0:0:0:0:
486,245,37479,2,0,P|467:282|383:342,1,140
207,168,38063,1,0,0:0:0:0:
204,127,38146,2,0,P|259:108|365:134,1,140
86,40,38813,2,0,L|126:-13,1,35
50,115,38979,2,0,P|50:164|92:242,1,140
146,329,39396,5,0,0:0:0:0:
146,329,39479,1,0,0:0:0:0:
235,222,39646,1,0,0:0:0:0:
179,145,39813,1,0,0:0:0:0:
223,88,39979,1,0,0:0:0:0:
170,55,40146,2,0,P|172:105|182:147,1,70
73,346,40479,6,0,P|90:315|114:290,1,70
39,223,40813,2,0,P|74:191|108:173,1,70
55,11,41146,6,0,P|92:52|108:86,1,70
275,181,41479,2,0,P|226:177|187:163,1,70
413,235,41813,6,0,P|385:275|363:300,1,70
432,104,42146,2,0,P|476:115|509:146,1,70
220,93,42479,2,0,P|270:60|304:54,1,70
57,309,42813,2,0,P|117:334|151:334,1,70
169,167,43146,6,0,L|140:124,1,35
211,242,43313,2,0,P|290:266|377:255,1,140
403,98,43813,2,0,L|421:58,1,35
350,169,43979,2,0,P|309:185|235:169,1,105
235,149,44313,6,0,L|208:106,1,35
153,246,44479,2,0,L|172:183,1,35
260,326,44646,2,0,L|236:271,1,35
169,384,44813,6,0,P|175:311|224:247,1,140,0|0,0:1|0:1,0:1:0:0:
32,36,45479,6,0,P|76:44|138:88,1,83.9999974365235
119,267,45813,2,0,P|121:222|147:160,1,83.9999974365235
295,59,46146,2,0,P|253:93|218:99,1,83.9999974365235
98,144,46479,1,0,0:0:0:0:
92,270,46646,2,0,L|70:305,1,41.9999987182618
192,264,46813,2,0,P|228:266|284:240,1,83.9999974365235
341,156,47146,1,0,0:0:0:0:
313,205,47313,1,0,0:0:0:0:
457,72,47479,6,0,P|403:51|358:46,1,83.9999974365235
196,93,47813,2,0,P|240:59|281:51,1,83.9999974365235
212,250,48146,5,0,0:0:0:0:
324,131,48313,1,0,0:0:0:0:
434,300,48479,1,0,0:0:0:0:
291,137,48646,1,0,0:0:0:0:
103,255,48813,1,0,0:0:0:0:
201,143,48979,1,0,0:0:0:0:
254,199,49146,1,0,0:0:0:0:
217,98,49313,1,0,0:0:0:0:
201,251,49479,2,0,L|302:284,1,83.9999974365235
339,334,49813,2,0,L|246:340,1,83.9999974365235
149,215,50146,6,0,P|136:140|114:111,1,83.9999974365235
118,0,50479,2,0,P|157:21|192:55,1,83.9999974365235
110,317,50813,2,0,L|140:218,1,83.9999974365235
158,139,51146,1,0,0:0:0:0:
74,87,51313,1,0,0:0:0:0:
261,128,51479,6,0,P|316:89|368:84,1,83.9999974365235
368,178,51813,2,0,P|392:226|434:251,1,83.9999974365235
505,178,52146,1,0,0:0:0:0:
446,110,52313,1,0,0:0:0:0:
407,358,52479,1,0,0:0:0:0:
462,271,52646,1,0,0:0:0:0:
331,169,52813,1,0,0:0:0:0:
372,266,52979,1,0,0:0:0:0:
419,182,53146,2,0,P|372:209|343:260,1,83.9999974365235
256,384,53479,6,0,P|254:311|279:268,1,83.9999974365235
326,117,53813,2,0,P|275:144|230:188,1,83.9999974365235
70,363,54146,2,0,P|106:295|128:271,1,83.9999974365235
262,137,54479,1,0,0:0:0:0:
178,49,54646,1,0,0:0:0:0:
42,284,54813,2,0,P|95:281|154:295,1,83.9999974365235
207,271,55063,5,0,0:0:0:0:
253,258,55146,1,0,0:0:0:0:
168,176,55313,1,0,0:0:0:0:
133,170,55396,1,0,0:0:0:0:
100,154,55479,1,0,0:0:0:0:
39,50,55646,1,0,0:0:0:0:
200,5,55813,1,0,0:0:0:0:
246,238,55979,1,0,0:0:0:0:
77,293,56146,6,0,P|112:256|155:238,1,83.9999974365235
314,198,56479,2,0,P|267:191|222:172,1,83.9999974365235
16,2,56813,2,0,P|82:53|117:62,1,83.9999974365235
231,100,57146,1,0,0:0:0:0:
166,28,57313,1,0,0:0:0:0:
39,256,57479,2,0,P|72:224|114:197,1,83.9999974365235
228,284,57813,5,0,0:0:0:0:
335,250,57979,1,0,0:0:0:0:
292,154,58146,2,0,P|256:191|240:239,1,83.9999974365235
437,127,58479,2,0,P|418:83|387:53,1,83.9999974365235
250,32,58813,5,0,0:0:0:0:
128,213,58979,1,0,0:0:0:0:
333,244,59146,1,0,0:0:0:0:
241,133,59313,1,0,0:0:0:0:
190,335,59479,1,0,0:0:0:0:
298,291,59646,1,0,0:0:0:0:
211,151,59813,6,0,P|165:214|160:250,1,83.9999974365235
57,340,60146,2,0,P|90:291|132:265,1,83.9999974365235
119,143,60479,2,0,P|107:101|67:73,1,83.9999974365235
27,77,60729,1,0,0:0:0:0:
0,93,60813,1,0,0:0:0:0:
129,0,60979,1,0,0:0:0:0:
157,18,61063,1,0,0:0:0:0:
178,50,61146,1,0,0:0:0:0:
240,194,61313,1,0,0:0:0:0:
286,177,61396,1,0,0:0:0:0:
327,147,61479,6,0,P|314:99|291:66,1,83.9999974365235
156,43,61813,2,0,P|105:56|51:54,1,83.9999974365235
31,162,62146,2,0,P|47:213|35:254,1,83.9999974365235
137,326,62479,2,0,P|190:312|238:323,1,83.9999974365235
300,220,62813,2,0,P|285:166|295:133,1,83.9999974365235
383,58,63146,5,0,0:0:0:0:
475,185,63313,1,0,0:0:0:0:
402,335,63479,2,0,P|343:329|310:340,1,83.9999974365235
215,366,63813,1,0,0:0:0:0:
277,290,63979,1,0,0:0:0:0:
63,124,64146,6,0,P|81:148|132:169,1,83.9999974365235
284,187,64479,1,0,0:0:0:0:
188,0,64646,2,0,P|190:53|221:80,1,83.9999974365235
284,187,64979,1,0,0:0:0:0:
193,297,65146,2,0,P|141:304|101:298,1,83.9999974365235
76,193,65479,5,0,0:0:0:0:
113,97,65646,1,0,0:0:0:0:
203,124,65813,1,0,0:0:0:0:
168,215,65979,1,0,0:0:0:0:
168,215,66063,2,0,L|208:273,1,41.9999987182618
14,148,66313,5,0,0:0:0:0:
223,25,66479,1,0,0:0:0:0:
256,192,66563,12,0,68146,0:0:0:0:
481,31,68479,6,0,P|422:35|399:44,1,70
374,146,68813,2,0,P|338:186|292:186,1,70
214,107,69146,1,0,0:0:0:0:
337,91,69313,2,0,P|401:141|440:203,1,140
374,269,69813,5,0,0:0:0:0:
242,241,69979,1,0,0:0:0:0:
379,307,70146,1,0,0:0:0:0:
318,131,70313,1,0,0:0:0:0:
414,54,70479,2,0,L|458:23,1,35
342,5,70646,1,0,0:0:0:0:
125,46,70813,6,0,L|81:15,1,35
249,137,70979,1,0,0:0:0:0:
399,50,71479,6,0,L|435:20,1,35
249,209,71645,1,0,0:0:0:0:
143,85,72146,2,0,L|83:53,1,35
251,269,72313,1,0,0:0:0:0:
366,125,72813,2,0,L|412:83,1,35
254,284,72979,2,0,L|252:347,1,35
214,343,73146,1,0,0:0:0:0:
188,345,73229,1,0,0:0:0:0:
159,346,73313,1,0,0:0:0:0:
134,346,73396,1,0,0:0:0:0:
107,345,73479,6,2,P|100:250|131:190,1,140
