osu file format v14

[General]
AudioFilename: audio.mp3
AudioLeadIn: 0
PreviewTime: 44759
Countdown: 0
SampleSet: Soft
StackLeniency: 0.2
Mode: 0
LetterboxInBreaks: 0
WidescreenStoryboard: 1

[Editor]
DistanceSpacing: 1
BeatDivisor: 4
GridSize: 4
TimelineZoom: 1

[Metadata]
Title:Yubi Bouenkyou (TV Size)
TitleUnicode:指望遠鏡 (TV Size)
Artist:Nogizaka46
ArtistUnicode:乃木坂46
Creator:fieryrage
Version:Fate
Source:マギ The labyrinth of magic
Tags:magi アニメ版 anime ban anime-ban ending ed finger telescope aladdin japanese pop agatsu glaceon delis shirohamymommy hooni flask
BeatmapID:2469345
BeatmapSetID:1178935

[Difficulty]
HPDrainRate:5
CircleSize:4
OverallDifficulty:9.2
ApproachRate:9.4
SliderMultiplier:1.7
SliderTickRate:1

[Events]
//Background and Video events
0,0,"Haha baniel funny meme.jpg",0,0
Video,-970,"vid.avi"
//Break Periods
//Storyboard Layer 0 (Background)
//Storyboard Layer 1 (Fail)
//Storyboard Layer 2 (Pass)
//Storyboard Layer 3 (Foreground)
//Storyboard Layer 4 (Overlay)
//Storyboard Sound Samples

[TimingPoints]
1551,333.333333333333,4,2,1,40,1,0
1551,-125,4,2,1,40,0,0
6217,-125,4,2,1,30,0,0
6884,-125,4,2,1,20,0,0
7550,-100,4,2,5,5,0,0
7717,-100,4,2,1,70,0,0
7884,-125,4,2,1,70,0,0
7967,-100,4,2,5,5,0,0
8217,-100,4,2,1,70,0,0
10384,-100,4,2,1,50,0,0
10550,-100,4,2,1,70,0,0
13050,-100,4,2,1,50,0,0
13217,-100,4,2,1,70,0,0
13300,-100,4,2,1,70,0,0
13551,-100,4,2,1,60,0,0
13717,-100,4,2,1,55,0,0
18134,-100,4,2,1,45,0,0
18217,-100,4,2,1,55,0,0
22717,-100,4,2,1,60,0,0
23217,-100,4,2,1,60,0,0
23384,-100,4,2,1,60,0,0
23467,-100,4,2,1,50,0,0
23550,-100,4,2,1,60,0,0
23884,-100,4,2,1,55,0,0
24217,-100,4,2,1,55,0,0
24384,-100,4,2,1,55,0,0
28800,-100,4,2,1,45,0,0
28884,-100,4,2,1,55,0,0
33384,-100,4,2,1,60,0,0
34134,-100,4,2,1,50,0,0
34217,-100,4,2,1,60,0,0
34384,-100,4,2,1,50,0,0
34550,-100,4,2,1,50,0,0
34717,-100,4,2,1,40,0,0
34884,-125,4,2,1,55,0,0
37550,-125,4,2,1,60,0,0
39550,-125,4,2,1,55,0,0
39717,-125,4,2,1,50,0,0
39884,-125,4,2,1,40,0,0
40217,-125,4,2,1,55,0,0
42134,-125,4,2,1,45,0,0
42217,-125,4,2,1,55,0,0
42884,-83.3333333333333,4,2,1,60,0,0
42967,-83.3333333333333,4,2,5,5,0,0
43217,-83.3333333333333,4,2,1,60,0,0
44134,-83.3333333333333,4,2,5,5,0,0
44384,-83.3333333333333,4,2,1,60,0,0
44550,-83.3333333333333,4,2,1,70,0,0
44717,-83.3333333333333,4,2,1,60,0,0
44884,-125,4,2,1,50,0,0
45050,-125,4,2,5,5,0,0
45217,-125,4,2,1,50,0,0
45384,-125,4,2,5,5,0,0
45550,-83.3333333333333,4,2,1,75,0,1
55384,-83.3333333333333,4,2,1,55,0,1
55467,-83.3333333333333,4,2,1,65,0,1
55550,-83.3333333333333,4,2,1,75,0,1
55717,-83.3333333333333,4,2,1,70,0,1
55884,-83.3333333333333,4,2,1,75,0,1
64217,-100,4,2,1,70,0,0
64467,-100,4,2,1,55,0,0
64550,-100,4,2,1,65,0,0
64717,-100,4,2,1,70,0,0
65050,-100,4,2,1,50,0,0
65217,-100,4,2,1,70,0,0
65550,-100,4,2,1,60,0,0
66384,-100,4,2,1,40,0,0
66550,-100,4,2,1,50,0,0
66717,-100,4,2,1,60,0,0
66884,-83.3333333333333,4,2,1,80,0,1
68217,-83.3333333333333,4,2,1,80,0,1
68300,-83.3333333333333,4,2,1,80,0,1
69550,-83.3333333333333,4,2,1,80,0,1
69634,-83.3333333333333,4,2,1,80,0,1
70884,-83.3333333333333,4,2,1,80,0,1
70967,-83.3333333333333,4,2,1,80,0,1
78884,-83.3333333333333,4,2,1,80,0,1
78967,-83.3333333333333,4,2,1,80,0,1
80217,-83.3333333333333,4,2,1,80,0,1
80300,-83.3333333333333,4,2,1,80,0,1
81550,-83.3333333333333,4,2,1,80,0,1
81634,-83.3333333333333,4,2,1,80,0,1
82884,-125,4,2,1,50,0,0
83217,-125,4,2,1,40,0,0
83884,-125,4,2,1,30,0,0
84217,-125,4,2,1,40,0,0
84717,-125,4,2,1,30,0,0
84884,-125,4,2,1,40,0,0
85217,-125,4,2,1,20,0,0
85384,-125,4,2,1,30,0,0
85550,-125,4,2,1,20,0,0
85884,-125,4,2,1,15,0,0
86384,-125,4,2,1,10,0,0
86717,-125,4,2,1,5,0,0
86884,-125,4,2,5,5,0,0

[Colours]
Combo1 : 200,165,125
Combo2 : 55,155,255
Combo3 : 207,207,207
Combo4 : 234,210,115

[HitObjects]
49,171,884,5,2,0:0:0:0:
49,171,1217,1,2,0:0:0:0:
49,171,1551,6,0,P|100:156|188:164,1,136,6|0,0:3|0:0,0:0:0:0:
334,326,2217,2,0,P|266:333|201:317,1,136,2|2,0:3|0:0,0:0:0:0:
201,317,2717,1,0,0:0:0:0:
201,317,2884,6,0,B|178:259|198:182|198:182|215:112|171:38,1,272,2|2,0:0|0:0,0:0:0:0:
49,171,3884,1,2,0:0:0:0:
314,55,4217,6,0,L|168:51,1,136,2|0,0:0|0:0,0:0:0:0:
37,186,4884,2,0,L|183:182,1,136,2|0,0:0|0:0,0:0:0:0:
462,61,5550,5,2,0:0:0:0:
256,192,5634,12,0,7550,0:0:0:0:
172,182,7717,5,0,1:0:0:0:
172,182,7800,1,0,1:0:0:0:
172,182,7884,2,2,P|160:236|173:287,1,102,8|0,0:0|0:0,0:0:0:0:
190,312,8217,6,0,L|295:309,1,85,6|2,1:2|1:0,0:0:0:0:
400,268,8550,1,8,0:0:0:0:
132,174,8717,2,0,L|329:169,1,170,6|2,1:2|1:0,0:0:0:0:
449,133,9217,1,8,0:0:0:0:
299,331,9384,6,0,P|278:242|309:159,1,170,6|2,1:2|1:0,0:0:0:0:
472,118,9884,1,8,0:0:0:0:
141,137,10050,2,0,P|216:173|301:169,1,170,6|8,1:2|0:3,0:0:0:0:
411,41,10550,1,8,0:3:0:0:
141,137,10884,6,0,L|144:245,1,85,6|2,1:2|1:0,0:0:0:0:
262,60,11217,1,8,0:0:0:0:
299,331,11384,1,6,1:3:0:0:
299,331,11717,2,0,L|301:246,1,85,2|8,1:0|0:0,0:0:0:0:
49,288,12050,6,0,P|103:305|218:274,1,170,6|2,1:2|1:0,0:0:0:0:
262,60,12550,1,8,0:0:0:0:
377,284,12717,2,0,B|334:297|294:282|294:282|249:265|210:279,1,170,6|0,1:2|1:0,0:0:0:0:
429,98,13217,1,8,0:0:0:0:
429,98,13550,6,0,P|439:137|436:183,1,85,6|0,1:2|0:0,0:0:0:0:
184,153,13884,2,0,P|239:130|351:149,1,170,10|2,0:0|1:2,0:0:0:0:
414,262,14384,1,0,1:0:0:0:
353,34,14550,1,10,0:0:0:0:
268,218,14717,1,2,0:0:0:0:
401,95,14884,6,0,B|422:161|422:161|413:271,1,170,0|10,1:0|0:0,0:0:0:0:
268,218,15384,1,2,0:0:0:0:
485,97,15550,2,0,L|381:94,1,85,2|0,1:2|1:0,0:0:0:0:
188,13,15884,2,0,L|292:10,1,85,10|2,0:0|0:0,0:0:0:0:
413,261,16217,5,0,1:0:0:0:
327,149,16384,1,0,0:0:0:0:
494,202,16550,1,10,0:0:0:0:
311,249,16717,1,0,0:0:0:0:
420,48,16884,2,0,L|423:138,1,85,2|2,1:2|1:2,0:0:0:0:
433,354,17217,1,10,0:0:0:0:
501,186,17384,1,2,0:0:0:0:
273,328,17550,6,0,P|315:332|356:322,1,85,0|2,1:0|0:0,0:0:0:0:
189,143,17884,2,0,L|186:237,1,85,10|0,0:0|0:0,0:0:0:0:
186,227,18134,1,8,0:3:0:0:
186,227,18217,1,2,1:2:0:0:
311,157,18384,1,2,1:2:0:0:
135,70,18550,2,0,P|181:56|227:61,1,85,8|0,0:0|0:0,0:0:0:0:
106,223,18884,6,0,P|63:224|23:211,1,85,2|0,1:2|0:0,0:0:0:0:
217,58,19217,1,10,0:0:0:0:
42,110,19384,1,2,0:0:0:0:
311,157,19550,2,0,L|221:159,1,85,2|0,1:2|1:0,0:0:0:0:
23,211,19884,1,10,0:0:0:0:
118,41,20050,1,2,0:0:0:0:
209,332,20217,6,0,P|215:287|207:243,1,85,0|2,1:0|0:0,0:0:0:0:
42,110,20550,1,8,0:0:0:0:
226,158,20717,1,2,0:0:0:0:
24,295,20884,2,0,L|22:203,1,85,0|0,1:0|1:0,0:0:0:0:
206,333,21217,2,0,L|208:241,1,85,8|0,0:0|0:0,0:0:0:0:
40,25,21550,6,0,L|41:109,1,85,2|2,1:0|0:0,0:0:0:0:
294,220,21884,1,8,0:0:0:0:
217,25,22050,1,0,0:0:0:0:
130,239,22217,1,2,1:2:0:0:
223,8,22384,2,0,L|221:92,1,85,2|2,1:2|0:0,0:0:0:0:
58,314,22717,6,0,P|106:331|215:296,1,170,14|0,0:0|1:3,0:0:0:0:
99,117,23217,1,8,0:0:0:0:
294,220,23384,1,2,0:0:0:0:
294,220,23467,1,8,0:3:0:0:
294,220,23550,2,0,L|397:218,1,85,0|0,0:0|1:0,0:0:0:0:
212,30,23884,1,8,0:0:0:0:
212,30,24217,6,0,P|202:74|207:121,1,85,6|0,1:2|0:0,0:0:0:0:
456,218,24550,2,0,P|395:199|293:220,1,170,10|2,0:0|1:2,0:0:0:0:
193,287,25050,1,0,1:0:0:0:
305,80,25217,1,10,0:0:0:0:
132,140,25384,1,2,0:0:0:0:
378,221,25550,6,0,L|274:219,1,85,0|2,1:0|0:0,0:0:0:0:
132,140,25884,1,10,0:0:0:0:
193,287,26050,1,0,0:0:0:0:
389,81,26217,2,0,L|304:79,1,85,2|0,1:2|1:0,0:0:0:0:
133,223,26550,1,10,0:0:0:0:
197,30,26717,1,2,0:0:0:0:
291,304,26884,6,0,L|293:205,1,85,0|2,1:0|0:0,0:0:0:0:
131,138,27217,2,0,L|132:222,1,85,10|0,0:0|0:0,0:0:0:0:
326,93,27550,1,2,1:2:0:0:
132,222,27717,1,2,1:2:0:0:
391,164,27884,1,10,0:0:0:0:
131,138,28050,1,2,0:0:0:0:
426,246,28217,6,0,P|379:252|335:238,1,85,0|2,1:0|0:0,0:0:0:0:
131,138,28550,2,0,P|178:132|222:146,1,85,8|0,0:0|0:0,0:0:0:0:
213,141,28800,1,8,0:3:0:0:
213,141,28884,1,2,1:2:0:0:
320,323,29050,1,2,1:2:0:0:
388,80,29217,1,8,0:0:0:0:
183,248,29384,1,4,0:3:0:0:
408,64,29550,6,0,P|439:132|428:226,1,170,2|10,1:0|0:0,0:0:0:0:
183,248,30050,1,0,0:0:0:0:
183,248,30217,2,0,L|285:246,1,85,2|0,1:2|1:0,0:0:0:0:
408,64,30550,2,0,L|306:62,1,85,10|2,0:0|0:0,0:0:0:0:
123,191,30884,6,0,P|119:147|131:100,1,85,0|2,1:0|0:0,0:0:0:0:
323,62,31217,1,8,0:0:0:0:
176,28,31384,1,2,0:0:0:0:
343,67,31550,2,0,L|346:173,1,85,0|0,1:0|1:0,0:0:0:0:
125,192,31884,2,0,L|127:107,1,85,8|0,0:0|0:0,0:0:0:0:
388,225,32217,6,0,P|344:233|298:221,1,85,0|2,1:0|0:0,0:0:0:0:
176,28,32550,1,8,0:0:0:0:
224,277,32717,1,0,0:0:0:0:
296,10,32884,1,2,1:2:0:0:
219,299,33050,5,10,0:3:0:0:
169,2,33217,1,10,0:0:0:0:
379,298,33384,6,0,P|308:321|207:291,1,170,6|0,1:2|1:0,0:0:0:0:
326,108,33884,1,8,0:0:0:0:
71,188,34050,1,2,0:0:0:0:
71,188,34134,1,8,0:3:0:0:
71,188,34217,2,0,L|164:186,1,85,8|8,0:3|0:3,0:0:0:0:
302,300,34550,2,0,L|209:298,1,85,8|8,1:3|1:3,0:0:0:0:
342,81,34884,6,0,P|366:138|360:219,1,136,6|2,1:2|0:0,0:0:0:0:
217,298,35384,1,0,1:0:0:0:
217,298,35550,2,0,P|212:230|237:168,1,136,10|2,0:0|0:0,0:0:0:0:
441,104,36050,6,0,L|360:102,1,68,0|2,1:0|0:0,0:0:0:0:
185,32,36384,1,8,0:0:0:0:
185,32,36550,2,0,L|266:30,1,68,2|0,0:0|1:0,0:0:0:0:
474,189,36884,2,0,L|321:186,1,136,10|2,0:0|1:2,0:0:0:0:
24,146,37550,6,0,P|81:127|167:140,1,136,6|2,1:2|0:0,0:0:0:0:
229,221,38050,1,0,1:0:0:0:
151,3,38217,2,0,P|141:80|160:145,1,136,14|2,0:0|0:0,0:0:0:0:
338,186,38717,1,2,0:0:0:0:
84,253,38884,6,0,L|159:252,1,68,6|8,1:2|0:0,0:0:0:0:
151,252,39384,1,0,1:0:0:0:
72,60,39550,5,8,0:0:0:0:
8,186,39717,1,8,0:0:0:0:
194,124,39884,1,8,0:3:0:0:
194,124,40217,6,0,L|288:121,1,68,6|0,1:2|0:0,0:0:0:0:
151,252,40550,2,0,L|57:249,1,68,10|0,0:0|0:0,0:0:0:0:
134,60,40884,1,2,1:2:0:0:
261,121,41050,1,0,1:0:0:0:
8,186,41217,2,0,P|2:153|5:117,1,68,10|0,0:0|0:0,0:0:0:0:
238,226,41550,6,0,P|240:259|234:293,1,68,2|0,1:0|0:0,0:0:0:0:
134,60,41884,1,10,0:0:0:0:
97,312,42050,1,8,0:3:0:0:
97,312,42134,1,8,0:3:0:0:
97,312,42217,1,2,1:2:0:0:
261,121,42384,1,0,1:0:0:0:
8,186,42550,2,0,L|100:184,1,68,10|0,0:0|0:0,0:0:0:0:
376,307,42884,6,0,P|311:323|226:286,1,152.999995330811,6|0,1:2|0:0,0:0:0:0:
201,252,43217,1,8,0:0:0:0:
461,124,43384,2,0,B|403:140|361:123|361:123|310:104|260:121,1,203.999993774414,6|0,1:2|0:0,0:0:0:0:
75,184,43884,1,8,0:0:0:0:
376,307,44050,6,0,P|389:244|362:155,1,152.999995330811,6|0,1:2|0:0,0:0:0:0:
331,120,44384,1,8,0:3:0:0:
193,356,44550,1,8,0:3:0:0:
108,11,44717,1,8,0:0:0:0:
73,251,44884,6,0,L|75:170,1,68,2|0,0:0|0:0,0:0:0:0:
193,356,45217,2,0,L|191:275,1,68,2|0,0:0|0:0,0:0:0:0:
20,110,45550,6,0,P|67:96|127:107,1,101.999996887207,6|0,1:2|0:0,0:0:0:0:
349,207,45884,2,0,P|298:214|250:200,1,101.999996887207,10|0,0:0|0:0,0:0:0:0:
120,1,46217,2,0,L|118:112,1,101.999996887207,2|0,1:0|0:0,0:0:0:0:
252,309,46550,1,10,0:0:0:0:
306,120,46717,1,0,0:0:0:0:
52,241,46884,6,0,P|18:280|106:268,1,203.999993774414,2|8,1:0|0:0,0:0:0:0:
20,110,47384,1,0,0:0:0:0:
250,200,47550,2,0,P|197:213|147:202,1,101.999996887207,2|0,1:0|0:0,0:0:0:0:
258,50,47884,2,0,P|307:40|356:53,1,101.999996887207,10|0,0:0|0:0,0:0:0:0:
151,203,48217,6,0,L|149:100,1,101.999996887207,2|0,1:0|0:0,0:0:0:0:
357,281,48550,2,0,L|359:178,1,101.999996887207,10|0,0:0|0:0,0:0:0:0:
152,304,48884,2,0,L|150:201,1,101.999996887207,2|0,1:0|0:0,0:0:0:0:
355,382,49217,2,0,L|357:279,1,101.999996887207,10|0,0:0|0:0,0:0:0:0:
93,134,49550,6,0,P|146:116|198:126,1,101.999996887207,2|0,1:0|0:0,0:0:0:0:
356,280,49884,1,8,0:0:0:0:
314,43,50050,1,0,0:0:0:0:
152,304,50217,2,0,L|150:201,1,101.999996887207,2|0,1:0|0:0,0:0:0:0:
356,280,50550,2,0,L|358:177,1,101.999996887207,10|0,0:0|0:0,0:0:0:0:
136,60,50884,5,2,1:0:0:0:
314,43,51050,1,0,0:0:0:0:
113,62,51217,1,10,0:0:0:0:
389,101,51384,1,0,0:0:0:0:
69,160,51550,2,0,L|175:157,1,101.999996887207,2|0,1:0|0:0,0:0:0:0:
356,280,51884,2,0,L|250:277,1,101.999996887207,10|0,0:0|0:0,0:0:0:0:
113,62,52217,6,0,L|219:59,1,101.999996887207,2|0,1:0|0:0,0:0:0:0:
400,182,52550,2,0,L|294:179,1,101.999996887207,10|0,0:0|0:0,0:0:0:0:
136,158,52884,1,2,1:0:0:0:
202,280,53050,1,0,0:0:0:0:
314,60,53217,2,0,P|251:50|204:63,1,101.999996887207,10|0,0:0|0:0,0:0:0:0:
214,58,53467,1,0,0:0:0:0:
214,58,53550,5,2,1:0:0:0:
201,296,53717,1,0,0:0:0:0:
126,54,53884,5,10,0:0:0:0:
199,315,54050,1,0,0:0:0:0:
228,43,54217,5,2,1:0:0:0:
99,315,54384,1,0,0:0:0:0:
120,30,54550,5,10,0:0:0:0:
204,335,54717,1,0,0:0:0:0:
329,32,54884,6,0,L|215:36,1,101.999996887207,2|0,1:0|0:0,0:0:0:0:
96,225,55217,2,0,L|210:229,1,101.999996887207,8|8,0:0|0:3,0:0:0:0:
197,228,55467,1,8,0:0:0:0:
197,228,55550,1,10,0:3:0:0:
99,29,55717,1,8,0:0:0:0:
16,276,55884,2,0,P|8:220|17:175,1,101.999996887207,10|0,0:0|0:0,0:0:0:0:
227,35,56217,6,0,L|230:168,1,101.999996887207,6|0,1:2|0:0,0:0:0:0:
16,175,56550,2,0,L|18:73,1,101.999996887207,10|0,0:0|0:0,0:0:0:0:
282,216,56884,2,0,P|228:229|175:215,1,101.999996887207,2|0,1:0|0:0,0:0:0:0:
18,73,57217,1,8,0:0:0:0:
94,300,57384,1,0,0:0:0:0:
178,15,57550,6,0,L|183:226,1,203.999993774414,2|8,1:0|0:0,0:0:0:0:
301,31,58050,1,0,0:0:0:0:
408,212,58217,2,0,L|405:110,1,101.999996887207,2|0,1:0|0:0,0:0:0:0:
182,218,58550,2,0,L|184:319,1,101.999996887207,10|0,0:0|0:0,0:0:0:0:
405,110,58884,6,0,P|362:97|299:113,1,101.999996887207,2|0,1:0|0:0,0:0:0:0:
184,319,59217,2,0,P|227:332|290:316,1,101.999996887207,10|0,0:0|0:0,0:0:0:0:
121,84,59550,1,2,1:0:0:0:
84,276,59717,1,0,0:0:0:0:
124,61,59884,1,10,0:0:0:0:
184,319,60050,1,0,0:0:0:0:
22,64,60217,6,0,L|125:60,1,101.999996887207,2|0,1:0|0:0,0:0:0:0:
265,238,60550,2,0,L|162:234,1,101.999996887207,8|0,0:0|0:0,0:0:0:0:
327,0,60884,1,2,1:0:0:0:
377,170,61050,1,0,0:0:0:0:
123,60,61217,2,0,L|226:56,1,101.999996887207,10|0,0:0|0:0,0:0:0:0:
425,251,61550,6,0,P|365:260|319:244,1,101.999996887207,6|0,1:2|0:0,0:0:0:0:
123,60,61884,2,0,L|120:169,1,101.999996887207,10|0,0:0|0:0,0:0:0:0:
327,0,62217,2,0,L|330:109,1,101.999996887207,2|0,1:0|0:0,0:0:0:0:
248,322,62550,1,10,0:0:0:0:
123,60,62717,1,0,0:0:0:0:
123,60,62800,1,0,0:0:0:0:
123,60,62884,6,0,L|120:169,1,101.999996887207,2|0,1:0|0:0,0:0:0:0:
327,0,63217,1,10,0:0:0:0:
358,206,63384,1,2,0:0:0:0:
123,60,63550,2,0,P|187:38|222:41,1,101.999996887207,2|0,1:0|0:0,0:0:0:0:
391,293,63884,2,0,P|340:293|293:273,1,101.999996887207,8|2,0:0|0:0,0:0:0:0:
68,155,64217,6,0,L|166:152,1,85,6|0,1:2|0:0,0:0:0:0:
152,152,64467,1,8,0:0:0:0:
152,152,64550,1,8,0:0:0:0:
365,281,64717,2,0,L|182:276,1,170,6|8,1:2|0:3,0:0:0:0:
422,88,65217,2,0,P|433:132|427:180,1,85,14|0,0:0|0:0,0:0:0:0:
169,50,65550,5,4,0:3:0:0:
307,19,65717,1,0,0:1:0:0:
152,152,65884,2,0,L|253:148,1,85,0|0,1:0|1:0,0:0:0:0:
391,22,66217,2,0,L|290:18,1,85,2|8,1:0|1:3,0:0:0:0:
216,237,66550,1,10,0:0:0:0:
407,137,66717,1,8,0:0:0:0:
93,105,66884,5,14,0:0:0:0:
352,51,67050,1,0,1:0:0:0:
107,219,67217,5,10,0:0:0:0:
374,44,67384,1,0,1:0:0:0:
268,319,67550,5,10,0:0:0:0:
234,25,67717,1,0,1:0:0:0:
270,344,67884,5,8,0:0:0:0:
352,51,68050,1,0,1:0:0:0:
107,219,68217,5,10,0:0:0:0:
424,159,68384,1,0,1:0:0:0:
81,226,68550,5,8,0:0:0:0:
352,51,68717,1,0,1:0:0:0:
278,355,68884,5,10,0:0:0:0:
236,34,69050,1,0,1:0:0:0:
180,366,69217,5,10,0:0:0:0:
231,18,69384,1,0,1:0:0:0:
411,330,69550,5,10,0:0:0:0:
65,180,69717,1,0,1:0:0:0:
442,106,69884,5,10,0:0:0:0:
172,380,70050,1,0,1:0:0:0:
228,0,70217,5,10,0:0:0:0:
422,349,70384,1,0,1:0:0:0:
45,177,70550,5,10,0:0:0:0:
459,93,70717,1,0,1:0:0:0:
44,277,70884,6,0,P|37:227|47:168,1,101.999996887207,10|0,0:0|1:0,0:0:0:0:
278,263,71217,2,0,P|285:313|275:372,1,101.999996887207,8|0,0:0|1:0,0:0:0:0:
164,60,71550,5,10,0:0:0:0:
44,277,71717,1,0,1:0:0:0:
278,157,71884,2,0,L|409:153,1,101.999996887207,10|0,0:0|1:0,0:0:0:0:
434,154,72134,1,0,1:0:0:0:
434,154,72217,5,14,0:0:0:0:
277,363,72384,1,0,1:0:0:0:
279,111,72550,5,10,0:0:0:0:
434,360,72717,1,0,1:0:0:0:
432,59,72884,5,10,0:0:0:0:
277,382,73050,1,0,1:0:0:0:
279,20,73217,5,10,0:0:0:0:
434,384,73384,1,0,1:0:0:0:
83,149,73550,5,14,0:0:0:0:
432,59,73717,1,0,1:0:0:0:
62,155,73884,5,10,0:0:0:0:
443,138,74050,1,0,1:0:0:0:
43,162,74217,5,10,0:0:0:0:
453,218,74384,1,0,1:0:0:0:
98,53,74550,6,0,P|48:49|-7:71,1,101.999996887207,10|0,0:0|1:0,0:0:0:0:
310,362,74884,6,0,L|311:238,1,101.999996887207,14|0,0:0|1:0,0:0:0:0:
62,155,75217,2,0,L|61:279,1,101.999996887207,10|0,0:0|1:0,0:0:0:0:
367,97,75550,6,0,P|320:83|268:94,1,101.999996887207,14|0,0:0|1:0,0:0:0:0:
117,349,75884,2,0,P|164:363|216:352,1,101.999996887207,10|0,0:0|1:0,0:0:0:0:
62,79,76217,5,14,0:0:0:0:
243,203,76384,1,0,1:0:0:0:
47,68,76550,1,8,0:0:0:0:
269,93,76717,1,0,1:0:0:0:
34,177,76884,6,0,L|29:294,1,101.999996887207,10|0,0:0|1:0,0:0:0:0:
167,279,77217,2,0,L|172:396,1,101.999996887207,10|0,0:0|1:0,0:0:0:0:
269,93,77550,5,14,0:0:0:0:
339,338,77717,1,0,1:0:0:0:
264,72,77884,5,10,0:0:0:0:
207,383,78050,1,0,1:0:0:0:
429,180,78217,5,10,0:0:0:0:
104,138,78384,1,0,1:0:0:0:
450,177,78550,5,10,0:0:0:0:
55,253,78717,1,0,1:0:0:0:
296,35,78884,5,10,0:0:0:0:
340,367,79050,1,0,1:0:0:0:
199,61,79217,5,8,0:0:0:0:
166,350,79384,1,0,1:0:0:0:
377,103,79550,5,10,0:0:0:0:
55,253,79717,1,0,1:0:0:0:
396,96,79884,5,10,0:0:0:0:
35,154,80050,1,0,1:0:0:0:
340,367,80217,5,10,0:0:0:0:
183,20,80384,1,0,1:0:0:0:
177,376,80550,5,10,0:0:0:0:
334,1,80717,1,0,1:0:0:0:
349,384,80884,5,10,0:0:0:0:
169,0,81050,1,0,1:0:0:0:
477,200,81217,5,10,0:0:0:0:
46,291,81384,1,0,1:0:0:0:
496,196,81550,6,0,L|498:80,1,101.999996887207,10|0,0:0|1:0,0:0:0:0:
347,282,81884,2,0,L|348:383,1,101.999996887207,8|0,0:0|1:0,0:0:0:0:
247,83,82217,5,10,0:0:0:0:
496,196,82384,1,0,1:0:0:0:
221,244,82550,1,10,0:0:0:0:
411,53,82717,1,0,1:0:0:0:
137,189,82884,6,0,P|126:246|149:322,1,136,6|0,1:3|0:0,0:0:0:0:
214,62,83550,1,2,0:0:0:0:
347,282,83884,1,0,0:0:0:0:
37,189,84217,6,0,L|186:185,1,136,2|2,0:0|0:0,0:0:0:0:
285,180,84717,1,0,0:0:0:0:
192,274,84884,2,0,P|188:302|197:350,1,68,2|0,0:0|0:0,0:0:0:0:
293,167,85217,1,0,0:0:0:0:
90,283,85384,5,2,0:0:0:0:
256,192,85467,12,0,86884,0:0:0:0:
