osu file format v14

[General]
AudioFilename: audio.mp3
AudioLeadIn: 0
PreviewTime: 44876
Countdown: 0
SampleSet: Normal
StackLeniency: 0.7
Mode: 1
LetterboxInBreaks: 0
WidescreenStoryboard: 1

[Editor]
DistanceSpacing: 2
BeatDivisor: 4
GridSize: 16
TimelineZoom: 1.699999

[Metadata]
Title:Yubi Bouenkyou (TV Size)
TitleUnicode:指望遠鏡 (TV Size)
Artist:Nogizaka46
ArtistUnicode:乃木坂46
Creator:Raytoly
Version:Oni
Source:マギ The labyrinth of magic
Tags:Rhytoly magi finger telescope ending ed anime japanese ban
BeatmapID:2189541
BeatmapSetID:1047484

[Difficulty]
HPDrainRate:5.5
CircleSize:5
OverallDifficulty:5.5
ApproachRate:5
SliderMultiplier:1.4
SliderTickRate:1

[Events]
//Background and Video events
0,0,"damn.jpg",0,75
//Break Periods
//Storyboard Layer 0 (Background)
//Storyboard Layer 1 (Fail)
//Storyboard Layer 2 (Pass)
//Storyboard Layer 3 (Foreground)
//Storyboard Layer 4 (Overlay)
//Storyboard Sound Samples

[TimingPoints]
211,333.333333333333,4,1,0,40,1,0
1544,333.333333333333,4,1,0,40,1,0
7710,-100,4,1,0,80,0,0
8210,333.333333333333,4,1,0,80,1,0
45543,-100,4,1,0,80,0,1
55543,-100,4,1,0,80,0,0
56209,-100,4,1,0,80,0,1
65543,-100,4,1,0,80,0,0
66876,-100,4,1,0,80,0,1
82876,-100,4,1,0,40,0,0

[HitObjects]
287,177,877,5,0,0:0:0:0:
287,177,1210,1,0,0:0:0:0:
242,130,1544,1,8,0:0:0:0:
301,200,1877,1,0,0:0:0:0:
301,200,2210,1,8,0:0:0:0:
301,200,2543,1,8,0:0:0:0:
301,200,2877,1,0,0:0:0:0:
291,217,3543,1,0,0:0:0:0:
291,217,3877,1,8,0:0:0:0:
291,217,4210,1,8,0:0:0:0:
291,217,4543,1,0,0:0:0:0:
291,217,4877,1,8,0:0:0:0:
291,217,5210,1,8,0:0:0:0:
291,217,5543,1,0,0:0:0:0:
275,201,7877,1,12,0:0:0:0:
253,202,8210,1,4,0:0:0:0:
253,202,8377,1,4,0:0:0:0:
253,202,8710,1,4,0:0:0:0:
253,202,9043,1,4,0:0:0:0:
253,202,9377,1,4,0:0:0:0:
247,173,9710,1,4,0:0:0:0:
247,173,10043,1,4,0:0:0:0:
320,205,10377,1,12,0:0:0:0:
320,205,10543,1,12,0:0:0:0:
257,192,10877,1,4,0:0:0:0:
257,192,11043,1,4,0:0:0:0:
257,192,11377,1,4,0:0:0:0:
257,192,11710,1,4,0:0:0:0:
257,192,12043,1,4,0:0:0:0:
214,189,12377,1,4,0:0:0:0:
214,189,12710,1,4,0:0:0:0:
214,189,13043,1,12,0:0:0:0:
214,189,13210,1,12,0:0:0:0:
188,184,13543,1,4,0:0:0:0:
300,200,13877,1,8,0:0:0:0:
300,200,14043,1,0,0:0:0:0:
300,200,14210,1,0,0:0:0:0:
300,200,14377,1,0,0:0:0:0:
300,200,14543,1,8,0:0:0:0:
300,200,14710,1,8,0:0:0:0:
300,200,14877,1,0,0:0:0:0:
249,211,15210,1,8,0:0:0:0:
249,211,15377,1,8,0:0:0:0:
249,211,15543,1,0,0:0:0:0:
249,211,15710,1,0,0:0:0:0:
249,211,15877,1,8,0:0:0:0:
249,211,16043,1,0,0:0:0:0:
249,211,16210,1,8,0:0:0:0:
220,154,16543,1,0,0:0:0:0:
220,154,16710,1,0,0:0:0:0:
220,154,16877,1,8,0:0:0:0:
220,154,17043,1,8,0:0:0:0:
220,154,17210,1,0,0:0:0:0:
220,154,17377,1,0,0:0:0:0:
220,154,17543,1,8,0:0:0:0:
329,207,17877,1,0,0:0:0:0:
329,207,18043,1,0,0:0:0:0:
329,207,18210,1,8,0:0:0:0:
329,207,18293,1,8,0:0:0:0:
329,207,18377,1,0,0:0:0:0:
329,207,18543,1,8,0:0:0:0:
160,137,18710,1,0,0:0:0:0:
160,137,18877,1,8,0:0:0:0:
255,187,19210,1,8,0:0:0:0:
255,187,19377,1,8,0:0:0:0:
255,187,19543,1,0,0:0:0:0:
255,187,19710,1,0,0:0:0:0:
255,187,19877,1,8,0:0:0:0:
255,187,20043,1,0,0:0:0:0:
255,187,20210,1,8,0:0:0:0:
203,150,20543,1,0,0:0:0:0:
206,222,20710,1,8,0:0:0:0:
206,222,20877,1,8,0:0:0:0:
206,222,21043,1,0,0:0:0:0:
206,222,21210,1,0,0:0:0:0:
206,222,21377,1,0,0:0:0:0:
206,222,21543,1,8,0:0:0:0:
290,245,21877,1,8,0:0:0:0:
290,245,22043,1,0,0:0:0:0:
290,245,22210,1,0,0:0:0:0:
290,245,22377,1,8,0:0:0:0:
290,245,22543,1,0,0:0:0:0:
235,139,22710,1,12,0:0:0:0:
240,178,23043,1,0,0:0:0:0:
244,185,23210,1,12,0:0:0:0:
244,185,23377,1,0,0:0:0:0:
244,185,23710,1,0,0:0:0:0:
244,185,23877,1,8,0:0:0:0:
185,21,24210,1,4,0:0:0:0:
295,196,24543,1,8,0:0:0:0:
295,196,24710,1,0,0:0:0:0:
295,196,24877,1,8,0:0:0:0:
295,196,25043,1,0,0:0:0:0:
236,206,25210,1,8,0:0:0:0:
236,206,25293,1,8,0:0:0:0:
236,206,25377,1,0,0:0:0:0:
295,196,25543,1,8,0:0:0:0:
292,235,25877,1,8,0:0:0:0:
292,235,26043,1,0,0:0:0:0:
292,235,26210,1,8,0:0:0:0:
292,235,26377,1,0,0:0:0:0:
292,235,26543,1,8,0:0:0:0:
292,235,26627,1,8,0:0:0:0:
292,235,26710,1,8,0:0:0:0:
292,235,26877,1,0,0:0:0:0:
322,245,27210,1,0,0:0:0:0:
322,245,27377,1,0,0:0:0:0:
322,245,27543,1,8,0:0:0:0:
347,187,27710,1,0,0:0:0:0:
322,245,27877,1,0,0:0:0:0:
322,245,27960,1,0,0:0:0:0:
322,245,28043,1,0,0:0:0:0:
322,245,28210,1,8,0:0:0:0:
246,180,28543,1,8,0:0:0:0:
246,180,28710,1,8,0:0:0:0:
246,180,28877,1,0,0:0:0:0:
298,273,29043,1,0,0:0:0:0:
298,273,29210,1,8,0:0:0:0:
298,273,29293,1,8,0:0:0:0:
298,273,29377,1,0,0:0:0:0:
298,273,29543,1,8,0:0:0:0:
289,240,29877,1,8,0:0:0:0:
289,240,30043,1,8,0:0:0:0:
289,240,30210,1,0,0:0:0:0:
289,240,30377,1,8,0:0:0:0:
289,240,30543,1,0,0:0:0:0:
289,240,30627,1,0,0:0:0:0:
289,240,30710,1,8,0:0:0:0:
289,240,30877,1,0,0:0:0:0:
232,198,31210,1,8,0:0:0:0:
232,198,31377,1,0,0:0:0:0:
232,198,31543,1,8,0:0:0:0:
232,198,31710,1,8,0:0:0:0:
232,198,31877,1,0,0:0:0:0:
232,198,31960,1,0,0:0:0:0:
232,198,32043,1,0,0:0:0:0:
232,198,32210,1,8,0:0:0:0:
435,273,32543,1,0,0:0:0:0:
312,173,32710,1,8,0:0:0:0:
312,173,32877,1,8,0:0:0:0:
312,173,33043,1,4,0:0:0:0:
312,173,33210,1,4,0:0:0:0:
312,173,33377,1,12,0:0:0:0:
256,209,33710,1,0,0:0:0:0:
256,209,33877,1,8,0:0:0:0:
256,209,34210,1,8,0:0:0:0:
256,209,34377,1,8,0:0:0:0:
298,144,34543,1,0,0:0:0:0:
256,209,34710,1,0,0:0:0:0:
256,209,34877,1,4,0:0:0:0:
261,170,35210,1,0,0:0:0:0:
261,170,35377,1,0,0:0:0:0:
261,170,35543,1,8,0:0:0:0:
294,199,35877,1,8,0:0:0:0:
294,199,36043,1,0,0:0:0:0:
313,199,36377,1,8,0:0:0:0:
313,199,36543,1,0,0:0:0:0:
308,218,36710,1,0,0:0:0:0:
308,218,36877,1,8,0:0:0:0:
254,191,37210,1,0,0:0:0:0:
254,191,37543,1,12,0:0:0:0:
255,182,37877,1,8,0:0:0:0:
255,182,38043,1,0,0:0:0:0:
255,182,38210,1,12,0:0:0:0:
254,191,38543,1,0,0:0:0:0:
223,116,38710,5,8,0:0:0:0:
255,187,38877,1,4,0:0:0:0:
236,216,39043,1,8,0:0:0:0:
236,216,39377,1,0,0:0:0:0:
236,216,39543,1,8,0:0:0:0:
236,216,39710,1,8,0:0:0:0:
236,216,39877,1,0,0:0:0:0:
236,216,40210,1,4,0:0:0:0:
337,216,40543,1,8,0:0:0:0:
337,216,40710,1,0,0:0:0:0:
337,216,40877,1,0,0:0:0:0:
337,216,41043,1,0,0:0:0:0:
337,216,41210,1,8,0:0:0:0:
337,216,41543,1,0,0:0:0:0:
241,210,41877,1,8,0:0:0:0:
241,210,42043,1,8,0:0:0:0:
241,210,42210,1,0,0:0:0:0:
241,210,42377,1,0,0:0:0:0:
241,210,42543,1,8,0:0:0:0:
318,183,42710,1,8,0:0:0:0:
318,183,42877,1,4,0:0:0:0:
280,217,43210,1,8,0:0:0:0:
280,217,43377,1,4,0:0:0:0:
280,217,43877,1,8,0:0:0:0:
280,217,44043,1,4,0:0:0:0:
291,184,44377,1,12,0:0:0:0:
291,184,44543,1,12,0:0:0:0:
291,184,44710,1,12,0:0:0:0:
323,215,45210,1,8,0:0:0:0:
323,215,45543,1,4,0:0:0:0:
249,191,45710,1,0,0:0:0:0:
249,191,45793,1,0,0:0:0:0:
249,191,45877,1,8,0:0:0:0:
249,191,46043,1,8,0:0:0:0:
249,191,46210,1,0,0:0:0:0:
249,191,46377,1,8,0:0:0:0:
249,191,46460,1,0,0:0:0:0:
249,191,46543,1,8,0:0:0:0:
249,191,46710,1,8,0:0:0:0:
249,191,46793,1,8,0:0:0:0:
249,191,46877,1,0,0:0:0:0:
249,191,47210,1,0,0:0:0:0:
249,191,47377,1,8,0:0:0:0:
249,191,47543,1,0,0:0:0:0:
249,191,47710,1,8,0:0:0:0:
249,191,47793,1,8,0:0:0:0:
249,191,47877,1,0,0:0:0:0:
249,191,48043,1,0,0:0:0:0:
249,191,48127,1,0,0:0:0:0:
249,191,48210,1,8,0:0:0:0:
249,191,48377,1,0,0:0:0:0:
249,191,48543,1,8,0:0:0:0:
249,191,48710,1,0,0:0:0:0:
249,191,48793,1,0,0:0:0:0:
249,191,48877,1,8,0:0:0:0:
249,191,49043,1,8,0:0:0:0:
249,191,49127,1,8,0:0:0:0:
249,191,49210,1,0,0:0:0:0:
249,191,49377,1,8,0:0:0:0:
249,191,49543,1,0,0:0:0:0:
249,191,49877,1,8,0:0:0:0:
249,191,50043,1,8,0:0:0:0:
249,191,50210,1,0,0:0:0:0:
249,191,50377,1,0,0:0:0:0:
249,191,50460,1,0,0:0:0:0:
249,191,50543,1,8,0:0:0:0:
249,191,50710,1,8,0:0:0:0:
249,191,50877,1,0,0:0:0:0:
249,191,51043,1,0,0:0:0:0:
249,191,51127,1,0,0:0:0:0:
249,191,51210,1,0,0:0:0:0:
249,191,51377,1,8,0:0:0:0:
249,191,51460,1,8,0:0:0:0:
249,191,51543,1,0,0:0:0:0:
249,191,51709,1,0,0:0:0:0:
249,191,51793,1,0,0:0:0:0:
249,191,51876,1,8,0:0:0:0:
249,191,52043,1,8,0:0:0:0:
249,191,52210,1,0,0:0:0:0:
243,183,52377,1,8,0:0:0:0:
243,183,52460,1,8,0:0:0:0:
243,183,52543,1,8,0:0:0:0:
243,183,52710,1,0,0:0:0:0:
181,111,52793,1,0,0:0:0:0:
212,48,52876,1,8,0:0:0:0:
243,183,53043,1,8,0:0:0:0:
243,183,53127,1,8,0:0:0:0:
243,183,53210,1,0,0:0:0:0:
243,183,53377,1,0,0:0:0:0:
243,183,53543,1,8,0:0:0:0:
243,183,53877,1,8,0:0:0:0:
243,183,54043,1,0,0:0:0:0:
243,183,54127,1,0,0:0:0:0:
243,183,54210,1,8,0:0:0:0:
243,183,54377,1,0,0:0:0:0:
243,183,54543,1,8,0:0:0:0:
243,183,54710,1,8,0:0:0:0:
243,183,54793,1,8,0:0:0:0:
243,183,54877,1,0,0:0:0:0:
243,183,55043,1,8,0:0:0:0:
243,183,55210,1,8,0:0:0:0:
336,220,55377,1,0,0:0:0:0:
243,183,55460,1,0,0:0:0:0:
336,220,55543,1,0,0:0:0:0:
336,220,55710,1,12,0:0:0:0:
336,220,55877,1,12,0:0:0:0:
327,188,56209,1,4,0:0:0:0:
256,192,56377,1,8,0:0:0:0:
256,192,56460,1,8,0:0:0:0:
256,192,56543,1,0,0:0:0:0:
256,192,56710,1,0,0:0:0:0:
256,192,56877,1,8,0:0:0:0:
256,192,57043,1,0,0:0:0:0:
256,192,57127,1,0,0:0:0:0:
256,192,57210,1,8,0:0:0:0:
256,192,57377,1,8,0:0:0:0:
186,59,57460,1,8,0:0:0:0:
256,192,57543,1,0,0:0:0:0:
256,192,57877,1,0,0:0:0:0:
256,192,58043,1,0,0:0:0:0:
256,192,58127,1,0,0:0:0:0:
256,192,58210,1,8,0:0:0:0:
256,192,58377,1,8,0:0:0:0:
256,192,58460,1,8,0:0:0:0:
256,192,58543,1,0,0:0:0:0:
256,192,58710,1,0,0:0:0:0:
256,192,58877,1,8,0:0:0:0:
256,192,59043,1,0,0:0:0:0:
256,192,59127,1,0,0:0:0:0:
256,192,59210,1,8,0:0:0:0:
256,192,59377,1,8,0:0:0:0:
256,192,59460,1,0,0:0:0:0:
256,192,59543,1,8,0:0:0:0:
256,192,59710,1,0,0:0:0:0:
256,192,59877,1,8,0:0:0:0:
256,192,60043,1,8,0:0:0:0:
256,192,60127,1,8,0:0:0:0:
256,192,60210,1,0,0:0:0:0:
256,192,60543,1,8,0:0:0:0:
256,192,60710,1,8,0:0:0:0:
256,192,60877,1,0,0:0:0:0:
256,192,61043,1,8,0:0:0:0:
256,192,61127,1,8,0:0:0:0:
256,192,61210,1,0,0:0:0:0:
256,192,61377,1,0,0:0:0:0:
256,192,61543,1,8,0:0:0:0:
256,192,61710,1,0,0:0:0:0:
256,192,61793,1,0,0:0:0:0:
256,192,61877,1,8,0:0:0:0:
256,192,62043,1,0,0:0:0:0:
187,139,62127,1,0,0:0:0:0:
256,192,62209,1,8,0:0:0:0:
256,192,62376,1,0,0:0:0:0:
256,192,62459,1,0,0:0:0:0:
256,192,62543,1,8,0:0:0:0:
256,192,62710,1,8,0:0:0:0:
256,192,62877,1,0,0:0:0:0:
256,192,63043,1,8,0:0:0:0:
256,192,63127,1,8,0:0:0:0:
256,192,63209,1,0,0:0:0:0:
256,192,63377,1,8,0:0:0:0:
178,118,63459,1,8,0:0:0:0:
256,192,63543,1,0,0:0:0:0:
256,192,63710,1,8,0:0:0:0:
256,192,63793,1,8,0:0:0:0:
256,192,63877,1,0,0:0:0:0:
256,192,64043,1,0,0:0:0:0:
256,192,64210,1,12,0:0:0:0:
256,192,64460,1,8,0:0:0:0:
256,192,64543,1,0,0:0:0:0:
256,192,64710,1,12,0:0:0:0:
256,192,65043,1,8,0:0:0:0:
256,192,65210,1,4,0:0:0:0:
256,192,65543,1,12,0:0:0:0:
256,192,65710,5,0,0:0:0:0:
256,192,65877,1,0,0:0:0:0:
256,192,66043,1,8,0:0:0:0:
256,192,66127,1,8,0:0:0:0:
256,192,66210,1,0,0:0:0:0:
256,192,66377,1,0,0:0:0:0:
256,192,66543,1,8,0:0:0:0:
316,187,66710,1,8,0:0:0:0:
256,192,66876,5,4,0:0:0:0:
256,192,67210,1,4,0:0:0:0:
256,192,67377,1,8,0:0:0:0:
256,192,67543,1,4,0:0:0:0:
256,192,67710,1,8,0:0:0:0:
256,192,67877,1,4,0:0:0:0:
256,192,68043,1,8,0:0:0:0:
256,192,68210,1,4,0:0:0:0:
256,192,68543,1,12,0:0:0:0:
256,192,68710,1,0,0:0:0:0:
256,192,68877,1,12,0:0:0:0:
256,192,69043,1,0,0:0:0:0:
256,192,69210,1,12,0:0:0:0:
256,192,69377,1,0,0:0:0:0:
256,192,69543,1,12,0:0:0:0:
256,192,69877,1,12,0:0:0:0:
256,192,70043,1,0,0:0:0:0:
256,192,70210,1,12,0:0:0:0:
256,192,70377,1,12,0:0:0:0:
256,192,70543,1,12,0:0:0:0:
256,192,70710,1,0,0:0:0:0:
256,192,70877,1,12,0:0:0:0:
256,192,71210,1,4,0:0:0:0:
256,192,71377,1,8,0:0:0:0:
256,192,71543,1,4,0:0:0:0:
256,192,71710,1,4,0:0:0:0:
256,192,71877,1,4,0:0:0:0:
256,192,72043,1,8,0:0:0:0:
256,192,72210,1,4,0:0:0:0:
256,192,72543,1,12,0:0:0:0:
256,192,72710,1,0,0:0:0:0:
256,192,72877,1,12,0:0:0:0:
256,192,73043,1,12,0:0:0:0:
256,192,73210,1,12,0:0:0:0:
256,192,73377,1,0,0:0:0:0:
256,192,73543,1,12,0:0:0:0:
256,192,73877,1,4,0:0:0:0:
256,192,74043,1,8,0:0:0:0:
256,192,74210,1,4,0:0:0:0:
256,192,74377,1,4,0:0:0:0:
256,192,74543,1,4,0:0:0:0:
256,192,74710,1,8,0:0:0:0:
256,192,74877,1,4,0:0:0:0:
256,192,75210,1,4,0:0:0:0:
256,192,75377,1,0,0:0:0:0:
256,192,75543,1,12,0:0:0:0:
256,192,75710,1,12,0:0:0:0:
256,192,75877,1,12,0:0:0:0:
256,192,76043,1,8,0:0:0:0:
256,192,76210,1,4,0:0:0:0:
256,192,76543,1,12,0:0:0:0:
256,192,76710,1,8,0:0:0:0:
256,192,76877,1,4,0:0:0:0:
256,192,77043,1,4,0:0:0:0:
256,192,77210,1,4,0:0:0:0:
256,192,77377,1,0,0:0:0:0:
256,192,77543,1,12,0:0:0:0:
256,192,77877,1,12,0:0:0:0:
256,192,78043,1,0,0:0:0:0:
256,192,78210,1,12,0:0:0:0:
256,192,78377,1,12,0:0:0:0:
256,192,78543,1,12,0:0:0:0:
256,192,78710,1,0,0:0:0:0:
256,192,78877,1,12,0:0:0:0:
256,192,79210,1,4,0:0:0:0:
256,192,79377,1,8,0:0:0:0:
256,192,79543,1,4,0:0:0:0:
256,192,79710,1,4,0:0:0:0:
256,192,79876,1,4,0:0:0:0:
256,192,80043,1,8,0:0:0:0:
256,192,80210,1,4,0:0:0:0:
256,192,80544,1,4,0:0:0:0:
256,192,80710,1,8,0:0:0:0:
256,192,80877,1,4,0:0:0:0:
256,192,81044,1,12,0:0:0:0:
256,192,81210,1,4,0:0:0:0:
256,192,81377,1,8,0:0:0:0:
256,192,81544,1,4,0:0:0:0:
256,192,81877,1,12,0:0:0:0:
256,192,82044,1,0,0:0:0:0:
256,192,82210,1,12,0:0:0:0:
256,192,82377,1,4,0:0:0:0:
256,192,82544,1,12,0:0:0:0:
256,192,82710,1,0,0:0:0:0:
291,195,82876,1,8,0:0:0:0:
263,171,83210,1,0,0:0:0:0:
263,171,83543,1,0,0:0:0:0:
263,171,83877,1,0,0:0:0:0:
263,171,84210,1,8,0:0:0:0:
263,171,84543,1,8,0:0:0:0:
263,171,84710,1,8,0:0:0:0:
263,171,84877,1,0,0:0:0:0:
255,164,85210,1,0,0:0:0:0:
255,164,85377,1,0,0:0:0:0:
256,192,85543,12,0,86543,0:0:0:0:
