osu file format v14

[General]
AudioFilename: audio.mp3
AudioLeadIn: 0
PreviewTime: 44876
Countdown: 0
SampleSet: Normal
StackLeniency: 0.7
Mode: 1
LetterboxInBreaks: 0
WidescreenStoryboard: 1

[Editor]
DistanceSpacing: 2
BeatDivisor: 4
GridSize: 16
TimelineZoom: 0.7999989

[Metadata]
Title:Yubi Bouenkyou (TV Size)
TitleUnicode:指望遠鏡 (TV Size)
Artist:Nogizaka46
ArtistUnicode:乃木坂46
Creator:Raytoly
Version:Muzukashii
Source:マギ The labyrinth of magic
Tags:Rhytoly magi finger telescope ending ed anime japanese ban
BeatmapID:2189566
BeatmapSetID:1047484

[Difficulty]
HPDrainRate:6
CircleSize:5
OverallDifficulty:5
ApproachRate:5
SliderMultiplier:1.4
SliderTickRate:1

[Events]
//Background and Video events
0,0,"damn.jpg",0,75
//Break Periods
//Storyboard Layer 0 (Background)
//Storyboard Layer 1 (Fail)
//Storyboard Layer 2 (Pass)
//Storyboard Layer 3 (Foreground)
//Storyboard Layer 4 (Overlay)
//Storyboard Sound Samples

[TimingPoints]
211,333.333333333333,4,1,0,40,1,0
1544,333.333333333333,4,1,0,40,1,0
7710,-100,4,1,0,80,0,0
8210,333.333333333333,4,1,0,80,1,0
45543,-100,4,1,0,80,0,1
55543,-100,4,1,0,80,0,0
56209,-100,4,1,0,80,0,1
65543,-100,4,1,0,80,0,0
66876,-100,4,1,0,80,0,1
82876,-100,4,1,0,40,0,0

[HitObjects]
287,177,877,5,0,0:0:0:0:
287,177,1210,1,0,0:0:0:0:
242,130,1544,1,8,0:0:0:0:
301,200,2210,1,8,0:0:0:0:
301,200,2543,1,8,0:0:0:0:
301,200,2877,1,0,0:0:0:0:
291,217,3543,1,0,0:0:0:0:
291,217,3877,1,8,0:0:0:0:
291,217,4210,1,8,0:0:0:0:
291,217,4877,1,8,0:0:0:0:
291,217,5210,1,8,0:0:0:0:
291,217,5543,1,0,0:0:0:0:
275,201,7877,1,12,0:0:0:0:
253,202,8210,1,4,0:0:0:0:
253,202,8377,1,4,0:0:0:0:
253,202,8710,1,4,0:0:0:0:
253,202,9043,1,4,0:0:0:0:
253,202,9377,1,4,0:0:0:0:
247,173,9710,1,4,0:0:0:0:
247,173,10043,1,4,0:0:0:0:
257,192,10877,1,4,0:0:0:0:
257,192,11043,1,4,0:0:0:0:
257,192,11377,1,4,0:0:0:0:
257,192,11710,1,4,0:0:0:0:
257,192,12043,1,4,0:0:0:0:
214,189,12377,1,4,0:0:0:0:
214,189,12710,1,4,0:0:0:0:
188,184,13543,1,4,0:0:0:0:
300,200,13877,1,8,0:0:0:0:
300,200,14043,1,0,0:0:0:0:
300,200,14210,1,0,0:0:0:0:
300,200,14377,1,0,0:0:0:0:
300,200,14543,1,8,0:0:0:0:
300,200,14877,1,0,0:0:0:0:
249,211,15210,1,8,0:0:0:0:
249,211,15377,1,8,0:0:0:0:
249,211,15543,1,0,0:0:0:0:
249,211,15710,1,0,0:0:0:0:
249,211,15877,1,8,0:0:0:0:
249,211,16210,1,8,0:0:0:0:
220,154,16543,1,0,0:0:0:0:
220,154,16710,1,0,0:0:0:0:
220,154,16877,1,8,0:0:0:0:
220,154,17043,1,8,0:0:0:0:
220,154,17210,1,0,0:0:0:0:
220,154,17543,1,8,0:0:0:0:
329,207,17877,1,0,0:0:0:0:
329,207,18043,1,0,0:0:0:0:
329,207,18210,1,8,0:0:0:0:
160,137,18877,1,8,0:0:0:0:
255,187,19210,1,8,0:0:0:0:
255,187,19377,1,8,0:0:0:0:
255,187,19543,1,0,0:0:0:0:
255,187,19710,1,0,0:0:0:0:
255,187,19877,1,8,0:0:0:0:
255,187,20210,1,8,0:0:0:0:
203,150,20543,1,0,0:0:0:0:
206,222,20710,1,8,0:0:0:0:
206,222,20877,1,8,0:0:0:0:
206,222,21043,1,0,0:0:0:0:
206,222,21210,1,0,0:0:0:0:
206,222,21543,1,8,0:0:0:0:
290,245,21877,1,8,0:0:0:0:
290,245,22043,1,0,0:0:0:0:
290,245,22210,1,0,0:0:0:0:
290,245,22377,1,8,0:0:0:0:
235,139,22710,1,12,0:0:0:0:
240,178,23043,1,0,0:0:0:0:
244,185,23210,1,12,0:0:0:0:
244,185,23710,1,0,0:0:0:0:
244,185,23877,1,8,0:0:0:0:
179,19,24210,1,4,0:0:0:0:
289,194,24543,1,8,0:0:0:0:
289,194,24710,1,0,0:0:0:0:
289,194,24877,1,8,0:0:0:0:
289,194,25043,1,0,0:0:0:0:
230,204,25210,1,8,0:0:0:0:
230,204,25377,1,0,0:0:0:0:
289,194,25543,1,8,0:0:0:0:
286,233,25877,1,8,0:0:0:0:
286,233,26043,1,0,0:0:0:0:
286,233,26210,1,8,0:0:0:0:
286,233,26377,1,0,0:0:0:0:
286,233,26543,1,8,0:0:0:0:
286,233,26710,1,8,0:0:0:0:
286,233,26877,1,0,0:0:0:0:
316,243,27543,1,8,0:0:0:0:
316,243,27877,1,0,0:0:0:0:
316,243,28043,1,0,0:0:0:0:
316,243,28210,1,8,0:0:0:0:
240,178,28543,1,8,0:0:0:0:
240,178,28710,1,8,0:0:0:0:
240,178,28877,1,0,0:0:0:0:
214,69,29043,1,0,0:0:0:0:
214,69,29209,1,8,0:0:0:0:
214,69,29376,1,0,0:0:0:0:
292,271,29543,1,8,0:0:0:0:
283,238,29877,1,8,0:0:0:0:
283,238,30043,1,8,0:0:0:0:
283,238,30210,1,0,0:0:0:0:
283,238,30377,1,8,0:0:0:0:
283,238,30543,1,0,0:0:0:0:
283,238,30710,1,8,0:0:0:0:
283,238,30877,1,0,0:0:0:0:
226,196,31210,1,8,0:0:0:0:
226,196,31377,1,0,0:0:0:0:
226,196,31543,1,8,0:0:0:0:
226,196,31710,1,8,0:0:0:0:
226,196,31877,1,0,0:0:0:0:
226,196,32043,1,0,0:0:0:0:
226,196,32210,1,8,0:0:0:0:
306,171,32877,1,8,0:0:0:0:
306,171,33043,1,4,0:0:0:0:
306,171,33210,1,4,0:0:0:0:
306,171,33377,1,12,0:0:0:0:
250,207,33710,1,0,0:0:0:0:
250,207,33877,1,8,0:0:0:0:
250,207,34210,1,8,0:0:0:0:
250,207,34377,1,8,0:0:0:0:
292,142,34543,1,0,0:0:0:0:
250,207,34877,1,4,0:0:0:0:
255,168,35377,1,0,0:0:0:0:
255,168,35543,1,8,0:0:0:0:
288,197,35877,1,8,0:0:0:0:
288,197,36043,1,0,0:0:0:0:
307,197,36377,1,8,0:0:0:0:
308,218,36710,1,0,0:0:0:0:
308,218,36877,1,8,0:0:0:0:
254,191,37210,1,0,0:0:0:0:
254,191,37543,1,12,0:0:0:0:
255,182,38043,1,0,0:0:0:0:
255,182,38210,1,12,0:0:0:0:
254,191,38543,1,0,0:0:0:0:
255,187,38877,1,4,0:0:0:0:
236,216,39043,1,8,0:0:0:0:
236,216,39377,1,0,0:0:0:0:
236,216,39543,1,8,0:0:0:0:
236,216,39710,1,8,0:0:0:0:
236,216,39877,1,0,0:0:0:0:
236,216,40210,1,4,0:0:0:0:
337,216,40543,1,8,0:0:0:0:
337,216,40877,1,0,0:0:0:0:
337,216,41043,1,0,0:0:0:0:
337,216,41210,1,8,0:0:0:0:
337,216,41543,1,0,0:0:0:0:
241,210,41877,1,8,0:0:0:0:
241,210,42043,1,8,0:0:0:0:
241,210,42210,1,0,0:0:0:0:
241,210,42377,1,0,0:0:0:0:
241,210,42543,1,8,0:0:0:0:
318,183,42877,1,4,0:0:0:0:
280,217,43210,1,8,0:0:0:0:
280,217,43377,1,4,0:0:0:0:
280,217,43877,1,8,0:0:0:0:
280,217,44043,1,4,0:0:0:0:
291,184,44377,1,12,0:0:0:0:
291,184,44543,1,12,0:0:0:0:
291,184,44710,1,12,0:0:0:0:
323,215,45210,1,8,0:0:0:0:
323,215,45543,1,4,0:0:0:0:
249,191,45877,1,8,0:0:0:0:
249,191,46043,1,8,0:0:0:0:
249,191,46210,1,0,0:0:0:0:
249,191,46377,1,0,0:0:0:0:
249,191,46460,1,0,0:0:0:0:
249,191,46543,1,8,0:0:0:0:
249,191,46710,1,8,0:0:0:0:
249,191,46877,1,0,0:0:0:0:
249,191,47210,1,8,0:0:0:0:
249,191,47543,1,0,0:0:0:0:
249,191,47710,1,0,0:0:0:0:
249,191,47877,1,8,0:0:0:0:
249,191,48210,1,8,0:0:0:0:
249,191,48377,1,0,0:0:0:0:
249,191,48543,1,8,0:0:0:0:
249,191,48710,1,0,0:0:0:0:
249,191,48793,1,0,0:0:0:0:
249,191,48877,1,8,0:0:0:0:
249,191,49043,1,0,0:0:0:0:
249,191,49210,1,8,0:0:0:0:
249,191,49377,1,8,0:0:0:0:
249,191,49543,1,0,0:0:0:0:
249,191,50210,1,0,0:0:0:0:
249,191,50543,1,8,0:0:0:0:
249,191,50877,1,0,0:0:0:0:
249,191,51043,1,0,0:0:0:0:
249,191,51210,1,8,0:0:0:0:
249,191,51377,1,0,0:0:0:0:
249,191,51460,1,0,0:0:0:0:
249,191,51543,1,8,0:0:0:0:
249,191,51710,1,8,0:0:0:0:
249,191,51877,1,0,0:0:0:0:
249,191,52210,1,8,0:0:0:0:
249,191,52377,1,0,0:0:0:0:
243,183,52543,1,8,0:0:0:0:
243,183,52710,1,8,0:0:0:0:
243,183,52877,1,0,0:0:0:0:
243,183,53043,1,8,0:0:0:0:
243,183,53127,1,8,0:0:0:0:
243,183,53210,1,0,0:0:0:0:
243,183,53543,1,8,0:0:0:0:
243,183,53710,1,0,0:0:0:0:
243,183,53877,1,8,0:0:0:0:
243,183,54043,1,0,0:0:0:0:
243,183,54127,1,0,0:0:0:0:
243,183,54210,1,8,0:0:0:0:
243,183,54377,1,0,0:0:0:0:
243,183,54543,1,8,0:0:0:0:
243,183,54710,1,8,0:0:0:0:
243,183,54877,1,0,0:0:0:0:
336,220,55543,1,0,0:0:0:0:
217,129,55877,1,8,0:0:0:0:
327,188,56210,1,4,0:0:0:0:
256,192,56543,1,0,0:0:0:0:
256,192,56710,1,0,0:0:0:0:
256,192,56877,1,8,0:0:0:0:
256,192,57043,1,0,0:0:0:0:
256,192,57127,1,0,0:0:0:0:
256,192,57210,1,8,0:0:0:0:
256,192,57377,1,8,0:0:0:0:
256,192,57543,1,0,0:0:0:0:
256,192,57877,1,0,0:0:0:0:
256,192,58210,1,8,0:0:0:0:
256,192,58377,1,8,0:0:0:0:
256,192,58543,1,0,0:0:0:0:
256,192,58877,1,8,0:0:0:0:
256,192,59043,1,0,0:0:0:0:
256,192,59210,1,8,0:0:0:0:
256,192,59377,1,0,0:0:0:0:
256,192,59460,1,0,0:0:0:0:
256,192,59543,1,8,0:0:0:0:
256,192,59710,1,0,0:0:0:0:
256,192,59877,1,8,0:0:0:0:
256,192,60043,1,8,0:0:0:0:
256,192,60210,1,0,0:0:0:0:
256,192,60877,1,0,0:0:0:0:
256,192,61210,1,8,0:0:0:0:
256,192,61543,1,8,0:0:0:0:
256,192,61710,1,0,0:0:0:0:
256,192,61877,1,8,0:0:0:0:
256,192,62043,1,0,0:0:0:0:
187,139,62127,1,0,0:0:0:0:
256,192,62210,1,8,0:0:0:0:
256,192,62377,1,0,0:0:0:0:
256,192,62543,1,8,0:0:0:0:
256,192,62877,1,0,0:0:0:0:
256,192,63043,1,0,0:0:0:0:
256,192,63210,1,8,0:0:0:0:
256,192,63377,1,8,0:0:0:0:
256,192,63543,1,0,0:0:0:0:
256,192,63710,1,8,0:0:0:0:
256,192,63793,1,8,0:0:0:0:
256,192,63877,1,0,0:0:0:0:
256,192,64043,1,0,0:0:0:0:
256,192,64210,1,12,0:0:0:0:
256,192,64710,1,12,0:0:0:0:
256,192,65210,1,4,0:0:0:0:
256,192,65543,1,12,0:0:0:0:
256,192,65877,1,0,0:0:0:0:
256,192,66043,1,8,0:0:0:0:
256,192,66210,1,0,0:0:0:0:
256,192,66377,1,0,0:0:0:0:
256,192,66543,1,8,0:0:0:0:
316,187,66710,1,8,0:0:0:0:
256,192,66877,5,4,0:0:0:0:
256,192,67210,1,4,0:0:0:0:
256,192,67543,1,12,0:0:0:0:
256,192,67877,1,12,0:0:0:0:
256,192,68210,1,4,0:0:0:0:
256,192,68543,1,4,0:0:0:0:
256,192,68877,1,4,0:0:0:0:
256,192,69210,1,4,0:0:0:0:
256,192,69543,1,12,0:0:0:0:
256,192,69877,1,12,0:0:0:0:
256,192,70210,1,12,0:0:0:0:
256,192,70377,1,12,0:0:0:0:
256,192,70543,1,12,0:0:0:0:
256,192,70877,1,4,0:0:0:0:
256,192,71210,1,4,0:0:0:0:
256,192,71543,1,4,0:0:0:0:
256,192,71710,1,4,0:0:0:0:
256,192,71877,1,4,0:0:0:0:
256,192,72210,1,12,0:0:0:0:
256,192,72543,1,12,0:0:0:0:
256,192,72877,1,12,0:0:0:0:
256,192,73043,1,12,0:0:0:0:
256,192,73210,1,12,0:0:0:0:
256,192,73543,1,4,0:0:0:0:
256,192,73877,1,4,0:0:0:0:
256,192,74210,1,4,0:0:0:0:
256,192,74377,1,4,0:0:0:0:
256,192,74543,1,4,0:0:0:0:
256,192,74877,1,12,0:0:0:0:
256,192,75210,1,4,0:0:0:0:
256,192,75543,1,12,0:0:0:0:
256,192,75710,1,12,0:0:0:0:
256,192,75877,1,4,0:0:0:0:
256,192,76210,1,4,0:0:0:0:
256,192,76543,1,12,0:0:0:0:
256,192,76877,1,4,0:0:0:0:
256,192,77043,1,4,0:0:0:0:
256,192,77210,1,12,0:0:0:0:
256,192,77543,1,12,0:0:0:0:
256,192,77877,1,12,0:0:0:0:
256,192,78210,1,12,0:0:0:0:
256,192,78377,1,12,0:0:0:0:
256,192,78543,1,12,0:0:0:0:
256,192,78876,1,4,0:0:0:0:
256,192,79210,1,4,0:0:0:0:
256,192,79543,1,4,0:0:0:0:
256,192,79710,1,4,0:0:0:0:
256,192,79876,1,4,0:0:0:0:
256,192,80210,1,12,0:0:0:0:
256,192,80544,1,4,0:0:0:0:
256,192,80877,1,4,0:0:0:0:
256,192,81044,1,4,0:0:0:0:
256,192,81210,1,12,0:0:0:0:
256,192,81544,1,4,0:0:0:0:
256,192,81877,1,12,0:0:0:0:
256,192,82210,1,12,0:0:0:0:
256,192,82377,1,12,0:0:0:0:
256,192,82544,1,4,0:0:0:0:
291,195,82877,1,8,0:0:0:0:
263,171,83210,5,0,0:0:0:0:
263,171,83543,1,0,0:0:0:0:
263,171,83877,1,0,0:0:0:0:
263,171,84210,1,8,0:0:0:0:
263,171,84543,1,8,0:0:0:0:
263,171,84710,1,8,0:0:0:0:
263,171,84877,1,0,0:0:0:0:
255,164,85210,1,0,0:0:0:0:
255,164,85377,1,0,0:0:0:0:
256,192,85543,12,0,86543,0:0:0:0:
