osu file format v14

[General]
AudioFilename: audio.mp3
AudioLeadIn: 0
PreviewTime: 44876
Countdown: 0
SampleSet: Normal
StackLeniency: 0.7
Mode: 1
LetterboxInBreaks: 0
WidescreenStoryboard: 1

[Editor]
DistanceSpacing: 2
BeatDivisor: 4
GridSize: 16
TimelineZoom: 0.3999989

[Metadata]
Title:Yubi Bouenkyou (TV Size)
TitleUnicode:指望遠鏡 (TV Size)
Artist:Nogizaka46
ArtistUnicode:乃木坂46
Creator:Raytoly
Version:Kantan
Source:マギ The labyrinth of magic
Tags:Rhytoly magi finger telescope ending ed anime japanese ban
BeatmapID:2189652
BeatmapSetID:1047484

[Difficulty]
HPDrainRate:7
CircleSize:5
OverallDifficulty:3
ApproachRate:5
SliderMultiplier:1.4
SliderTickRate:1

[Events]
//Background and Video events
0,0,"damn.jpg",0,75
//Break Periods
//Storyboard Layer 0 (Background)
//Storyboard Layer 1 (Fail)
//Storyboard Layer 2 (Pass)
//Storyboard Layer 3 (Foreground)
//Storyboard Layer 4 (Overlay)
//Storyboard Sound Samples

[TimingPoints]
211,333.333333333333,4,1,0,40,1,0
1544,333.333333333333,4,1,0,40,1,0
8210,333.333333333333,4,1,0,80,1,0
45543,-100,4,1,0,80,0,1
55543,-100,4,1,0,80,0,0
56209,-100,4,1,0,80,0,1
65543,-100,4,1,0,80,0,0
66876,-100,4,1,0,80,0,1
82876,-100,4,1,0,40,0,0

[HitObjects]
242,130,1544,5,8,0:0:0:0:
301,200,2877,1,0,0:0:0:0:
291,217,4210,1,8,0:0:0:0:
291,217,5543,1,0,0:0:0:0:
253,202,8210,1,0,0:0:0:0:
253,202,8710,1,0,0:0:0:0:
253,202,9377,1,0,0:0:0:0:
253,211,10043,1,0,0:0:0:0:
257,192,10877,1,0,0:0:0:0:
257,192,11377,1,0,0:0:0:0:
257,192,12043,1,0,0:0:0:0:
219,130,12710,1,0,0:0:0:0:
188,184,13543,1,4,0:0:0:0:
300,200,14210,1,0,0:0:0:0:
300,200,14543,1,8,0:0:0:0:
300,200,14877,1,0,0:0:0:0:
249,211,15543,1,0,0:0:0:0:
249,211,15877,1,0,0:0:0:0:
249,211,16210,1,8,0:0:0:0:
220,154,16877,1,8,0:0:0:0:
220,154,17210,1,0,0:0:0:0:
220,154,17543,1,8,0:0:0:0:
160,137,18877,1,8,0:0:0:0:
255,187,19543,1,0,0:0:0:0:
255,187,19877,1,8,0:0:0:0:
255,187,20210,1,8,0:0:0:0:
206,222,20877,1,8,0:0:0:0:
206,222,21210,1,0,0:0:0:0:
206,222,21543,1,8,0:0:0:0:
290,245,22210,1,0,0:0:0:0:
235,139,22710,1,12,0:0:0:0:
244,185,23877,1,8,0:0:0:0:
185,21,24210,1,4,0:0:0:0:
295,196,24877,1,8,0:0:0:0:
236,206,25210,1,8,0:0:0:0:
295,196,25543,1,0,0:0:0:0:
292,235,25877,1,8,0:0:0:0:
292,235,26210,1,0,0:0:0:0:
292,235,26877,1,0,0:0:0:0:
322,245,27543,1,8,0:0:0:0:
322,245,27877,1,8,0:0:0:0:
322,245,28210,1,0,0:0:0:0:
298,273,29543,1,8,0:0:0:0:
289,240,30210,1,0,0:0:0:0:
289,240,30543,1,8,0:0:0:0:
289,240,30877,1,0,0:0:0:0:
232,198,31210,1,0,0:0:0:0:
232,198,31543,1,8,0:0:0:0:
232,198,32210,1,8,0:0:0:0:
312,173,32877,1,8,0:0:0:0:
312,173,33377,1,12,0:0:0:0:
256,209,34210,1,8,0:0:0:0:
256,209,34877,1,4,0:0:0:0:
261,170,35543,1,8,0:0:0:0:
308,218,36877,1,8,0:0:0:0:
254,191,37543,1,12,0:0:0:0:
255,182,38210,1,12,0:0:0:0:
255,187,38877,1,4,0:0:0:0:
236,216,40210,1,4,0:0:0:0:
337,216,40877,1,0,0:0:0:0:
337,216,41210,1,8,0:0:0:0:
337,216,41543,1,0,0:0:0:0:
241,210,41877,1,0,0:0:0:0:
241,210,42210,1,8,0:0:0:0:
318,183,42877,1,4,0:0:0:0:
280,217,43377,1,4,0:0:0:0:
280,217,44043,1,4,0:0:0:0:
323,215,45543,1,4,0:0:0:0:
249,191,45877,1,8,0:0:0:0:
249,191,46210,1,0,0:0:0:0:
249,191,46543,1,8,0:0:0:0:
249,191,46877,1,0,0:0:0:0:
249,191,47543,1,0,0:0:0:0:
249,191,47877,1,8,0:0:0:0:
249,191,48210,1,8,0:0:0:0:
249,191,48543,1,0,0:0:0:0:
249,191,48877,1,8,0:0:0:0:
249,191,49210,1,8,0:0:0:0:
249,191,49543,1,0,0:0:0:0:
249,191,50877,1,0,0:0:0:0:
249,191,51210,1,8,0:0:0:0:
249,191,51543,1,8,0:0:0:0:
249,191,51877,1,0,0:0:0:0:
249,191,52210,1,8,0:0:0:0:
243,183,52877,1,0,0:0:0:0:
243,183,53210,1,0,0:0:0:0:
243,183,53543,1,8,0:0:0:0:
243,183,53877,1,0,0:0:0:0:
243,183,54210,1,8,0:0:0:0:
243,183,54543,1,8,0:0:0:0:
243,183,54877,1,0,0:0:0:0:
327,188,56210,1,4,0:0:0:0:
242,42,56543,1,0,0:0:0:0:
256,192,56877,1,8,0:0:0:0:
256,192,57210,1,8,0:0:0:0:
256,192,57543,1,0,0:0:0:0:
256,192,58210,1,8,0:0:0:0:
256,192,58543,1,0,0:0:0:0:
256,192,58877,1,8,0:0:0:0:
256,192,59210,1,8,0:0:0:0:
256,192,59543,1,0,0:0:0:0:
256,192,59877,1,8,0:0:0:0:
256,192,60210,1,0,0:0:0:0:
256,192,61543,1,8,0:0:0:0:
256,192,61877,1,8,0:0:0:0:
256,192,62210,1,0,0:0:0:0:
256,192,62543,1,0,0:0:0:0:
256,192,62877,1,8,0:0:0:0:
256,192,63543,1,0,0:0:0:0:
256,192,63876,1,0,0:0:0:0:
256,192,64210,1,8,0:0:0:0:
256,192,64710,1,8,0:0:0:0:
256,192,65210,1,0,0:0:0:0:
256,192,65543,1,12,0:0:0:0:
256,192,66877,5,4,0:0:0:0:
256,192,67543,1,8,0:0:0:0:
256,192,67877,1,8,0:0:0:0:
256,192,68210,1,0,0:0:0:0:
256,192,68877,1,0,0:0:0:0:
256,192,69210,1,0,0:0:0:0:
256,192,69543,1,8,0:0:0:0:
108,94,69877,1,0,0:0:0:0:
256,192,70210,1,8,0:0:0:0:
256,192,70543,1,8,0:0:0:0:
256,192,70877,1,0,0:0:0:0:
256,192,72210,1,8,0:0:0:0:
256,192,72877,1,0,0:0:0:0:
256,192,73210,1,8,0:0:0:0:
256,192,73543,1,0,0:0:0:0:
256,192,74210,1,0,0:0:0:0:
256,192,74543,1,0,0:0:0:0:
256,192,74877,1,8,0:0:0:0:
181,122,75210,1,0,0:0:0:0:
256,192,75543,1,8,0:0:0:0:
172,122,75877,1,8,0:0:0:0:
256,192,76210,1,0,0:0:0:0:
256,192,77543,1,8,0:0:0:0:
256,192,78210,1,0,0:0:0:0:
256,192,78543,1,8,0:0:0:0:
256,192,78876,1,0,0:0:0:0:
256,192,79543,1,8,0:0:0:0:
256,192,79876,1,0,0:0:0:0:
256,192,80210,1,8,0:0:0:0:
138,111,80543,1,8,0:0:0:0:
256,192,80877,1,0,0:0:0:0:
256,192,81210,1,0,0:0:0:0:
256,192,81544,1,8,0:0:0:0:
256,192,82877,12,0,86543,0:0:0:0:
