osu file format v14

[General]
AudioFilename: audio.mp3
AudioLeadIn: 0
PreviewTime: 91886
Countdown: 0
SampleSet: Soft
StackLeniency: 0.5
Mode: 0
LetterboxInBreaks: 0
WidescreenStoryboard: 1

[Editor]
Bookmarks: 117969,123302,128635
DistanceSpacing: 0.9
BeatDivisor: 4
GridSize: 32
TimelineZoom: 1.5

[Metadata]
Title:Yubi Bouenkyou
TitleUnicode:指望遠鏡
Artist:Nogizaka46
ArtistUnicode:乃木坂46
Creator:A r M i N
Version:Reform's Another
Source:マギ The labyrinth of magic
Tags:short cut version Armin A_r_M_i_N Sotarks Basensorex Kowari Nevo Reform Kujinn Ron [R] ed ending japanese pop j-pop magi アニメ版 Anime-Ban Anime Ban
BeatmapID:2450629
BeatmapSetID:1164077

[Difficulty]
HPDrainRate:5.5
CircleSize:3.5
OverallDifficulty:8.7
ApproachRate:9
SliderMultiplier:1.70000000596046
SliderTickRate:1

[Events]
//Background and Video events
0,0,"cropped-1920-1080-713375.jpg",0,0
//Break Periods
2,80670,88036
//Storyboard Layer 0 (Background)
//Storyboard Layer 1 (Fail)
//Storyboard Layer 2 (Pass)
//Storyboard Layer 3 (Foreground)
//Storyboard Layer 4 (Overlay)
//Storyboard Sound Samples

[TimingPoints]
637,333.333333333333,4,2,1,80,1,0
1303,-200,4,2,1,40,0,0
1970,-142.857142857143,4,2,1,50,0,0
5970,-333.333333333334,4,2,1,50,0,0
7303,-333.333333333334,4,2,1,10,0,0
8136,-333.333333333334,4,2,1,60,0,0
8303,-83.3333333333333,4,2,1,65,0,0
8553,-83.3333333333333,4,2,1,5,0,0
8636,-100,4,2,1,75,0,0
10720,-100,4,2,1,5,0,0
10803,-100,4,2,1,75,0,0
11970,-100,4,2,1,25,0,0
12136,-100,4,2,1,75,0,0
12636,-100,4,2,1,25,0,0
12803,-100,4,2,1,75,0,0
13386,-100,4,2,1,5,0,0
13470,-100,4,2,1,75,0,0
13970,-125,4,2,1,65,0,0
21886,-125,4,2,1,5,0,0
21970,-125,4,2,1,65,0,0
24636,-111.111111111111,4,2,1,65,0,0
32886,-111.111111111111,4,2,1,5,0,0
32970,-111.111111111111,4,2,1,65,0,0
35303,-125,4,2,1,60,0,0
40553,-125,4,2,1,5,0,0
40636,-100,4,2,1,70,0,0
43220,-100,4,2,1,5,0,0
43303,-100,4,2,1,70,0,0
44970,-100,4,2,1,80,0,0
45970,-100,4,2,1,70,0,0
46970,-83.3333333333333,4,2,1,75,0,0
47220,-83.3333333333333,4,2,1,5,0,0
47303,-90.9090909090909,4,2,1,80,0,1
68636,-111.111111111111,4,2,1,70,0,0
73970,-100,4,2,1,75,0,0
76636,-90.9090909090909,4,2,1,80,0,1
79636,-90.9090909090909,4,2,1,85,0,1
80636,-166.666666666667,4,2,1,60,0,0
88636,-100,4,2,1,70,0,0
92303,-83.3333333333333,4,2,1,75,0,0
92553,-83.3333333333333,4,2,1,5,0,0
92636,-90.9090909090909,4,2,1,80,0,1
111303,-83.3333333333333,4,2,1,70,0,0
112636,-100,4,2,1,70,0,0
113970,-83.3333333333333,4,2,1,80,0,1
132636,-83.3333333333333,4,2,1,75,0,1
135303,-100,4,2,1,70,0,0
140636,-166.666666666667,4,2,1,50,0,0
144803,-166.666666666667,4,2,1,5,0,0

[Colours]
Combo1 : 199,199,199
Combo2 : 89,111,159
Combo3 : 234,210,115
Combo4 : 133,13,3

[HitObjects]
124,124,1303,6,0,P|164:133|184:138,1,42.5000001490115,2|0,0:0|0:0,0:0:0:0:
235,198,1636,2,0,P|255:193|276:188,1,42.5000001490115,2|0,0:0|0:0,0:0:0:0:
350,136,1970,2,0,P|369:92|336:14,1,118.99999678564,2|2,0:0|0:0,0:0:0:0:
165,133,2636,2,0,P|146:177|179:255,1,118.99999678564,2|2,0:0|0:0,0:0:0:0:
425,300,3303,6,0,B|360:266|291:307|338:329|271:371|202:332,1,237.999993571281,2|2,0:0|0:0,0:0:0:0:
377,373,4303,1,2,0:0:0:0:
252,266,4636,2,0,P|227:215|269:145,1,118.99999678564,2|2,0:0|0:0,0:0:0:0:
408,45,5303,2,0,P|433:96|391:166,1,118.99999678564,2|2,0:0|0:0,0:0:0:0:
40,57,5970,6,0,B|117:12|210:66|150:93|243:146|323:98,1,305.999991734504,2|0,0:0|0:0,0:0:0:0:
444,19,8136,5,0,3:0:0:0:
444,19,8219,1,0,3:0:0:0:
444,19,8303,2,0,P|422:70|446:130,1,101.999997244835,12|0,0:0|0:0,0:0:0:0:
512,218,8636,5,4,3:2:0:0:
422,343,8803,2,0,P|360:331|314:327,1,85.000000298023,0|8,3:3|0:0,0:0:0:0:
221,164,9136,2,0,P|280:148|362:236,1,170.000000596046,4|0,3:2|3:3,0:0:0:0:
248,316,9636,1,8,0:0:0:0:
103,162,9803,6,0,P|113:223|132:354,1,170.000000596046,4|0,3:2|3:0,0:0:0:0:
260,165,10303,1,8,0:0:0:0:
158,55,10470,2,0,P|99:39|17:127,1,170.000000596046,4|8,3:2|0:3,0:0:0:0:
282,146,10970,2,0,P|294:93|307:49,1,85.000000298023,8|4,0:0|0:3,0:0:0:0:
68,229,11303,5,4,3:2:0:0:
165,7,11470,2,0,P|176:47|185:89,1,85.000000298023,0|8,3:0|0:0,0:0:0:0:
241,288,11803,2,0,P|190:265|146:255,1,85.000000298023,4|0,3:2|0:0,0:0:0:0:
15,155,12136,2,0,P|66:132|110:122,1,85.000000298023,0|8,3:0|0:0,0:0:0:0:
294,184,12470,6,0,P|303:142|314:101,1,85.000000298023,4|0,3:2|0:0,0:0:0:0:
484,22,12803,2,0,P|495:62|504:104,1,85.000000298023,0|8,3:0|0:0,0:0:0:0:
332,301,13136,2,0,P|351:236|474:231,1,170.000000596046,4|8,3:2|0:3,0:0:0:0:
490,362,13636,1,12,0:0:0:0:
490,362,13970,6,0,P|428:370|327:386,1,136.000000476837,4|10,3:2|0:0,0:0:0:0:
229,297,14470,1,0,0:0:0:0:
382,197,14636,2,0,P|374:236|364:291,1,68.0000002384184,2|0,3:2|3:0,0:0:0:0:
244,181,14970,2,0,P|237:147|230:114,1,68.0000002384184,10|2,0:0|0:0,0:0:0:0:
480,34,15303,6,0,P|442:68|340:38,1,136.000000476837,0|10,3:0|0:0,0:0:0:0:
245,2,15803,1,2,0:0:0:0:
168,136,15970,2,0,P|132:145|85:156,1,68.0000002384184,2|0,3:2|3:0,0:0:0:0:
298,189,16303,1,10,0:0:0:0:
212,29,16470,2,0,P|178:21|145:12,1,68.0000002384184,2|0,0:0|3:0,0:0:0:0:
334,109,16803,5,2,0:0:0:0:
167,192,16970,1,10,0:0:0:0:
338,259,17136,1,2,0:0:0:0:
193,101,17303,2,0,P|159:108|127:117,1,68.0000002384184,2|2,3:2|3:2,0:0:0:0:
231,284,17636,1,10,0:0:0:0:
347,144,17803,6,0,P|381:151|413:160,1,68.0000002384184,2|0,0:0|3:0,0:0:0:0:
311,349,18136,1,2,0:0:0:0:
269,204,18303,1,10,0:0:0:0:
393,309,18470,1,2,3:2:0:0:
393,309,18553,1,0,3:0:0:0:
393,309,18636,2,0,P|399:267|406:227,1,68.0000002384184,2|2,3:2|3:2,0:0:0:0:
238,149,18970,2,0,P|243:182|248:216,1,68.0000002384184,8|0,0:0|0:0,0:0:0:0:
438,69,19303,6,0,P|411:41|310:47,1,136.000000476837,0|10,3:0|0:0,0:0:0:0:
353,164,19803,1,2,0:0:0:0:
210,72,19970,2,0,P|214:38|220:4,1,68.0000002384184,2|0,3:2|0:0,0:0:0:0:
96,137,20303,1,8,0:0:0:0:
212,219,20470,6,0,P|256:208|308:199,1,68.0000002384184,2|0,0:0|3:2,0:0:0:0:
111,302,20803,2,0,P|77:295|44:286,1,68.0000002384184,2|8,0:0|0:0,0:0:0:0:
212,384,21136,2,0,P|270:377|298:285,1,136.000000476837,2|0,0:0|3:0,0:0:0:0:
182,164,21636,2,0,P|190:209|196:254,1,68.0000002384184,8|0,0:0|0:0,0:0:0:0:
353,132,21970,5,0,3:0:0:0:
254,29,22136,2,0,P|246:74|240:119,1,68.0000002384184,2|10,0:0|0:0,0:0:0:0:
309,219,22470,1,2,0:0:0:0:
401,0,22636,2,0,P|409:45|415:90,1,68.0000002384184,2|2,3:2|3:2,0:0:0:0:
360,196,22970,1,2,0:0:0:0:
203,29,23136,6,0,P|157:28|96:115,1,136.000000476837,12|0,0:0|3:0,0:0:0:0:
202,214,23636,1,8,0:0:0:0:
300,92,23803,1,2,0:0:0:0:
300,92,23886,1,8,0:0:0:0:
300,92,23970,2,0,P|346:100|391:110,1,68.0000002384184,0|0,3:0|3:0,0:0:0:0:
285,282,24303,2,0,P|251:287|218:294,1,68.0000002384184,8|0,0:0|0:0,0:0:0:0:
71,165,24636,5,4,3:2:0:0:
71,165,24970,2,0,P|81:208|90:259,1,76.499997933626,10|0,0:0|0:0,0:0:0:0:
237,63,25303,2,0,P|227:106|218:157,1,76.499997933626,2|0,3:2|3:0,0:0:0:0:
121,69,25636,1,10,0:0:0:0:
208,237,25803,6,0,P|256:224|292:216,1,76.499997933626,2|0,0:0|3:0,0:0:0:0:
127,51,26136,2,0,P|79:38|43:30,1,76.499997933626,2|10,0:0|0:0,0:0:0:0:
105,195,26470,1,2,0:0:0:0:
259,88,26636,2,0,P|307:75|343:67,1,76.499997933626,2|0,3:2|3:0,0:0:0:0:
335,263,26970,1,10,0:0:0:0:
179,165,27136,1,2,0:0:0:0:
405,188,27303,5,8,3:2:0:0:
134,301,27470,1,8,3:2:0:0:
120,297,27970,5,8,3:2:0:0:
384,369,28137,1,8,3:2:0:0:
393,384,28636,5,8,3:2:0:0:
343,103,28803,1,8,3:2:0:0:
327,88,29303,5,8,3:2:0:0:
277,369,29470,1,4,0:3:0:0:
192,178,29636,5,8,0:2:0:0:
323,277,29803,1,8,0:0:0:0:
323,277,29886,1,8,0:0:0:0:
323,277,29970,2,0,P|363:269|400:264,1,76.499997933626,4|0,3:2|0:0,0:0:0:0:
289,107,30303,2,0,P|249:99|212:94,1,76.499997933626,10|0,0:0|0:0,0:0:0:0:
120,245,30636,2,0,P|157:237|195:232,1,76.499997933626,2|0,3:2|3:0,0:0:0:0:
81,75,30970,1,10,0:0:0:0:
22,238,31136,6,0,P|14:189|5:142,1,76.499997933626,2|0,0:0|3:0,0:0:0:0:
187,61,31470,2,0,P|180:98|174:136,1,76.499997933626,2|8,0:0|0:0,0:0:0:0:
89,79,31803,1,2,0:0:0:0:
255,163,31970,1,0,3:0:0:0:
86,233,32136,1,0,3:0:0:0:
203,46,32303,2,0,P|244:37|288:31,1,76.499997933626,8|0,0:0|0:0,0:0:0:0:
463,184,32636,5,0,3:0:0:0:
463,184,32970,2,0,P|450:243|435:319,1,114.749996900439,14|0,0:0|0:0,0:0:0:0:
432,333,33303,1,10,0:0:0:0:
342,206,33470,1,2,3:2:0:0:
260,321,33636,1,10,0:0:0:0:
169,90,33803,6,0,P|182:149|204:253,1,152.999995867252,6|0,3:2|3:0,0:0:0:0:
328,111,34303,1,8,0:0:0:0:
246,20,34470,1,8,0:0:0:0:
246,20,34553,1,8,0:0:0:0:
246,20,34636,2,0,P|203:8|151:0,1,76.499997933626,8|8,0:0|0:0,0:0:0:0:
258,163,34970,1,8,0:3:0:0:
333,53,35136,1,4,0:3:0:0:
157,94,35303,6,0,P|141:138|188:229,1,136.000000476837,4|2,3:2|0:0,0:0:0:0:
266,274,35803,1,0,3:0:0:0:
190,356,35970,2,0,P|136:342|36:321,1,136.000000476837,10|2,0:0|0:0,0:0:0:0:
8,221,36470,1,0,3:0:0:0:
8,221,36636,6,0,P|53:212|101:205,1,68.0000002384184,2|8,0:0|0:0,0:0:0:0:
203,96,36970,2,0,P|158:87|110:80,1,68.0000002384184,2|0,0:0|3:0,0:0:0:0:
156,248,37303,2,0,P|165:198|173:156,1,68.0000002384184,10|0,0:0|0:0,0:0:0:0:
10,53,37636,2,0,P|16:86|22:119,1,68.0000002384184,2|0,3:2|0:0,0:0:0:0:
151,70,37970,6,0,P|198:61|310:48,1,136.000000476837,6|2,3:2|0:0,0:0:0:0:
368,118,38470,1,0,3:0:0:0:
294,194,38636,2,0,P|253:180|220:171,1,68.0000002384184,12|0,0:0|0:0,0:0:0:0:
335,290,38970,1,2,3:2:0:0:
335,290,39136,1,2,0:0:0:0:
465,214,39303,6,0,P|452:274|433:369,1,136.000000476837,12|0,0:0|0:0,0:0:0:0:
324,205,39803,1,0,3:0:0:0:
324,205,39886,1,8,0:0:0:0:
324,205,39970,1,8,0:0:0:0:
425,132,40136,1,8,0:0:0:0:
351,53,40303,2,0,P|316:45|270:37,1,68.0000002384184,8|0,0:3|0:0,0:0:0:0:
186,231,40636,6,0,P|195:185|205:139,1,85.000000298023,4|0,3:2|0:0,0:0:0:0:
63,52,40970,2,0,P|71:93|80:135,1,85.000000298023,10|0,0:0|0:0,0:0:0:0:
256,55,41303,1,2,3:2:0:0:
144,11,41470,1,0,3:0:0:0:
211,165,41636,2,0,P|254:152|303:140,1,85.000000298023,10|0,0:0|0:0,0:0:0:0:
134,263,41970,6,0,P|91:250|42:238,1,85.000000298023,2|0,3:2|0:0,0:0:0:0:
166,374,42303,1,10,0:0:0:0:
266,212,42470,1,0,3:0:0:0:
266,212,42553,1,8,0:2:0:0:
266,212,42636,2,0,P|280:264|293:325,1,85.000000298023,0|0,3:0|3:2,0:0:0:0:
415,135,42970,2,0,P|424:93|435:52,1,85.000000298023,10|0,0:2|0:0,0:0:0:0:
500,268,43303,6,0,P|460:316|351:300,1,170.000000596046,4|8,3:2|0:0,0:0:0:0:
331,55,43803,2,0,P|348:122|369:237,1,170.000000596046,4|0,3:2|0:0,0:0:0:0:
450,90,44303,1,8,0:0:0:0:
248,187,44470,6,0,P|176:187|121:287,1,170.000000596046,4|8,3:2|3:2,0:0:0:0:
279,296,44970,1,8,3:2:0:0:
214,97,45136,1,8,3:2:0:0:
248,318,45303,1,8,3:2:0:0:
372,120,45470,1,8,3:2:0:0:
307,366,45636,1,12,0:0:0:0:
307,366,45970,6,0,P|272:357|244:355,3,42.5000001490115,8|8|0|0,0:0|0:0|3:0|3:0,0:0:0:0:
377,271,46303,2,0,P|412:262|440:260,3,42.5000001490115,8|8|4|4,0:3|0:3|0:3|0:3,0:0:0:0:
255,229,46636,1,4,0:3:0:0:
255,229,46720,1,4,0:3:0:0:
255,229,46803,2,0,P|248:187|246:160,1,42.5000001490115,4|4,0:3|0:3,0:0:0:0:
322,74,46970,6,0,P|371:60|456:157,1,152.999995867252,4|0,3:2|0:0,0:0:0:0:
453,153,47303,6,0,P|435:196|422:264,1,93.500003181219,6|0,3:2|0:0,0:0:0:0:
244,122,47636,2,0,P|233:76|215:33,1,93.500003181219,8|0,0:0|0:0,0:0:0:0:
167,269,47970,1,2,3:2:0:0:
333,201,48136,1,0,0:0:0:0:
145,110,48303,2,0,P|96:122|58:185,1,93.500003181219,8|0,0:0|0:0,0:0:0:0:
272,364,48636,6,0,P|280:293|307:167,1,187.000006362438,2|8,3:2|0:0,0:0:0:0:
166,257,49136,1,0,0:0:0:0:
227,108,49303,2,0,P|220:54|207:1,1,93.500003181219,2|0,3:2|0:0,0:0:0:0:
324,258,49636,2,0,P|331:204|344:151,1,93.500003181219,10|0,0:0|0:0,0:0:0:0:
165,310,49970,6,0,P|214:338|266:329,1,93.500003181219,2|0,3:2|0:0,0:0:0:0:
100,155,50303,2,0,P|53:155|15:180,1,93.500003181219,10|0,0:0|0:0,0:0:0:0:
258,236,50636,1,2,3:2:0:0:
196,87,50803,1,0,0:0:0:0:
77,294,50970,2,0,P|26:279|-27:269,1,93.500003181219,10|0,0:2|0:0,0:0:0:0:
77,77,51303,6,0,P|154:61|276:44,1,187.000006362438,2|8,3:2|0:0,0:0:0:0:
393,155,51803,1,0,0:0:0:0:
275,235,51970,2,0,P|256:177|270:127,1,93.500003181219,2|0,3:2|0:0,0:0:0:0:
400,27,52303,2,0,P|419:85|405:135,1,93.500003181219,10|0,0:0|0:0,0:0:0:0:
195,59,52636,6,0,P|250:52|290:45,1,93.500003181219,6|0,3:2|0:0,0:0:0:0:
443,214,52970,2,0,P|396:206|350:200,1,93.500003181219,10|0,0:0|0:0,0:0:0:0:
183,304,53303,1,2,3:2:0:0:
359,356,53470,1,0,0:0:0:0:
264,138,53636,2,0,P|244:184|255:239,1,93.500003181219,10|0,0:0|0:0,0:0:0:0:
383,117,53970,6,0,P|391:59|401:4,1,93.500003181219,2|0,3:2|0:0,0:0:0:0:
129,122,54303,2,0,P|136:168|142:214,1,93.500003181219,10|0,0:2|0:0,0:0:0:0:
361,312,54636,1,2,3:2:0:0:
286,141,54803,1,0,0:0:0:0:
184,338,54970,2,0,P|139:322|93:314,1,93.500003181219,10|0,0:0|0:0,0:0:0:0:
17,110,55303,6,0,P|61:94|107:86,1,93.500003181219,6|0,3:2|0:0,0:0:0:0:
354,254,55636,2,0,P|309:238|263:230,1,93.500003181219,10|0,0:0|0:0,0:0:0:0:
172,34,55970,1,6,3:2:0:0:
317,130,56136,1,0,0:0:0:0:
143,253,56303,2,0,P|135:199|125:144,1,93.500003181219,10|0,0:0|0:0,0:0:0:0:
381,35,56636,6,0,P|372:81|366:127,1,93.500003181219,6|0,3:2|0:0,0:0:0:0:
404,340,56970,1,8,0:0:0:0:
232,210,57136,1,0,3:0:0:0:
232,210,57220,1,8,0:0:0:0:
232,210,57303,1,2,3:2:0:0:
403,136,57470,1,8,0:2:0:0:
272,354,57636,2,0,P|224:341|159:332,1,93.500003181219,6|0,3:2|0:0,0:0:0:0:
14,175,57970,6,0,P|28:223|41:278,1,93.500003181219,6|0,3:2|0:0,0:0:0:0:
247,77,58303,2,0,P|233:125|220:180,1,93.500003181219,10|0,0:0|0:0,0:0:0:0:
24,80,58636,2,0,P|68:51|132:58,1,93.500003181219,2|0,3:2|0:0,0:0:0:0:
224,286,58970,2,0,P|177:282|140:255,1,93.500003181219,10|0,0:0|0:0,0:0:0:0:
365,148,59303,6,0,P|378:215|403:364,1,187.000006362438,2|8,3:2|0:0,0:0:0:0:
458,125,59803,1,0,0:0:0:0:
335,286,59970,2,0,P|286:272|233:260,1,93.500003181219,2|0,3:2|0:0,0:0:0:0:
317,64,60303,2,0,P|366:50|419:38,1,93.500003181219,10|0,0:2|0:0,0:0:0:0:
210,129,60636,6,0,P|192:83|209:17,1,93.500003181219,2|0,3:2|0:0,0:0:0:0:
409,225,60970,2,0,P|427:179|410:113,1,93.500003181219,10|0,0:2|0:0,0:0:0:0:
218,291,61303,1,2,3:2:0:0:
290,147,61470,1,0,0:0:0:0:
373,346,61636,2,0,P|421:355|480:366,1,93.500003181219,10|0,0:2|0:0,0:0:0:0:
172,190,61970,6,0,P|130:225|158:373,1,187.000006362438,2|8,3:2|0:0,0:0:0:0:
293,256,62470,1,0,3:0:0:0:
293,256,62553,1,8,0:2:0:0:
293,256,62636,2,0,P|302:201|314:147,1,93.500003181219,2|0,3:2|0:3,0:0:0:0:
91,44,62970,2,0,P|100:89|107:135,1,93.500003181219,10|0,0:0|0:0,0:0:0:0:
299,37,63303,6,0,P|251:13|190:27,1,93.500003181219,6|0,3:2|0:0,0:0:0:0:
332,234,63636,2,0,P|378:235|418:213,1,93.500003181219,10|0,0:0|0:0,0:0:0:0:
155,168,63970,2,0,P|168:225|179:283,1,93.500003181219,2|0,3:2|0:0,0:0:0:0:
352,141,64303,2,0,P|361:95|372:50,1,93.500003181219,10|0,0:0|0:0,0:0:0:0:
279,334,64636,6,0,B|234:307|181:340|205:360|148:394|95:357,1,187.000006362438,6|10,3:2|0:0,0:0:0:0:
6,267,65136,1,2,0:0:0:0:
168,173,65303,2,0,P|185:220|169:279,1,93.500003181219,2|0,3:2|0:0,0:0:0:0:
29,124,65636,1,10,0:0:0:0:
29,124,65803,1,2,0:0:0:0:
152,31,65970,6,0,P|216:44|273:51,1,93.500003181219,4|8,3:2|0:0,0:0:0:0:
321,206,66303,1,8,0:3:0:0:
458,49,66470,2,0,P|411:56|366:65,1,93.500003181219,4|8,0:3|0:0,0:0:0:0:
239,155,66803,1,0,0:0:0:0:
410,330,66970,6,0,P|436:271|378:160,1,187.000006362438,4|0,3:2|3:0,0:0:0:0:
276,347,67470,1,8,0:0:0:0:
176,225,67636,1,0,3:0:0:0:
72,360,67803,1,0,3:0:0:0:
72,360,67886,1,8,0:0:0:0:
72,360,67970,2,0,P|63:296|57:246,1,93.500003181219,8|8,0:0|0:3,0:0:0:0:
235,137,68303,2,0,P|229:183|222:229,1,93.500003181219,4|0,0:3|0:0,0:0:0:0:
188,52,68636,6,0,P|241:40|327:111,1,152.999995867252,6|0,3:2|0:0,0:0:0:0:
409,208,69136,1,0,3:0:0:0:
409,208,69303,2,0,P|406:146|394:32,1,152.999995867252,8|0,0:0|0:0,0:0:0:0:
306,135,69803,1,0,0:0:0:0:
208,232,69970,6,0,P|165:225|103:217,1,76.499997933626,2|8,0:2|0:0,0:0:0:0:
43,96,70303,2,0,P|86:89|148:81,1,76.499997933626,2|0,3:2|0:0,0:0:0:0:
231,147,70636,2,0,P|274:140|336:132,1,76.499997933626,10|0,0:0|0:0,0:0:0:0:
396,11,70969,2,0,P|353:4|291:-4,1,76.499997933626,2|0,3:2|0:0,0:0:0:0:
439,177,71303,5,2,3:2:0:0:
439,177,71470,1,8,0:0:0:0:
343,78,71636,2,0,P|335:125|327:169,1,76.499997933626,2|0,0:0|3:0,0:0:0:0:
463,287,71970,2,0,P|456:249|449:211,1,76.499997933626,10|0,0:0|0:0,0:0:0:0:
299,305,72303,2,0,P|292:342|285:380,1,76.499997933626,2|0,3:2|0:0,0:0:0:0:
134,222,72636,5,10,3:2:0:0:
385,305,72803,1,8,3:2:0:0:
406,302,73303,5,10,3:2:0:0:
106,380,73470,1,8,3:2:0:0:
232,220,73803,5,8,0:0:0:0:
232,220,73886,1,8,0:0:0:0:
232,220,73970,2,0,P|277:218|318:254,1,85.000000298023,4|2,3:2|0:2,0:0:0:0:
273,378,74303,2,0,P|228:380|187:344,1,85.000000298023,2|2,0:0|3:2,0:0:0:0:
72,204,74636,2,0,P|84:255|93:309,1,85.000000298023,10|2,0:2|0:0,0:0:0:0:
223,93,74970,1,2,0:0:0:0:
164,231,75136,1,2,3:2:0:0:
102,58,75303,5,2,0:2:0:0:
260,195,75470,2,0,P|317:205|388:98,1,170.000000596046,10|2,0:2|3:2,0:0:0:0:
305,16,75970,2,0,P|293:62|281:116,1,85.000000298023,10|2,0:2|0:0,0:0:0:0:
471,208,76303,1,2,3:2:0:0:
424,54,76470,1,2,0:0:0:0:
260,195,76636,6,0,B|213:169|162:197|190:221|128:254|73:212,1,187.000006362438,6|8,3:2|0:0,0:0:0:0:
233,293,77136,1,0,0:0:0:0:
130,139,77303,2,0,P|123:79|116:12,1,93.500003181219,2|0,3:2|3:0,0:0:0:0:
10,172,77636,2,0,P|4:218|0:264,1,93.500003181219,8|0,0:0|0:0,0:0:0:0:
252,178,77970,6,0,P|290:116|224:2,1,187.000006362438,6|8,3:2|0:0,0:0:0:0:
144,108,78470,1,0,3:0:0:0:
229,252,78636,2,0,P|282:255|335:263,1,93.500003181219,10|0,0:0|3:0,0:0:0:0:
255,71,78970,2,0,P|202:74|149:82,1,93.500003181219,8|0,0:0|0:0,0:0:0:0:
400,179,79303,6,0,P|411:126|387:73,1,93.500003181219,14|0,0:0|0:0,0:0:0:0:
198,298,79636,1,8,3:2:0:0:
255,71,79803,1,8,3:2:0:0:
331,335,79970,1,10,3:2:0:0:
179,115,80136,1,8,3:2:0:0:
126,355,80303,1,8,3:2:0:0:
284,151,80470,1,8,3:2:0:0:
427,328,88636,6,0,P|337:312|235:306,1,170.000000596046,6|8,3:2|0:0,0:0:0:0:
117,209,89136,2,0,P|207:193|309:187,1,170.000000596046,4|0,3:2|0:0,0:0:0:0:
479,108,89636,6,0,B|414:147|345:100|388:79|317:28|230:74,1,255.000000894069,4|8,3:2|0:0,0:0:0:0:
207,89,90220,1,8,0:0:0:0:
207,89,90303,2,0,P|219:136|227:195,1,85.000000298023,8|8,0:0|0:0,0:0:0:0:
322,319,90636,1,8,0:0:0:0:
384,124,90803,1,8,0:0:0:0:
428,359,90970,1,8,0:3:0:0:
304,164,91136,1,4,0:3:0:0:
247,355,91303,5,8,3:2:0:0:
247,355,91636,1,8,3:2:0:0:
253,362,92136,5,0,3:0:0:0:
253,362,92219,1,0,3:0:0:0:
253,362,92303,2,0,P|190:340|113:412,1,152.999995867252,14|0,0:0|0:0,0:0:0:0:
81,366,92636,6,0,P|75:310|65:256,1,93.500003181219,6|0,3:2|0:0,0:0:0:0:
245,137,92970,2,0,P|237:183|232:229,1,93.500003181219,10|0,0:0|0:0,0:0:0:0:
46,173,93303,2,0,P|92:141|147:148,1,93.500003181219,2|0,3:2|0:0,0:0:0:0:
240,330,93636,2,0,P|194:326|158:297,1,93.500003181219,10|0,0:2|0:0,0:0:0:0:
402,95,93970,6,0,B|369:211|453:153|409:290,1,187.000006362438,2|8,3:2|0:0,0:0:0:0:
288,122,94470,1,0,0:0:0:0:
203,267,94636,2,0,P|193:213|173:156,1,93.500003181219,2|0,3:2|0:0,0:0:0:0:
329,25,94970,2,0,P|315:69|307:115,1,93.500003181219,10|0,0:0|0:0,0:0:0:0:
74,90,95303,6,0,P|109:63|174:62,1,93.500003181219,2|0,3:2|0:0,0:0:0:0:
82,265,95636,2,0,P|36:260|0:232,1,93.500003181219,10|0,0:0|0:0,0:0:0:0:
236,114,95970,1,2,3:2:0:0:
181,280,96136,1,0,0:0:0:0:
51,86,96303,2,0,P|69:135|82:194,1,93.500003181219,10|0,0:2|0:0,0:0:0:0:
344,53,96636,6,0,P|324:112|290:259,1,187.000006362438,2|8,3:2|0:0,0:0:0:0:
233,51,97136,1,0,0:0:0:0:
348,169,97303,2,0,P|390:192|453:191,1,93.500003181219,2|0,3:2|0:0,0:0:0:0:
221,281,97636,2,0,P|174:280|135:304,1,93.500003181219,10|0,0:0|0:0,0:0:0:0:
332,368,97970,6,0,P|345:307|358:262,1,93.500003181219,6|0,3:2|0:0,0:0:0:0:
209,96,98303,2,0,P|221:141|230:186,1,93.500003181219,10|0,0:0|0:0,0:0:0:0:
392,54,98636,1,2,3:2:0:0:
334,201,98803,1,0,0:0:0:0:
264,27,98970,6,0,P|218:4|165:15,1,93.500003181219,10|0,0:0|0:0,0:0:0:0:
72,244,99303,2,0,P|117:247|158:225,1,93.500003181219,2|0,3:2|0:0,0:0:0:0:
61,69,99636,2,0,P|80:123|90:171,1,93.500003181219,10|0,0:2|0:0,0:0:0:0:
252,65,99970,1,2,3:2:0:0:
196,232,100137,1,0,0:0:0:0:
373,132,100303,2,0,P|354:186|344:234,1,93.500003181219,10|0,0:2|0:0,0:0:0:0:
152,379,100636,6,0,P|106:364|53:355,1,93.500003181219,2|0,3:2|0:0,0:0:0:0:
171,194,100970,2,0,P|217:179|270:170,1,93.500003181219,14|0,0:0|0:0,0:0:0:0:
323,362,101303,1,2,3:2:0:0:
167,288,101470,1,0,0:0:0:0:
360,144,101636,2,0,P|379:198|389:246,1,93.500003181219,14|0,0:0|0:0,0:0:0:0:
241,81,101970,6,0,P|278:35|402:34,1,187.000006362438,2|12,3:2|0:0,0:0:0:0:
311,236,102470,1,0,0:0:0:0:
181,144,102636,2,0,P|129:132|79:126,1,93.500003181219,2|0,3:2|3:0,0:0:0:0:
60,142,102886,1,8,0:0:0:0:
60,142,102970,1,10,0:0:0:0:
183,330,103136,1,8,0:0:0:0:
183,330,103220,1,8,0:0:0:0:
183,330,103303,6,0,P|235:317|303:308,1,93.500003181219,6|0,3:2|0:0,0:0:0:0:
435,154,103636,2,0,P|383:141|315:132,1,93.500003181219,10|0,0:0|0:0,0:0:0:0:
350,384,103970,2,0,P|385:316|338:209,1,187.000006362438,2|8,3:2|0:0,0:0:0:0:
224,308,104470,1,0,0:0:0:0:
206,92,104636,6,0,P|245:63|305:60,1,93.500003181219,2|0,3:2|0:0,0:0:0:0:
149,271,104970,2,0,P|103:263|66:235,1,93.500003181219,8|0,0:0|0:0,0:0:0:0:
302,147,105303,1,2,3:2:0:0:
246,294,105470,1,0,0:0:0:0:
112,94,105636,2,0,P|130:156|140:218,1,93.500003181219,10|0,0:0|0:0,0:0:0:0:
350,16,105970,6,0,P|332:78|322:140,1,93.500003181219,2|0,3:2|0:0,0:0:0:0:
416,303,106303,2,0,P|463:328|516:321,1,93.500003181219,10|0,0:0|0:0,0:0:0:0:
358,140,106636,1,2,3:2:0:0:
282,279,106803,1,0,0:0:0:0:
483,205,106970,2,0,P|473:159|459:114,1,93.500003181219,10|0,0:0|0:0,0:0:0:0:
207,216,107303,6,0,P|187:287|265:362,1,187.000006362438,2|8,3:2|0:0,0:0:0:0:
323,194,107803,1,0,0:0:0:0:
233,72,107970,2,0,P|179:58|141:50,1,93.500003181219,2|0,3:2|0:0,0:0:0:0:
237,263,108303,2,0,P|291:249|329:241,1,93.500003181219,10|0,0:0|0:0,0:0:0:0:
111,152,108636,6,0,P|96:201|120:251,1,93.500003181219,6|0,3:2|0:0,0:0:0:0:
320,122,108970,2,0,P|335:73|311:23,1,93.500003181219,10|0,0:0|0:0,0:0:0:0:
222,232,109303,1,2,3:2:0:0:
165,83,109470,1,0,0:0:0:0:
319,208,109636,2,0,P|379:219|433:230,1,93.500003181219,8|0,0:0|0:0,0:0:0:0:
194,353,109970,6,0,P|128:372|22:282,1,187.000006362438,6|10,3:2|0:0,0:0:0:0:
142,244,110470,1,2,0:0:0:0:
16,144,110636,2,0,P|28:195|38:252,1,93.500003181219,2|0,3:2|0:0,0:0:0:0:
148,76,110970,1,10,0:0:0:0:
240,201,111136,1,2,0:0:0:0:
389,74,111303,6,0,P|376:143|365:238,1,152.999995867252,4|8,3:2|0:0,0:0:0:0:
371,264,111636,1,8,0:0:0:0:
262,84,111803,2,0,B|205:61|157:102|182:113|136:159|67:127,1,203.999994489669,4|8,3:2|0:0,0:0:0:0:
30,309,112303,2,0,B|169:269|169:269|224:320,1,203.999994489669,4|4,3:2|0:3,0:0:0:0:
212,309,112970,6,0,P|218:250|223:203,1,85.000000298023,0|0,3:0|3:0,0:0:0:0:
407,145,113303,2,0,P|411:187|415:229,1,85.000000298023,4|4,0:3|0:3,0:0:0:0:
252,92,113636,2,0,P|258:33|263:-14,1,85.000000298023,8|8,0:3|0:3,0:0:0:0:
128,273,113970,5,14,0:0:0:0:
33,77,114136,1,0,3:0:0:0:
246,182,114303,1,10,0:0:0:0:
19,291,114470,1,0,3:0:0:0:
143,64,114636,1,10,0:0:0:0:
246,308,114803,1,0,3:0:0:0:
19,196,114970,1,8,0:0:0:0:
232,96,115136,1,0,3:0:0:0:
153,327,115303,6,0,P|100:349|49:330,1,101.999997244835,10|0,0:0|3:0,0:0:0:0:
267,164,115636,2,0,P|315:152|361:174,1,101.999997244835,8|0,0:0|3:0,0:0:0:0:
259,373,115970,2,0,P|247:310|230:254,1,101.999997244835,10|0,0:0|3:0,0:0:0:0:
478,163,116303,2,0,P|464:212|455:262,1,101.999997244835,10|0,0:0|3:0,0:0:0:0:
261,54,116636,5,14,0:0:0:0:
365,281,116803,1,0,3:0:0:0:
381,16,116970,1,10,0:0:0:0:
266,251,117136,1,0,3:0:0:0:
164,7,117303,1,10,0:0:0:0:
404,131,117470,1,0,3:0:0:0:
164,244,117636,1,10,0:0:0:0:
274,34,117803,1,0,3:0:0:0:
364,263,117970,6,0,P|413:288|466:278,1,101.999997244835,10|0,0:0|3:0,0:0:0:0:
245,111,118303,2,0,P|195:105|150:129,1,101.999997244835,10|0,0:0|3:0,0:0:0:0:
206,347,118636,2,0,P|214:288|229:231,1,101.999997244835,10|0,0:0|3:0,0:0:0:0:
33,127,118970,2,0,P|44:176|51:227,1,101.999997244835,10|0,0:0|3:0,0:0:0:0:
184,33,119303,5,14,0:0:0:0:
295,286,119470,1,0,3:0:0:0:
288,0,119636,1,10,0:0:0:0:
194,222,119803,1,0,3:0:0:0:
351,72,119970,2,0,P|407:62|459:56,1,101.999997244835,10|0,0:0|3:0,0:0:0:0:
491,234,120303,2,0,P|435:224|383:218,1,101.999997244835,10|0,0:0|3:0,0:0:0:0:
97,341,120636,5,14,0:0:0:0:
205,87,120803,1,0,3:0:0:0:
272,379,120970,1,10,0:0:0:0:
128,151,121136,1,0,3:0:0:0:
61,372,121303,2,0,P|46:307|31:260,1,101.999997244835,10|0,0:0|3:0,0:0:0:0:
286,162,121636,2,0,P|271:210|260:260,1,101.999997244835,10|0,0:0|3:0,0:0:0:0:
79,59,121970,5,14,0:0:0:0:
142,248,122136,1,0,3:0:0:0:
247,36,122303,2,0,P|262:93|276:162,1,101.999997244835,10|0,0:0|3:0,0:0:0:0:
64,53,122636,5,14,0:0:0:0:
148,264,122802,1,0,3:0:0:0:
255,24,122969,2,0,P|271:88|287:165,1,101.999997244835,10|0,0:0|3:0,0:0:0:0:
69,238,123303,5,14,0:0:0:0:
172,52,123470,1,0,3:0:0:0:
242,292,123636,1,8,0:0:0:0:
84,107,123803,1,0,3:0:0:0:
282,198,123970,1,10,0:0:0:0:
76,317,124136,1,0,3:0:0:0:
220,120,124303,2,0,P|274:96|327:107,1,101.999997244835,10|0,0:0|3:0,0:0:0:0:
453,330,124636,5,14,0:0:0:0:
252,228,124803,1,0,3:0:0:0:
453,347,124970,1,10,0:0:0:0:
406,123,125136,1,0,3:0:0:0:
267,354,125303,1,10,0:0:0:0:
498,243,125470,1,0,3:0:0:0:
266,131,125636,1,10,0:0:0:0:
371,355,125803,1,0,3:0:0:0:
477,80,125970,6,0,P|418:47|365:58,1,101.999997244835,10|0,0:0|3:0,0:0:0:0:
258,266,126303,2,0,P|308:264|349:235,1,101.999997244835,8|0,0:0|3:0,0:0:0:0:
223,42,126636,2,0,P|241:90|251:140,1,101.999997244835,10|0,0:0|3:0,0:0:0:0:
53,235,126970,2,0,P|62:185|80:137,1,101.999997244835,10|0,0:0|3:0,0:0:0:0:
223,256,127303,5,14,0:0:0:0:
33,364,127470,1,0,3:0:0:0:
240,248,127636,1,10,0:0:0:0:
28,158,127803,1,0,3:0:0:0:
159,372,127970,1,10,0:0:0:0:
243,140,128136,1,0,3:0:0:0:
18,272,128303,1,10,0:0:0:0:
269,358,128470,1,0,3:0:0:0:
177,95,128636,6,0,P|125:74|50:99,1,101.999997244835,10|0,0:0|3:0,0:0:0:0:
302,239,128970,2,0,P|352:244|398:224,1,101.999997244835,8|0,0:0|3:0,0:0:0:0:
130,179,129303,2,0,P|144:240|155:302,1,101.999997244835,10|0,0:0|3:0,0:0:0:0:
356,55,129636,2,0,P|342:116|331:178,1,101.999997244835,10|0,0:0|3:0,0:0:0:0:
307,336,129970,5,12,0:0:0:0:
229,86,130136,1,0,3:0:0:0:
153,338,130303,1,10,0:0:0:0:
248,124,130470,1,0,3:0:0:0:
329,364,130636,1,10,0:0:0:0:
145,164,130803,1,0,3:0:0:0:
373,274,130970,1,10,0:0:0:0:
149,384,131136,1,0,3:0:0:0:
306,173,131303,6,0,P|357:152|408:163,1,101.999997244835,14|0,0:0|3:0,0:0:0:0:
267,356,131636,1,10,0:2:0:0:
173,158,131803,1,2,3:2:0:0:
371,246,131970,2,0,P|357:310|352:370,1,101.999997244835,10|0,0:0|3:0,0:0:0:0:
192,255,132303,1,10,0:0:0:0:
340,125,132470,1,2,3:2:0:0:
235,328,132636,6,0,B|190:351|127:327|167:299|91:268|43:294,1,203.999994489669,4|8,3:2|0:0,0:0:0:0:
122,118,133136,2,0,P|185:93|267:202,1,203.999994489669,4|8,3:2|0:0,0:0:0:0:
35,257,133636,2,0,P|24:175|-1:36,1,203.999994489669,4|0,3:2|3:0,0:0:0:0:
186,192,134136,5,0,3:0:0:0:
186,192,134220,1,8,0:0:0:0:
186,192,134303,2,0,P|194:126|207:58,1,101.999997244835,8|8,0:0|0:0,0:0:0:0:
388,299,134636,1,8,0:0:0:0:
292,69,134803,1,8,0:0:0:0:
229,320,134970,1,8,0:3:0:0:
361,134,135136,1,4,0:3:0:0:
404,343,135303,6,0,P|452:366|503:356,1,85.000000298023,6|0,3:2|0:0,0:0:0:0:
259,198,135636,2,0,P|216:198|180:219,1,85.000000298023,10|0,0:0|0:0,0:0:0:0:
448,272,135970,1,2,3:2:0:0:
362,123,136136,1,0,0:0:0:0:
277,358,136303,2,0,P|267:305|257:260,1,85.000000298023,8|0,0:0|0:0,0:0:0:0:
475,126,136636,6,0,P|504:183|470:305,1,170.000000596046,2|8,3:2|0:0,0:0:0:0:
316,151,137136,1,0,0:0:0:0:
399,52,137303,2,0,P|448:34|490:31,1,85.000000298023,2|0,3:2|0:0,0:0:0:0:
384,268,137636,2,0,P|335:250|293:247,1,85.000000298023,10|0,0:2|0:0,0:0:0:0:
169,44,137970,6,0,P|184:98|193:148,1,85.000000298023,2|0,3:2|0:0,0:0:0:0:
12,234,138303,2,0,P|20:192|32:151,1,85.000000298023,10|0,0:2|0:0,0:0:0:0:
210,300,138636,1,2,3:2:0:0:
48,360,138803,1,0,0:0:0:0:
138,189,138970,2,0,P|178:173|235:172,1,85.000000298023,10|0,0:2|0:0,0:0:0:0:
404,360,139303,6,0,P|361:356|322:340,1,85.000000298023,8|0,3:2|0:0,0:0:0:0:
86,100,139636,1,8,3:2:0:0:
202,339,139803,1,8,3:2:0:0:
294,86,139970,1,10,3:2:0:0:
54,234,140136,1,8,3:2:0:0:
332,311,140303,1,10,3:2:0:0:
195,57,140470,1,8,3:2:0:0:
195,57,140636,6,0,P|204:115|210:166,1,101.999997244835,2|2,0:0|0:0,0:0:0:0:
77,340,141303,2,0,P|83:289|91:239,1,101.999997244835,2|2,0:0|0:0,0:0:0:0:
257,339,141970,2,0,P|297:348|361:322,1,101.999997244835,2|2,0:0|0:0,0:0:0:0:
421,251,142470,1,2,0:0:0:0:
342,168,142636,2,0,B|260:163|294:226|194:217,1,152.999995867252,2|2,0:0|0:0,0:0:0:0:
256,192,143303,12,0,144803,0:0:0:0:
