osu file format v14

[General]
AudioFilename: audio.mp3
AudioLeadIn: 0
PreviewTime: 91886
Countdown: 0
SampleSet: Normal
StackLeniency: 0.2
Mode: 1
LetterboxInBreaks: 0
WidescreenStoryboard: 1

[Editor]
Bookmarks: 117969,123302,128635
DistanceSpacing: 1
BeatDivisor: 4
GridSize: 16
TimelineZoom: 1.5

[Metadata]
Title:Yubi Bouenkyou
TitleUnicode:指望遠鏡
Artist:Nogizaka46
ArtistUnicode:乃木坂46
Creator:A r M i N
Version:Futsuu
Source:マギ The labyrinth of magic
Tags:short cut version Armin A_r_M_i_N Sotarks Basensorex Kowari Nevo Reform Kujinn Ron [R] ed ending japanese pop j-pop magi アニメ版 Anime-Ban Anime Ban
BeatmapID:2486396
BeatmapSetID:1164077

[Difficulty]
HPDrainRate:7
CircleSize:4
OverallDifficulty:4
ApproachRate:5
SliderMultiplier:1.4
SliderTickRate:1

[Events]
//Background and Video events
0,0,"cropped-1920-1080-713375.jpg",0,0
//Break Periods
2,80670,87436
//Storyboard Layer 0 (Background)
//Storyboard Layer 1 (Fail)
//Storyboard Layer 2 (Pass)
//Storyboard Layer 3 (Foreground)
//Storyboard Layer 4 (Overlay)
//Storyboard Sound Samples

[TimingPoints]
637,333.333333333333,4,1,0,80,1,0
970,-100,4,1,0,40,0,0
1970,-100,4,1,0,50,0,0
8136,-100,4,1,0,60,0,0
8303,-100,4,1,0,65,0,0
8636,-100,4,1,0,70,0,0
13970,-100,4,1,0,80,0,0
35303,-100,4,1,0,70,0,0
43303,-100,4,1,0,80,0,0
47303,-100,4,1,0,90,0,1
68636,-100,4,1,0,90,0,0
68720,-100,4,1,0,70,0,0
72553,-100,4,1,0,80,0,0
73553,-100,4,1,0,70,0,0
76636,-100,4,1,0,80,0,1
79636,-100,4,1,0,85,0,1
80636,-100,4,1,0,60,0,0
88553,-100,4,1,0,80,0,0
92636,-100,4,1,0,90,0,1
111303,-100,4,1,0,80,0,0
113970,-100,4,1,0,90,0,1
132636,-100,4,1,0,85,0,1
135303,-100,4,1,0,80,0,0
140636,-100,4,1,0,50,0,0
144803,-100,4,1,0,5,0,0

[Colours]
Combo1 : 234,210,115
Combo2 : 55,155,255
Combo3 : 207,207,207

[HitObjects]
253,188,1303,5,0,0:0:0:0:
253,188,1636,1,0,0:0:0:0:
253,188,1970,1,2,0:0:0:0:
253,188,2303,1,0,0:0:0:0:
253,188,2636,1,2,0:0:0:0:
253,188,2970,1,2,0:0:0:0:
253,188,3303,1,0,0:0:0:0:
253,188,3970,1,0,0:0:0:0:
253,188,4303,1,2,0:0:0:0:
253,188,4636,1,2,0:0:0:0:
253,188,4970,1,0,0:0:0:0:
253,188,5303,1,2,0:0:0:0:
253,188,5636,1,0,0:0:0:0:
253,188,5970,1,0,0:0:0:0:
256,192,8136,1,0,0:0:0:0:
256,192,8303,1,6,0:0:0:0:
256,192,8636,1,0,0:0:0:0:
256,192,8803,1,0,0:0:0:0:
256,192,9136,1,2,0:0:0:0:
256,192,9470,1,0,0:0:0:0:
256,192,9803,1,2,0:0:0:0:
256,192,10136,1,0,0:0:0:0:
256,192,10470,1,2,0:0:0:0:
256,192,10803,1,2,0:0:0:0:
256,192,10970,1,0,0:0:0:0:
256,192,11303,1,0,0:0:0:0:
256,192,11470,1,0,0:0:0:0:
256,192,11803,1,2,0:0:0:0:
256,192,12137,1,0,0:0:0:0:
256,192,12470,1,2,0:0:0:0:
256,192,12803,1,0,0:0:0:0:
256,192,13137,1,2,0:0:0:0:
256,192,13470,1,2,0:0:0:0:
256,192,13637,1,0,0:0:0:0:
256,192,13970,1,4,0:0:0:0:
256,192,14636,1,2,0:0:0:0:
256,192,14970,1,2,0:0:0:0:
256,192,15136,1,2,0:0:0:0:
256,192,15303,1,0,0:0:0:0:
256,192,15636,1,2,0:0:0:0:
256,192,15970,1,0,0:0:0:0:
256,192,16303,1,2,0:0:0:0:
256,192,16470,1,0,0:0:0:0:
256,192,16636,1,0,0:0:0:0:
256,192,16970,1,2,0:0:0:0:
256,192,17303,1,0,0:0:0:0:
256,192,17636,1,0,0:0:0:0:
256,192,17803,1,2,0:0:0:0:
256,192,18136,1,0,0:0:0:0:
256,192,18303,1,2,0:0:0:0:
256,192,18636,1,2,0:0:0:0:
256,192,18803,1,0,0:0:0:0:
256,192,18970,1,0,0:0:0:0:
256,192,19303,1,0,0:0:0:0:
256,192,19970,1,0,0:0:0:0:
256,192,20303,1,2,0:0:0:0:
256,192,20470,1,2,0:0:0:0:
256,192,20636,1,0,0:0:0:0:
256,192,20970,1,2,0:0:0:0:
256,192,21303,1,0,0:0:0:0:
256,192,21470,1,0,0:0:0:0:
256,192,21636,1,2,0:0:0:0:
256,192,21970,1,0,0:0:0:0:
256,192,22303,1,2,0:0:0:0:
256,192,22470,1,2,0:0:0:0:
256,192,22636,1,0,0:0:0:0:
256,192,22970,1,0,0:0:0:0:
256,192,23136,1,6,0:0:0:0:
256,192,23636,1,2,0:0:0:0:
256,192,23970,1,0,0:0:0:0:
256,192,24136,1,0,0:0:0:0:
256,192,24303,1,2,0:0:0:0:
256,192,24636,1,4,0:0:0:0:
256,192,25303,1,2,0:0:0:0:
256,192,25636,1,0,0:0:0:0:
256,192,25803,1,2,0:0:0:0:
256,192,26136,1,0,0:0:0:0:
256,192,26303,1,0,0:0:0:0:
256,192,26636,1,2,0:0:0:0:
256,192,26970,1,0,0:0:0:0:
256,192,27303,1,4,0:0:0:0:
256,192,27470,1,4,0:0:0:0:
256,192,27970,1,6,0:0:0:0:
256,192,28136,1,6,0:0:0:0:
256,192,28636,1,6,0:0:0:0:
256,192,28803,1,6,0:0:0:0:
256,192,29303,1,4,0:0:0:0:
256,192,29470,1,4,0:0:0:0:
256,192,29970,1,4,0:0:0:0:
256,192,30636,1,0,0:0:0:0:
256,192,30970,1,2,0:0:0:0:
256,192,31136,1,0,0:0:0:0:
256,192,31470,1,2,0:0:0:0:
256,192,31803,1,2,0:0:0:0:
256,192,32636,1,0,0:0:0:0:
256,192,32970,1,6,0:0:0:0:
256,192,33303,1,0,0:0:0:0:
256,192,33636,1,2,0:0:0:0:
256,192,33803,1,4,0:0:0:0:
256,192,35303,1,4,0:0:0:0:
256,192,35636,1,0,0:0:0:0:
256,192,35970,1,0,0:0:0:0:
256,192,36303,1,2,0:0:0:0:
256,192,36636,1,2,0:0:0:0:
256,192,36803,1,0,0:0:0:0:
256,192,36970,1,0,0:0:0:0:
256,192,37303,1,0,0:0:0:0:
256,192,37636,1,2,0:0:0:0:
256,192,37970,1,4,0:0:0:0:
256,192,38303,1,2,0:0:0:0:
256,192,38636,1,4,0:0:0:0:
256,192,38970,1,2,0:0:0:0:
256,192,39303,1,4,0:0:0:0:
256,192,39970,1,2,0:0:0:0:
256,192,40136,1,2,0:0:0:0:
256,192,40303,1,0,0:0:0:0:
256,192,40636,1,4,0:0:0:0:
256,192,40970,1,2,0:0:0:0:
256,192,41303,1,0,0:0:0:0:
256,192,41470,1,0,0:0:0:0:
256,192,41636,1,2,0:0:0:0:
256,192,41970,1,2,0:0:0:0:
256,192,42303,1,0,0:0:0:0:
256,192,42636,1,0,0:0:0:0:
256,192,42803,1,0,0:0:0:0:
256,192,42970,1,2,0:0:0:0:
256,192,43303,1,6,0:0:0:0:
256,192,43803,1,6,0:0:0:0:
256,192,44470,1,6,0:0:0:0:
256,192,44803,1,6,0:0:0:0:
256,192,44970,1,6,0:0:0:0:
256,192,45303,1,6,0:0:0:0:
256,192,45636,1,6,0:0:0:0:
256,192,45970,1,0,0:0:0:0:
256,192,46636,1,0,0:0:0:0:
256,192,46970,1,4,0:1:0:0:
256,192,47303,1,6,0:0:0:0:
256,192,47636,1,0,0:0:0:0:
256,192,47970,1,2,0:0:0:0:
256,192,48136,1,2,0:0:0:0:
256,192,48303,1,0,0:0:0:0:
256,192,48636,1,2,0:0:0:0:
256,192,48970,1,0,0:0:0:0:
256,192,49303,1,0,0:0:0:0:
256,192,49470,1,0,0:0:0:0:
256,192,49636,1,2,0:0:0:0:
256,192,49970,1,2,0:0:0:0:
256,192,50136,1,2,0:0:0:0:
256,192,50303,1,0,0:0:0:0:
256,192,50470,1,0,0:0:0:0:
256,192,50636,1,2,0:0:0:0:
256,192,50970,1,0,0:0:0:0:
256,192,51136,1,0,0:0:0:0:
256,192,51303,1,2,0:0:0:0:
256,192,51970,1,0,0:0:0:0:
256,192,52136,1,0,0:0:0:0:
256,192,52303,1,2,0:0:0:0:
256,192,52636,1,2,0:0:0:0:
256,192,52970,1,2,0:0:0:0:
256,192,53136,1,2,0:0:0:0:
256,192,53303,1,0,0:0:0:0:
256,192,53636,1,0,0:0:0:0:
256,192,53970,1,2,0:0:0:0:
256,192,54303,1,2,0:0:0:0:
256,192,54470,1,0,0:0:0:0:
256,192,54636,1,0,0:0:0:0:
256,192,54970,1,0,0:0:0:0:
256,192,55303,1,2,0:0:0:0:
256,192,55470,1,2,0:0:0:0:
256,192,55636,1,0,0:0:0:0:
256,192,55970,1,2,0:0:0:0:
256,192,56136,1,2,0:0:0:0:
256,192,56303,1,2,0:0:0:0:
256,192,56636,1,0,0:0:0:0:
256,192,57303,1,0,0:0:0:0:
256,192,57636,1,0,0:0:0:0:
256,192,57970,1,6,0:0:0:0:
256,192,58303,1,0,0:0:0:0:
256,192,58636,1,2,0:0:0:0:
256,192,58803,1,2,0:0:0:0:
256,192,58970,1,2,0:0:0:0:
256,192,59303,1,0,0:0:0:0:
256,192,59636,1,2,0:0:0:0:
256,192,59970,1,2,0:0:0:0:
256,192,60136,1,0,0:0:0:0:
256,192,60303,1,0,0:0:0:0:
256,192,60636,1,2,0:0:0:0:
256,192,60803,1,2,0:0:0:0:
256,192,60970,1,0,0:0:0:0:
256,192,61136,1,0,0:0:0:0:
256,192,61303,1,2,0:0:0:0:
256,192,61636,1,2,0:0:0:0:
256,192,61803,1,0,0:0:0:0:
256,192,61970,1,2,0:0:0:0:
256,192,62636,1,0,0:0:0:0:
256,192,62970,1,2,0:0:0:0:
256,192,63303,1,2,0:0:0:0:
256,192,63636,1,2,0:0:0:0:
256,192,63803,1,0,0:0:0:0:
256,192,63970,1,0,0:0:0:0:
256,192,64303,1,0,0:0:0:0:
256,192,64636,1,2,0:0:0:0:
256,192,64970,1,2,0:0:0:0:
256,192,65136,1,2,0:0:0:0:
256,192,65303,1,0,0:0:0:0:
256,192,65636,1,0,0:0:0:0:
256,192,65970,1,6,0:0:0:0:
256,192,66303,1,0,0:0:0:0:
256,192,66470,1,2,0:0:0:0:
256,192,66636,1,0,0:0:0:0:
256,192,66970,1,6,0:0:0:0:
256,192,67470,1,2,0:0:0:0:
256,192,67636,1,0,0:0:0:0:
256,192,67970,1,0,0:0:0:0:
256,192,68136,1,0,0:0:0:0:
256,192,68303,1,2,0:0:0:0:
256,192,68636,1,6,0:0:0:0:
256,192,69303,1,0,0:0:0:0:
256,192,69970,1,2,0:0:0:0:
256,192,70303,1,0,0:0:0:0:
256,192,70636,1,0,0:0:0:0:
256,192,70970,1,2,0:0:0:0:
256,192,71303,1,2,0:0:0:0:
256,192,71636,1,0,0:0:0:0:
256,192,71970,1,2,0:0:0:0:
256,192,72303,1,0,0:0:0:0:
256,192,72636,1,6,0:0:0:0:
256,192,72803,1,6,0:0:0:0:
256,192,73303,1,4,0:0:0:0:
256,192,73470,1,4,0:0:0:0:
256,192,73970,1,0,0:0:0:0:
256,192,74303,1,0,0:0:0:0:
256,192,74470,1,0,0:0:0:0:
256,192,74636,1,2,0:0:0:0:
256,192,74970,1,0,0:0:0:0:
256,192,75303,1,2,0:0:0:0:
256,192,75470,1,0,0:0:0:0:
256,192,75803,1,2,0:0:0:0:
256,192,75970,1,2,0:0:0:0:
256,192,76303,1,2,0:0:0:0:
256,192,76636,1,6,0:0:0:0:
256,192,77303,1,2,0:0:0:0:
256,192,77636,1,0,0:0:0:0:
256,192,77970,1,2,0:0:0:0:
256,192,78303,1,0,0:0:0:0:
256,192,78470,1,0,0:0:0:0:
256,192,78636,1,2,0:0:0:0:
256,192,78970,1,0,0:0:0:0:
256,192,79303,1,6,0:0:0:0:
256,192,79636,1,0,0:0:0:0:
256,192,79970,1,2,0:0:0:0:
256,192,80136,1,2,0:0:0:0:
256,192,80303,1,2,0:0:0:0:
256,192,80470,1,0,0:0:0:0:
256,192,88636,5,6,0:0:0:0:
256,192,89136,1,6,0:0:0:0:
256,192,89636,1,6,0:0:0:0:
256,192,90136,1,2,0:0:0:0:
256,192,90303,1,2,0:0:0:0:
256,192,90636,1,2,0:0:0:0:
256,192,90970,1,0,0:0:0:0:
256,192,91136,1,0,0:0:0:0:
256,192,91303,1,4,0:0:0:0:
256,192,91636,1,4,0:0:0:0:
256,192,92636,1,6,0:0:0:0:
256,192,92969,1,0,0:0:0:0:
256,192,93303,1,2,0:0:0:0:
256,192,93469,1,2,0:0:0:0:
256,192,93636,1,0,0:0:0:0:
256,192,93969,1,2,0:0:0:0:
256,192,94303,1,0,0:0:0:0:
256,192,94636,1,0,0:0:0:0:
256,192,94803,1,0,0:0:0:0:
256,192,94969,1,2,0:0:0:0:
256,192,95303,1,2,0:0:0:0:
256,192,95469,1,2,0:0:0:0:
256,192,95636,1,0,0:0:0:0:
256,192,95803,1,0,0:0:0:0:
256,192,95969,1,2,0:0:0:0:
256,192,96303,1,0,0:0:0:0:
256,192,96469,1,0,0:0:0:0:
256,192,96636,1,2,0:0:0:0:
256,192,97303,1,0,0:0:0:0:
256,192,97469,1,0,0:0:0:0:
256,192,97636,1,2,0:0:0:0:
256,192,97969,1,2,0:0:0:0:
256,192,98303,1,2,0:0:0:0:
256,192,98469,1,2,0:0:0:0:
256,192,98636,1,0,0:0:0:0:
256,192,98969,1,0,0:0:0:0:
256,192,99303,1,2,0:0:0:0:
256,192,99636,1,2,0:0:0:0:
256,192,99803,1,0,0:0:0:0:
256,192,99969,1,0,0:0:0:0:
256,192,100303,1,0,0:0:0:0:
256,192,100636,1,2,0:0:0:0:
256,192,100803,1,2,0:0:0:0:
256,192,100969,1,0,0:0:0:0:
256,192,101303,1,2,0:0:0:0:
256,192,101469,1,2,0:0:0:0:
256,192,101636,1,2,0:0:0:0:
256,192,101969,1,0,0:0:0:0:
256,192,102636,1,0,0:0:0:0:
256,192,102969,1,0,0:0:0:0:
256,192,103303,1,6,0:0:0:0:
256,192,103636,1,0,0:0:0:0:
256,192,103969,1,2,0:0:0:0:
256,192,104136,1,2,0:0:0:0:
256,192,104303,1,2,0:0:0:0:
256,192,104636,1,0,0:0:0:0:
256,192,104969,1,2,0:0:0:0:
256,192,105303,1,2,0:0:0:0:
256,192,105469,1,0,0:0:0:0:
256,192,105636,1,0,0:0:0:0:
256,192,105969,1,2,0:0:0:0:
256,192,106136,1,2,0:0:0:0:
256,192,106303,1,0,0:0:0:0:
256,192,106469,1,0,0:0:0:0:
256,192,106636,1,2,0:0:0:0:
256,192,106969,1,2,0:0:0:0:
256,192,107136,1,0,0:0:0:0:
256,192,107303,1,2,0:0:0:0:
256,192,107969,1,0,0:0:0:0:
256,192,108303,1,2,0:0:0:0:
256,192,108636,1,2,0:0:0:0:
256,192,108969,1,2,0:0:0:0:
256,192,109136,1,0,0:0:0:0:
256,192,109303,1,0,0:0:0:0:
256,192,109636,1,0,0:0:0:0:
256,192,109969,1,2,0:0:0:0:
256,192,110303,1,2,0:0:0:0:
256,192,110469,1,2,0:0:0:0:
256,192,110636,1,0,0:0:0:0:
256,192,110969,1,0,0:0:0:0:
256,192,111303,1,6,0:0:0:0:
256,192,111803,1,6,0:0:0:0:
256,192,112303,1,6,0:0:0:0:
272,192,112970,1,0,0:0:0:0:
272,192,113303,1,2,0:0:0:0:
272,192,113470,1,0,0:0:0:0:
272,192,113636,1,2,0:0:0:0:
272,192,113970,1,6,0:0:0:0:
272,192,114303,1,0,0:0:0:0:
272,192,114636,1,2,0:0:0:0:
272,192,114803,1,2,0:0:0:0:
272,192,114970,1,0,0:0:0:0:
272,192,115136,1,0,0:0:0:0:
272,192,115303,1,2,0:0:0:0:
272,192,115636,1,0,0:0:0:0:
272,192,115970,1,2,0:0:0:0:
272,192,116136,1,0,0:0:0:0:
272,192,116303,1,2,0:0:0:0:
272,192,116636,1,2,0:0:0:0:
272,192,116803,1,2,0:0:0:0:
272,192,116970,1,0,0:0:0:0:
272,192,117136,1,0,0:0:0:0:
272,192,117303,1,2,0:0:0:0:
272,192,117636,1,2,0:0:0:0:
272,192,117803,1,0,0:0:0:0:
272,192,117970,1,0,0:0:0:0:
272,192,118636,1,2,0:0:0:0:
272,192,118803,1,0,0:0:0:0:
272,192,118970,1,2,0:0:0:0:
272,192,119303,1,2,0:0:0:0:
272,192,119636,1,2,0:0:0:0:
272,192,119803,1,0,0:0:0:0:
272,192,119970,1,2,0:0:0:0:
272,192,120136,1,2,0:0:0:0:
272,192,120303,1,0,0:0:0:0:
272,192,120636,1,2,0:0:0:0:
272,192,120970,1,0,0:0:0:0:
272,192,121136,1,0,0:0:0:0:
272,192,121303,1,2,0:0:0:0:
272,192,121470,1,2,0:0:0:0:
272,192,121636,1,0,0:0:0:0:
272,192,121970,1,2,0:0:0:0:
272,192,122303,1,0,0:0:0:0:
272,192,122470,1,0,0:0:0:0:
272,192,122636,1,2,0:0:0:0:
272,192,122970,1,2,0:0:0:0:
272,192,123303,1,0,0:0:0:0:
256,192,123970,1,0,0:0:0:0:
256,192,124303,1,0,0:0:0:0:
272,192,124636,1,6,0:0:0:0:
272,192,124969,1,0,0:0:0:0:
272,192,125302,1,2,0:0:0:0:
272,192,125469,1,2,0:0:0:0:
272,192,125636,1,0,0:0:0:0:
272,192,125802,1,0,0:0:0:0:
272,192,125969,1,2,0:0:0:0:
272,192,126302,1,0,0:0:0:0:
272,192,126636,1,2,0:0:0:0:
272,192,126802,1,0,0:0:0:0:
272,192,126969,1,2,0:0:0:0:
272,192,127302,1,2,0:0:0:0:
272,192,127469,1,2,0:0:0:0:
272,192,127636,1,0,0:0:0:0:
272,192,127802,1,0,0:0:0:0:
272,192,127969,1,2,0:0:0:0:
272,192,128302,1,2,0:0:0:0:
272,192,128469,1,0,0:0:0:0:
272,192,128636,1,0,0:0:0:0:
272,192,129302,1,2,0:0:0:0:
272,192,129469,1,0,0:0:0:0:
272,192,129636,1,2,0:0:0:0:
272,192,129969,1,2,0:0:0:0:
272,192,130302,1,2,0:0:0:0:
272,192,130469,1,0,0:0:0:0:
272,192,130636,1,2,0:0:0:0:
272,192,130802,1,2,0:0:0:0:
272,192,130969,1,0,0:0:0:0:
272,192,131302,1,2,0:0:0:0:
272,192,131636,1,2,0:0:0:0:
272,192,131802,1,2,0:0:0:0:
272,192,131969,1,0,0:0:0:0:
272,192,132302,1,0,0:0:0:0:
272,192,132470,1,0,0:0:0:0:
272,192,132636,1,2,0:0:0:0:
272,192,132969,1,0,0:0:0:0:
272,192,133136,1,2,0:0:0:0:
272,192,133302,1,0,0:0:0:0:
272,192,133470,1,0,0:0:0:0:
272,192,133636,1,2,0:0:0:0:
256,192,134303,1,0,0:0:0:0:
256,192,134470,1,0,0:0:0:0:
256,192,134636,1,2,0:0:0:0:
256,192,134970,1,2,0:0:0:0:
256,192,135303,1,6,0:0:0:0:
256,192,135636,1,0,0:0:0:0:
256,192,135970,1,2,0:0:0:0:
256,192,136636,1,0,0:0:0:0:
256,192,137303,1,0,0:0:0:0:
256,192,137636,1,0,0:0:0:0:
256,192,137970,1,2,0:0:0:0:
256,192,138303,1,2,0:0:0:0:
256,192,138636,1,0,0:0:0:0:
256,192,138970,1,0,0:0:0:0:
256,192,139303,1,4,0:0:0:0:
256,192,139636,1,0,0:0:0:0:
256,192,139803,1,0,0:0:0:0:
256,192,139970,1,2,0:0:0:0:
256,192,140136,1,0,0:0:0:0:
256,192,140303,1,2,0:0:0:0:
256,192,140636,1,2,0:0:0:0:
256,192,140970,1,0,0:0:0:0:
256,192,141303,1,2,0:0:0:0:
256,192,141636,1,0,0:0:0:0:
256,192,141970,1,2,0:0:0:0:
256,192,142303,1,2,0:0:0:0:
256,192,142470,1,2,0:0:0:0:
256,192,142636,1,0,0:0:0:0:
256,192,142970,1,0,0:0:0:0:
256,192,143136,1,0,0:0:0:0:
256,192,143303,12,0,144803,0:0:0:0:
