osu file format v14

[General]
AudioFilename: audio.mp3
AudioLeadIn: 0
PreviewTime: 91886
Countdown: 0
SampleSet: Soft
StackLeniency: 0.5
Mode: 0
LetterboxInBreaks: 0
WidescreenStoryboard: 1

[Editor]
Bookmarks: 117969,123302,128635
DistanceSpacing: 1
BeatDivisor: 4
GridSize: 4
TimelineZoom: 1.5

[Metadata]
Title:Yubi Bouenkyou
TitleUnicode:指望遠鏡
Artist:Nogizaka46
ArtistUnicode:乃木坂46
Creator:A r M i N
Version:Extreme
Source:マギ The labyrinth of magic
Tags:short cut version Armin A_r_M_i_N Sotarks Basensorex Kowari Nevo Reform Kujinn Ron [R] ed ending japanese pop j-pop magi アニメ版 Anime-Ban Anime Ban
BeatmapID:2428357
BeatmapSetID:1164077

[Difficulty]
HPDrainRate:5.8
CircleSize:3.8
OverallDifficulty:9
ApproachRate:9.3
SliderMultiplier:1.80000000596046
SliderTickRate:1

[Events]
//Background and Video events
0,0,"cropped-1920-1080-713375.jpg",0,0
//Break Periods
//Storyboard Layer 0 (Background)
//Storyboard Layer 1 (Fail)
//Storyboard Layer 2 (Pass)
//Storyboard Layer 3 (Foreground)
//Storyboard Layer 4 (Overlay)
//Storyboard Sound Samples

[TimingPoints]
637,333.333333333333,4,2,1,80,1,0
1303,-200,4,2,1,40,0,0
1970,-142.857142857143,4,2,1,50,0,0
7303,-142.857142857143,4,2,1,10,0,0
8136,-142.857142857143,4,2,1,60,0,0
8303,-83.3333333333333,4,2,1,65,0,0
8636,-100,4,2,1,75,0,0
13970,-125,4,2,1,65,0,0
24636,-111.111111111111,4,2,1,65,0,0
35303,-125,4,2,1,60,0,0
40636,-100,4,2,1,70,0,0
44970,-100,4,2,1,80,0,0
45970,-100,4,2,1,70,0,0
46970,-83.3333333333333,4,2,1,75,0,0
47303,-90.9090909090909,4,2,1,80,0,1
68636,-111.111111111111,4,2,1,70,0,0
73970,-100,4,2,1,75,0,0
76636,-90.9090909090909,4,2,1,80,0,1
79636,-90.9090909090909,4,2,1,85,0,1
80636,-166.666666666667,4,2,1,60,0,0
88636,-100,4,2,1,70,0,0
92303,-83.3333333333333,4,2,1,75,0,0
92636,-90.9090909090909,4,2,1,80,0,1
111303,-100,4,2,1,70,0,0
113970,-83.3333333333333,4,2,1,80,0,1
132636,-90.9090909090909,4,2,1,75,0,1
135303,-100,4,2,1,70,0,0
140636,-166.666666666667,4,2,1,50,0,0
144803,-166.666666666667,4,2,1,5,0,0

[Colours]
Combo1 : 199,199,199
Combo2 : 89,111,159
Combo3 : 234,210,115
Combo4 : 133,13,3

[HitObjects]
162,87,1303,6,0,L|146:175,1,90.000000298023,2|2,0:0|0:0,0:0:0:0:
18,309,1970,6,0,P|66:270|127:269,1,125.999996572017,2|2,0:0|0:0,0:0:0:0:
306,314,2636,2,0,P|249:291|217:238,1,125.999996572017,2|2,0:0|0:0,0:0:0:0:
271,54,3303,1,2,0:0:0:0:
271,54,3970,6,0,L|293:179,1,125.999996572017,2|2,0:0|0:0,0:0:0:0:
128,268,4636,2,0,P|128:206|167:158,1,125.999996572017,2|2,0:0|0:0,0:0:0:0:
343,260,5303,2,0,L|219:239,1,125.999996572017,2|2,0:0|0:0,0:0:0:0:
359,67,5970,1,2,0:0:0:0:
256,192,6053,12,0,7303,0:0:0:0:
61,119,8136,5,0,3:0:0:0:
61,119,8220,1,0,3:0:0:0:
62,119,8303,2,0,P|140:137|219:154,1,161.999995592594,12|0,0:0|0:0,0:0:0:0:
275,232,8636,5,4,3:2:0:0:
165,46,8803,1,0,3:3:0:0:
76,271,8970,1,8,0:0:0:0:
300,88,9136,6,0,P|386:81|444:146,1,180.000000596046,4|0,3:2|3:3,0:0:0:0:
344,334,9636,1,8,0:0:0:0:
220,155,9803,6,0,B|160:169|160:169|114:139|114:139|53:154,1,180.000000596046,4|0,3:2|3:0,0:0:0:0:
209,12,10303,1,8,0:0:0:0:
306,215,10470,6,0,P|266:257|185:253,1,135.000000447034,4|0,3:2|0:0,0:0:0:0:
139,179,10803,1,8,0:3:0:0:
382,143,10970,2,0,P|404:180|409:230,1,90.000000298023,8|4,0:0|0:3,0:0:0:0:
206,344,11303,5,4,3:2:0:0:
282,113,11470,1,0,3:0:0:0:
393,364,11636,1,8,0:0:0:0:
218,234,11803,6,0,P|261:224|305:214,1,90.000000298023,4|0,3:2|0:0,0:0:0:0:
458,72,12136,2,0,P|414:63|371:53,1,90.000000298023,0|8,3:0|0:0,0:0:0:0:
391,286,12470,6,0,P|414:248|417:203,1,90.000000298023,4|0,3:2|0:0,0:0:0:0:
258,10,12803,2,0,P|267:53|277:97,1,90.000000298023,0|8,3:0|0:0,0:0:0:0:
168,288,13136,6,0,P|158:223|200:173,1,135.000000447034,4|0,3:2|0:0,0:0:0:0:
294,193,13470,1,8,0:3:0:0:
193,383,13636,2,0,P|149:373|105:363,1,90.000000298023,12|0,0:0|0:0,0:0:0:0:
323,289,13970,6,0,P|375:278|464:261,1,144.000000476837,4|10,3:2|0:0,0:0:0:0:
343,155,14470,1,0,0:0:0:0:
455,99,14636,2,0,P|445:133|437:169,1,72.0000002384184,2|0,3:2|3:0,0:0:0:0:
253,122,14970,2,0,P|244:86|234:52,1,72.0000002384184,10|2,0:0|0:0,0:0:0:0:
100,208,15303,6,0,P|134:249|227:242,1,144.000000476837,0|10,3:0|0:0,0:0:0:0:
152,96,15803,1,2,0:0:0:0:
28,145,15970,2,0,P|12:178|4:218,1,72.0000002384184,2|0,3:2|3:0,0:0:0:0:
130,117,16303,1,10,0:0:0:0:
7,18,16470,6,0,L|76:37,1,72.0000002384184,2|0,0:0|3:0,0:0:0:0:
256,97,16803,1,2,0:0:0:0:
103,218,16970,1,10,0:0:0:0:
180,26,17136,1,2,0:0:0:0:
292,206,17303,1,2,3:2:0:0:
130,117,17470,1,2,3:2:0:0:
303,13,17636,1,10,0:0:0:0:
186,205,17803,6,0,P|196:239|204:274,1,72.0000002384184,2|0,0:0|3:0,0:0:0:0:
382,340,18136,1,2,0:0:0:0:
292,206,18303,1,10,0:0:0:0:
210,379,18470,1,2,3:2:0:0:
210,379,18553,1,0,3:0:0:0:
210,379,18636,2,0,P|244:368|279:360,1,72.0000002384184,2|2,3:2|3:2,0:0:0:0:
456,256,18970,2,0,P|421:248|387:238,1,72.0000002384184,8|0,0:0|0:0,0:0:0:0:
358,40,19303,6,0,P|419:74|432:143,1,144.000000476837,0|10,3:0|0:0,0:0:0:0:
292,249,19803,1,2,0:0:0:0:
215,138,19970,2,0,P|250:129|284:119,1,72.0000002384184,2|0,3:2|0:0,0:0:0:0:
177,248,20303,1,8,0:0:0:0:
65,182,20470,6,0,P|53:215|46:251,1,72.0000002384184,2|0,0:0|3:2,0:0:0:0:
187,148,20803,2,0,P|179:112|168:78,1,72.0000002384184,2|8,0:0|0:0,0:0:0:0:
286,208,21136,2,0,B|359:189|348:250|421:231,1,144.000000476837,2|0,0:0|3:0,0:0:0:0:
457,50,21636,2,0,P|406:62|392:112,1,108.000000357628,8|0,0:0|0:0,0:0:0:0:
411,136,21970,6,0,P|446:145|480:155,1,72.0000002384184,0|2,3:0|0:0,0:0:0:0:
352,275,22303,1,10,0:0:0:0:
281,117,22470,1,2,0:0:0:0:
365,303,22636,1,2,3:2:0:0:
411,136,22803,1,2,3:2:0:0:
250,254,22970,1,2,0:0:0:0:
450,370,23136,6,0,B|466:328|483:289|483:289|450:243,1,144.000000476837,12|0,0:0|3:0,0:0:0:0:
317,97,23636,2,0,P|351:88|386:77,1,72.0000002384184,8|2,0:0|0:0,0:0:0:0:
418,71,23886,1,8,0:0:0:0:
418,71,23970,1,0,3:0:0:0:
348,204,24136,1,0,3:0:0:0:
232,33,24303,2,0,P|214:66|214:110,1,72.0000002384184,8|0,0:0|0:0,0:0:0:0:
77,268,24636,6,0,P|64:187|51:108,1,161.999995592594,4|10,3:2|0:0,0:0:0:0:
182,200,25136,1,0,0:0:0:0:
293,78,25303,2,0,P|284:117|276:157,1,80.9999977962969,2|0,3:2|3:0,0:0:0:0:
162,50,25636,1,10,0:0:0:0:
356,6,25803,2,0,P|380:40|387:78,1,80.9999977962969,2|0,0:0|3:0,0:0:0:0:
238,245,26136,5,2,0:0:0:0:
293,78,26303,1,10,0:0:0:0:
410,208,26470,1,2,0:0:0:0:
211,143,26636,2,0,P|172:151|133:162,1,80.9999977962969,2|0,3:2|3:0,0:0:0:0:
38,334,26970,1,10,0:0:0:0:
144,258,27136,1,2,0:0:0:0:
0,138,27303,5,8,3:2:0:0:
238,245,27470,1,8,3:2:0:0:
189,26,27969,5,8,3:2:0:0:
52,304,28136,1,8,3:2:0:0:
399,260,28637,5,8,3:2:0:0:
51,90,28803,1,8,3:2:0:0:
216,360,29303,5,8,3:2:0:0:
355,83,29470,1,4,0:3:0:0:
399,260,29636,1,8,0:2:0:0:
233,174,29803,1,8,0:0:0:0:
233,174,29886,1,8,0:0:0:0:
232,173,29970,6,0,P|190:181|153:189,1,80.9999977962969,4|0,3:2|0:0,0:0:0:0:
54,35,30303,2,0,P|86:59|105:95,1,80.9999977962969,10|0,0:0|0:0,0:0:0:0:
22,257,30636,2,0,P|27:217|48:183,1,80.9999977962969,2|0,3:2|3:0,0:0:0:0:
215,273,30970,1,10,0:0:0:0:
133,330,31136,6,0,P|124:290|117:251,1,80.9999977962969,2|0,0:0|3:0,0:0:0:0:
292,130,31470,2,0,P|284:169|275:209,1,80.9999977962969,2|8,0:0|0:0,0:0:0:0:
133,71,31803,2,0,P|190:17|267:27,1,161.999995592594,2|0,0:0|3:0,0:0:0:0:
146,175,32303,2,0,P|106:170|70:153,1,80.9999977962969,8|0,0:0|0:0,0:0:0:0:
292,130,32636,6,0,P|338:167|351:225,1,121.499996694445,0|0,3:0|0:0,0:0:0:0:
328,257,32970,2,0,P|288:267|249:276,1,80.9999977962969,14|2,0:0|0:0,0:0:0:0:
395,76,33303,1,10,0:0:0:0:
468,321,33470,1,2,3:2:0:0:
292,130,33636,1,10,0:0:0:0:
210,360,33803,6,0,P|150:378|76:318,1,161.999995592594,6|0,3:2|3:0,0:0:0:0:
151,109,34303,2,0,P|163:152|172:193,1,80.9999977962969,8|8,0:0|0:0,0:0:0:0:
184,221,34553,1,8,0:0:0:0:
184,221,34636,1,8,0:0:0:0:
30,115,34803,1,8,0:0:0:0:
236,38,34970,1,8,0:3:0:0:
58,105,35136,1,4,0:3:0:0:
278,203,35303,6,0,B|351:184|340:245|413:226,1,144.000000476837,4|2,3:2|0:0,0:0:0:0:
498,164,35803,1,0,3:0:0:0:
379,63,35970,2,0,P|388:98|397:133,1,72.0000002384184,10|0,0:0|0:0,0:0:0:0:
250,97,36303,2,0,P|258:62|267:27,1,72.0000002384184,2|0,0:0|3:0,0:0:0:0:
110,120,36636,6,0,P|110:156|123:188,1,72.0000002384184,2|8,0:0|0:0,0:0:0:0:
169,39,36970,2,0,P|134:30|99:21,1,72.0000002384184,2|0,0:0|3:0,0:0:0:0:
231,141,37303,2,0,P|265:132|300:123,1,72.0000002384184,10|0,0:0|0:0,0:0:0:0:
438,0,37636,2,0,P|429:34|420:69,1,72.0000002384184,2|0,3:2|0:0,0:0:0:0:
444,287,37970,6,0,P|447:217|397:168,1,144.000000476837,6|2,3:2|0:0,0:0:0:0:
269,242,38470,1,0,3:0:0:0:
156,51,38636,6,0,P|145:114|131:196,1,144.000000476837,12|2,0:0|3:2,0:0:0:0:
264,101,39136,1,2,0:0:0:0:
28,128,39303,6,0,P|9:168|60:255,1,144.000000476837,12|0,0:0|0:0,0:0:0:0:
203,166,39803,1,0,3:0:0:0:
203,166,39886,1,8,0:0:0:0:
203,166,39970,2,0,P|163:158|117:151,1,72.0000002384184,8|8,0:0|0:0,0:0:0:0:
265,354,40303,2,0,P|297:312|295:259,1,108.000000357628,8|0,0:3|0:0,0:0:0:0:
266,234,40636,6,0,P|222:242|177:251,1,90.000000298023,4|0,3:2|0:0,0:0:0:0:
333,118,40970,2,0,P|363:160|367:200,1,90.000000298023,10|0,0:0|0:0,0:0:0:0:
207,71,41303,1,2,3:2:0:0:
403,21,41470,1,0,3:0:0:0:
263,197,41636,2,0,P|218:188|174:180,1,90.000000298023,10|0,0:0|0:0,0:0:0:0:
365,329,41970,6,0,P|410:320|454:312,1,90.000000298023,2|0,3:2|0:0,0:0:0:0:
333,118,42303,1,10,0:0:0:0:
245,303,42470,1,0,3:0:0:0:
245,303,42553,1,0,3:3:0:0:
245,303,42636,1,4,3:3:0:0:
451,180,42803,1,0,3:2:0:0:
264,25,42970,2,0,P|221:74|235:138,1,135.000000447034,10|0,0:2|0:0,0:0:0:0:
330,183,43303,6,0,B|238:155|252:240|161:212,1,180.000000596046,4|8,3:2|0:0,0:0:0:0:
410,274,43803,6,0,B|472:208|472:208|435:123,1,180.000000596046,4|0,3:2|0:0,0:0:0:0:
324,6,44303,1,8,0:0:0:0:
165,182,44470,6,0,B|229:166|229:166|269:198|269:198|333:182,1,180.000000596046,4|8,3:2|3:2,0:0:0:0:
197,53,44970,1,8,3:2:0:0:
99,305,45136,1,8,3:2:0:0:
207,24,45303,1,8,3:2:0:0:
292,345,45470,1,8,3:2:0:0:
60,86,45636,1,12,0:0:0:0:
399,174,45970,6,0,L|443:181,3,45.0000001490115,8|8|0|0,0:0|0:0|3:0|3:0,0:0:0:0:
313,234,46303,2,0,L|268:241,3,45.0000001490115,8|8|4|4,0:3|0:3|0:3|0:3,0:0:0:0:
305,129,46636,5,4,0:3:0:0:
301,106,46719,1,4,0:3:0:0:
297,84,46802,1,4,0:3:0:0:
293,62,46886,1,4,0:3:0:0:
289,40,46970,6,0,B|206:18|218:88|135:66,1,161.999995592594,4|0,3:2|0:0,0:0:0:0:
49,124,47303,6,0,L|31:221,1,99.0000033490656,6|0,3:2|0:0,0:0:0:0:
238,326,47636,2,0,L|220:228,1,99.0000033490656,8|0,0:0|0:0,0:0:0:0:
109,375,47969,1,2,3:2:0:0:
342,279,48136,1,0,0:0:0:0:
149,164,48303,2,0,P|126:207|128:256,1,99.0000033490656,8|0,0:0|0:0,0:0:0:0:
295,120,48636,6,0,P|258:61|129:69,1,198.000006698131,2|8,3:2|0:0,0:0:0:0:
279,223,49136,1,0,0:0:0:0:
381,60,49303,2,0,L|399:158,1,99.0000033490656,2|0,3:2|0:0,0:0:0:0:
177,247,49636,2,0,L|195:149,1,99.0000033490656,10|0,0:0|0:0,0:0:0:0:
244,325,49969,5,2,3:2:0:0:
72,215,50136,1,0,0:0:0:0:
276,84,50303,2,0,L|294:182,1,99.0000033490656,10|0,0:0|0:0,0:0:0:0:
179,46,50636,1,2,3:2:0:0:
389,142,50803,1,0,0:0:0:0:
177,247,50969,2,0,L|195:149,1,99.0000033490656,10|0,0:2|0:0,0:0:0:0:
314,342,51303,6,0,B|255:322|255:322|192:361|192:361|134:342,1,198.000006698131,2|8,3:2|0:0,0:0:0:0:
293,181,51803,1,0,0:0:0:0:
96,119,51969,2,0,L|114:217,1,99.0000033490656,2|0,3:2|0:0,0:0:0:0:
282,56,52303,2,0,P|239:33|190:35,1,99.0000033490656,10|0,0:0|0:0,0:0:0:0:
407,140,52636,6,0,L|425:42,1,99.0000033490656,6|0,3:2|0:0,0:0:0:0:
217,136,52969,2,0,L|235:234,1,99.0000033490656,10|0,0:0|0:0,0:0:0:0:
452,265,53303,1,2,3:2:0:0:
312,94,53470,1,0,0:0:0:0:
209,335,53636,2,0,P|257:337|301:314,1,99.0000033490656,10|0,0:0|0:0,0:0:0:0:
73,188,53970,6,0,L|55:286,1,99.0000033490656,2|0,3:2|0:0,0:0:0:0:
217,136,54303,2,0,L|235:234,1,99.0000033490656,10|0,0:2|0:0,0:0:0:0:
119,88,54636,1,2,3:2:0:0:
330,166,54803,1,0,0:0:0:0:
155,300,54970,2,0,P|131:256|134:207,1,99.0000033490656,10|0,0:0|0:0,0:0:0:0:
368,282,55303,6,0,L|350:380,1,99.0000033490656,6|0,3:2|0:0,0:0:0:0:
234,233,55636,1,10,0:0:0:0:
424,159,55803,1,0,0:0:0:0:
261,335,55970,2,0,P|212:337|168:314,1,99.0000033490656,6|0,3:2|0:0,0:0:0:0:
264,110,56303,1,10,0:0:0:0:
368,282,56470,1,0,0:0:0:0:
134,207,56636,6,0,B|90:85|90:85|113:57|141:40,1,198.000006698131,6|8,3:2|0:0,0:0:0:0:
316,142,57136,1,0,3:0:0:0:
316,142,57220,1,8,0:0:0:0:
316,142,57303,2,0,L|218:124,1,99.0000033490656,10|8,0:0|0:0,0:0:0:0:
415,28,57636,2,0,P|438:71|435:120,1,99.0000033490656,6|0,3:2|0:0,0:0:0:0:
268,321,57970,6,0,L|250:223,1,99.0000033490656,6|0,3:2|0:0,0:0:0:0:
84,109,58303,2,0,L|66:207,1,99.0000033490656,10|0,0:0|0:0,0:0:0:0:
225,97,58636,1,2,3:2:0:0:
30,8,58803,1,0,0:0:0:0:
199,206,58970,2,0,P|247:209|291:187,1,99.0000033490656,10|0,0:0|0:0,0:0:0:0:
84,109,59303,6,0,B|65:167|65:167|104:230|104:230|84:289,1,198.000006698131,2|8,3:2|0:0,0:0:0:0:
227,131,59803,1,0,0:0:0:0:
405,238,59970,2,0,P|413:190|421:138,1,99.0000033490656,2|0,3:2|0:0,0:0:0:0:
193,226,60303,2,0,P|200:274|208:323,1,99.0000033490656,10|0,0:2|0:0,0:0:0:0:
77,125,60636,5,2,3:2:0:0:
295,210,60803,1,0,0:0:0:0:
196,25,60970,2,0,P|189:74|181:123,1,99.0000033490656,10|0,0:2|0:0,0:0:0:0:
343,303,61303,1,2,3:2:0:0:
290,105,61470,1,0,0:0:0:0:
141,271,61636,2,0,P|184:293|233:290,1,99.0000033490656,10|0,0:2|0:0,0:0:0:0:
51,155,61970,6,0,B|21:179|4:211|4:211|53:325,1,198.000006698131,2|8,3:2|0:0,0:0:0:0:
191,176,62470,1,0,3:0:0:0:
191,176,62553,1,8,0:2:0:0:
191,176,62636,2,0,P|181:127|171:79,1,99.0000033490656,2|0,3:2|0:3,0:0:0:0:
388,162,62970,2,0,P|377:210|368:258,1,99.0000033490656,10|0,0:0|0:0,0:0:0:0:
291,68,63303,6,0,P|360:2|455:18,1,198.000006698131,6|10,3:2|0:0,0:0:0:0:
285,174,63803,1,0,0:0:0:0:
167,16,63970,2,0,P|175:68|182:117,1,99.0000033490656,2|0,3:2|0:0,0:0:0:0:
39,265,64303,2,0,P|36:216|58:172,1,99.0000033490656,10|0,0:0|0:0,0:0:0:0:
285,174,64636,6,0,P|248:243|137:236,1,198.000006698131,6|10,3:2|0:0,0:0:0:0:
211,36,65136,1,2,0:0:0:0:
376,113,65303,2,0,P|383:161|390:210,1,99.0000033490656,2|0,3:2|0:0,0:0:0:0:
191,147,65636,1,10,0:0:0:0:
361,8,65803,1,2,0:0:0:0:
275,279,65970,5,4,3:2:0:0:
137,17,66136,1,8,0:0:0:0:
396,135,66303,1,8,0:3:0:0:
95,228,66470,1,4,0:3:0:0:
248,28,66636,2,0,P|255:77|263:126,1,99.0000033490656,12|0,0:0|0:0,0:0:0:0:
462,328,66970,6,0,B|496:310|512:280|512:280|460:163,1,198.000006698131,4|0,3:2|3:0,0:0:0:0:
168,95,67470,1,8,0:0:0:0:
318,276,67636,1,0,3:0:0:0:
379,48,67803,1,0,3:0:0:0:
379,48,67886,1,8,0:0:0:0:
379,48,67970,1,8,0:0:0:0:
244,185,68136,1,8,0:3:0:0:
436,301,68303,2,0,P|439:252|417:208,1,99.0000033490656,4|0,0:3|0:0,0:0:0:0:
269,381,68636,6,0,P|189:366|110:351,1,161.999995592594,6|0,3:2|0:0,0:0:0:0:
41,273,69136,1,0,3:0:0:0:
113,113,69303,2,0,B|167:173|167:173|141:250,1,161.999995592594,8|0,0:0|0:0,0:0:0:0:
25,169,69803,1,0,0:0:0:0:
93,10,69970,6,0,P|136:11|170:26,1,80.9999977962969,2|8,0:2|0:0,0:0:0:0:
299,90,70303,2,0,P|279:55|274:16,1,80.9999977962969,2|0,3:2|0:0,0:0:0:0:
126,152,70636,2,0,P|165:146|201:127,1,80.9999977962969,10|0,0:0|0:0,0:0:0:0:
272,256,70970,2,0,P|237:236|198:231,1,80.9999977962969,2|0,3:2|0:0,0:0:0:0:
373,189,71303,5,2,3:2:0:0:
288,360,71470,1,8,0:0:0:0:
370,294,71636,2,0,L|449:308,1,80.9999977962969,2|0,0:0|3:0,0:0:0:0:
351,156,71970,2,0,L|271:170,1,80.9999977962969,10|0,0:0|0:0,0:0:0:0:
385,2,72303,2,0,P|408:34|415:74,1,80.9999977962969,2|0,3:2|0:0,0:0:0:0:
210,366,72636,5,10,3:2:0:0:
311,75,72803,1,8,3:2:0:0:
103,265,73136,6,0,L|142:256,1,40.4999988981485,2|2,0:0|0:0,0:0:0:0:
318,351,73303,1,10,3:2:0:0:
198,119,73470,1,8,3:2:0:0:
467,45,73803,5,8,0:0:0:0:
467,45,73886,1,8,0:0:0:0:
467,45,73970,2,0,P|457:88|446:132,1,90.000000298023,4|2,3:2|0:2,0:0:0:0:
277,273,74303,1,2,0:0:0:0:
353,89,74470,1,2,3:2:0:0:
456,348,74636,1,10,0:2:0:0:
366,118,74803,1,2,0:0:0:0:
286,312,74970,1,2,0:0:0:0:
504,193,75136,1,2,3:2:0:0:
253,84,75303,1,2,0:2:0:0:
382,283,75470,2,0,P|392:239|402:195,1,90.000000298023,10|0,0:2|0:0,0:0:0:0:
169,38,75803,5,2,3:2:0:0:
265,297,75970,1,10,0:2:0:0:
368,71,76136,1,2,0:0:0:0:
119,162,76303,1,2,3:2:0:0:
382,283,76470,1,2,0:0:0:0:
84,146,76636,6,0,B|34:197|34:197|85:312,1,198.000006698131,6|8,3:2|0:0,0:0:0:0:
286,180,77136,1,2,0:0:0:0:
286,180,77220,1,2,0:0:0:0:
286,180,77303,2,0,L|268:82,1,99.0000033490656,0|0,3:2|3:0,0:0:0:0:
382,283,77636,1,8,0:0:0:0:
181,186,77803,1,0,0:0:0:0:
468,76,77970,6,0,B|441:203|441:203|417:183|377:181,1,198.000006698131,4|8,3:2|0:0,0:0:0:0:
172,326,78470,1,0,3:0:0:0:
172,326,78553,1,0,3:0:0:0:
172,326,78636,1,10,0:0:0:0:
382,283,78803,1,0,3:0:0:0:
181,125,78970,2,0,L|198:222,1,99.0000033490656,8|0,0:0|0:0,0:0:0:0:
377,102,79303,5,14,0:0:0:0:
377,102,79636,5,8,3:2:0:0:
223,334,79803,1,8,3:2:0:0:
306,27,79970,1,10,3:2:0:0:
429,337,80136,1,8,3:2:0:0:
407,1,80303,1,8,3:2:0:0:
326,382,80470,1,8,3:2:0:0:
270,121,80636,6,0,L|376:102,1,107.999997061729,2|2,0:0|0:0,0:0:0:0:
200,44,81303,2,0,P|170:93|171:149,1,107.999997061729,2|2,0:0|0:0,0:0:0:0:
356,307,81970,6,0,L|338:201,1,107.999997061729,2|2,0:0|0:0,0:0:0:0:
146,255,82636,2,0,L|127:361,1,107.999997061729,2|2,0:0|0:0,0:0:0:0:
223,184,83303,6,0,P|174:154|118:155,1,107.999997061729,2|2,0:0|0:0,0:0:0:0:
248,302,83970,2,0,P|301:300|346:271,1,107.999997061729,2|2,0:0|0:0,0:0:0:0:
384,173,84470,1,2,0:0:0:0:
187,136,84636,6,0,B|172:173|188:216|188:216|150:250|150:250|167:293|152:330,2,215.999994123458,2|2|2,0:0|0:0|0:0,0:0:0:0:
333,30,86303,5,2,0:0:0:0:
333,30,86636,2,0,L|351:136,1,107.999997061729,2|2,0:0|0:0,0:0:0:0:
494,284,87303,2,0,L|512:178,1,107.999997061729,2|2,0:0|0:0,0:0:0:0:
383,334,87970,2,0,P|329:332|284:303,1,107.999997061729,2|2,0:0|0:0,0:0:0:0:
147,37,88636,6,0,P|74:82|75:169,1,180.000000596046,6|8,3:2|0:0,0:0:0:0:
284,303,89136,2,0,B|329:196|329:196|312:169|286:148,1,180.000000596046,4|0,3:2|0:0,0:0:0:0:
35,272,89636,2,0,B|88:343|88:343|174:314,1,180.000000596046,4|0,3:2|0:0,0:0:0:0:
345,80,90136,5,8,0:0:0:0:
345,80,90220,1,8,0:0:0:0:
345,80,90303,1,8,0:0:0:0:
127,221,90470,1,8,0:0:0:0:
339,342,90636,1,8,0:0:0:0:
170,110,90803,1,8,0:0:0:0:
91,327,90970,1,8,0:3:0:0:
268,173,91136,1,4,0:3:0:0:
2,105,91303,5,8,3:2:0:0:
2,105,91636,5,8,3:2:0:0:
385,356,91970,6,0,P|359:325|361:278,1,90.000000298023,2|0,0:0|3:0,0:0:0:0:
394,255,92220,1,0,3:0:0:0:
394,255,92303,2,0,B|310:276|323:206|239:227,1,161.999995592594,14|0,0:2|0:0,0:0:0:0:
145,270,92636,6,0,L|127:172,1,99.0000033490656,6|0,3:2|0:0,0:0:0:0:
309,24,92970,2,0,L|291:122,1,99.0000033490656,10|0,0:0|0:0,0:0:0:0:
480,258,93303,1,2,3:2:0:0:
404,78,93470,1,0,0:0:0:0:
269,246,93636,2,0,P|317:248|361:225,1,99.0000033490656,10|0,0:2|0:0,0:0:0:0:
161,111,93970,6,0,P|106:151|110:278,1,198.000006698131,2|8,3:2|0:0,0:0:0:0:
261,141,94470,1,0,0:0:0:0:
386,250,94636,2,0,L|404:152,1,99.0000033490656,2|0,3:2|0:0,0:0:0:0:
199,225,94970,2,0,L|217:323,1,99.0000033490656,10|0,0:0|0:0,0:0:0:0:
107,109,95303,5,2,3:2:0:0:
298,192,95470,1,0,0:0:0:0:
123,327,95636,2,0,P|99:283|102:234,1,99.0000033490656,10|0,0:0|0:0,0:0:0:0:
267,81,95970,1,2,3:2:0:0:
202,261,96136,1,0,0:0:0:0:
58,99,96303,2,0,L|156:117,1,99.0000033490656,10|0,0:2|0:0,0:0:0:0:
393,43,96636,6,0,P|465:105|455:199,1,198.000006698131,2|8,3:2|0:0,0:0:0:0:
252,274,97136,1,0,0:0:0:0:
368,144,97303,2,0,L|350:242,1,99.0000033490656,2|0,3:2|0:0,0:0:0:0:
172,131,97636,2,0,L|190:33,1,99.0000033490656,10|0,0:0|0:0,0:0:0:0:
58,253,97970,6,0,L|156:235,1,99.0000033490656,6|0,3:2|0:0,0:0:0:0:
319,358,98303,2,0,P|270:360|226:337,1,99.0000033490656,10|0,0:0|0:0,0:0:0:0:
132,126,98636,1,2,3:2:0:0:
294,257,98803,1,0,0:0:0:0:
110,366,98970,2,0,L|128:268,1,99.0000033490656,10|0,0:0|0:0,0:0:0:0:
374,190,99303,6,0,P|397:233|394:282,1,99.0000033490656,2|0,3:2|0:0,0:0:0:0:
206,165,99636,2,0,P|203:116|226:72,1,99.0000033490656,10|0,0:2|0:0,0:0:0:0:
294,257,99970,1,2,3:2:0:0:
101,177,100136,1,0,0:0:0:0:
308,8,100303,2,0,L|326:106,1,99.0000033490656,10|0,0:2|0:0,0:0:0:0:
207,359,100636,6,0,L|109:341,1,99.0000033490656,2|0,3:2|0:0,0:0:0:0:
231,148,100970,1,14,0:0:0:0:
340,329,101136,1,0,0:0:0:0:
444,122,101303,2,0,L|462:220,1,99.0000033490656,2|0,3:2|0:0,0:0:0:0:
231,148,101636,1,14,0:0:0:0:
417,21,101803,1,0,0:0:0:0:
331,239,101970,6,0,B|229:208|246:302|144:271,1,198.000006698131,2|12,3:2|0:0,0:0:0:0:
7,152,102470,1,0,0:0:0:0:
66,348,102636,1,2,3:2:0:0:
177,177,102803,1,0,3:0:0:0:
177,177,102886,1,8,0:0:0:0:
177,177,102970,2,0,L|159:79,1,99.0000033490656,10|8,0:0|0:0,0:0:0:0:
241,15,103220,1,8,0:0:0:0:
241,15,103303,6,0,P|263:58|260:107,1,99.0000033490656,6|0,3:2|0:0,0:0:0:0:
439,233,103636,2,0,L|457:135,1,99.0000033490656,10|0,0:0|0:0,0:0:0:0:
297,305,103970,2,0,P|222:326|138:249,1,198.000006698131,2|8,3:2|0:0,0:0:0:0:
260,107,104470,1,0,0:0:0:0:
394,267,104636,6,0,B|414:208|414:208|375:145|375:145|394:87,1,198.000006698131,2|8,3:2|0:0,0:0:0:0:
240,224,105136,1,0,0:0:0:0:
128,57,105303,2,0,L|146:155,1,99.0000033490656,2|0,3:2|0:0,0:0:0:0:
10,314,105636,2,0,L|28:216,1,99.0000033490656,10|0,0:0|0:0,0:0:0:0:
239,85,105970,5,2,3:2:0:0:
131,264,106136,1,0,0:0:0:0:
21,79,106303,2,0,P|69:75|113:98,1,99.0000033490656,10|0,0:0|0:0,0:0:0:0:
227,302,106636,1,2,3:2:0:0:
48,180,106803,1,0,0:0:0:0:
242,33,106970,2,0,L|224:131,1,99.0000033490656,10|0,0:0|0:0,0:0:0:0:
427,257,107303,6,0,B|476:143|476:143|459:110|428:87,1,198.000006698131,2|8,3:2|0:0,0:0:0:0:
224,130,107803,1,0,0:0:0:0:
326,317,107970,2,0,L|308:219,1,99.0000033490656,2|0,3:2|0:0,0:0:0:0:
144,64,108303,2,0,P|121:107|124:156,1,99.0000033490656,10|0,0:0|0:0,0:0:0:0:
378,188,108636,6,0,P|337:126|210:142,1,198.000006698131,6|10,3:2|0:0,0:0:0:0:
138,306,109136,1,0,0:0:0:0:
30,174,109303,2,0,L|128:192,1,99.0000033490656,2|0,3:2|0:0,0:0:0:0:
229,10,109636,2,0,L|131:28,1,99.0000033490656,8|0,0:0|0:0,0:0:0:0:
325,153,109970,6,0,P|303:243|281:345,1,198.000006698131,6|10,3:2|0:0,0:0:0:0:
212,157,110470,1,2,0:0:0:0:
407,88,110636,2,0,P|429:131|426:180,1,99.0000033490656,2|0,3:2|0:0,0:0:0:0:
265,67,110970,1,10,0:0:0:0:
466,1,111136,1,2,0:0:0:0:
325,153,111303,6,0,B|299:240|299:240|326:277,1,135.000000447034,4|8,3:2|0:0,0:0:0:0:
389,347,111636,1,8,0:0:0:0:
203,196,111803,6,0,B|111:168|125:253|34:225,1,180.000000596046,4|8,3:2|0:0,0:0:0:0:
244,293,112303,6,0,P|302:228|288:136,1,180.000000596046,4|6,3:2|0:3,0:0:0:0:
291,141,112970,5,0,3:0:0:0:
105,246,113136,1,0,3:0:0:0:
322,338,113303,1,4,0:3:0:0:
103,215,113470,1,4,0:3:0:0:
300,111,113636,1,8,0:3:0:0:
204,327,113803,1,8,0:3:0:0:
36,125,113970,5,14,0:0:0:0:
108,369,114136,1,0,3:0:0:0:
175,74,114304,5,10,0:0:0:0:
204,327,114470,1,0,3:0:0:0:
337,74,114636,5,10,0:0:0:0:
308,327,114802,1,0,3:0:0:0:
476,125,114970,5,8,0:0:0:0:
404,369,115136,1,0,3:0:0:0:
274,188,115303,6,0,L|381:169,1,107.999997061729,10|0,0:0|3:0,0:0:0:0:
219,362,115636,2,0,P|196:314|200:261,1,107.999997061729,8|0,0:0|3:0,0:0:0:0:
373,65,115970,5,10,0:0:0:0:
298,295,116136,1,0,3:0:0:0:
275,29,116303,5,10,0:0:0:0:
410,263,116470,1,0,3:0:0:0:
144,204,116636,5,14,0:0:0:0:
373,65,116803,1,0,3:0:0:0:
106,36,116970,5,10,0:0:0:0:
345,173,117136,1,0,3:0:0:0:
100,283,117303,5,10,0:0:0:0:
220,48,117470,1,0,3:0:0:0:
296,347,117636,5,10,0:0:0:0:
154,129,117803,1,0,3:0:0:0:
63,381,117970,6,0,L|170:361,1,107.999997061729,10|0,0:0|3:0,0:0:0:0:
340,218,118303,2,0,L|233:198,1,107.999997061729,10|0,0:0|3:0,0:0:0:0:
309,336,118637,5,10,0:0:0:0:
419,83,118803,1,0,3:0:0:0:
454,363,118969,5,10,0:0:0:0:
320,115,119136,1,0,3:0:0:0:
221,376,119303,5,14,0:0:0:0:
397,186,119470,1,0,3:0:0:0:
144,175,119636,5,10,0:0:0:0:
381,289,119803,1,0,3:0:0:0:
119,299,119970,5,10,0:0:0:0:
320,115,120136,1,0,3:0:0:0:
68,102,120303,5,10,0:0:0:0:
304,219,120470,1,0,3:0:0:0:
119,299,120636,5,14,0:0:0:0:
239,50,120803,1,0,3:0:0:0:
302,337,120970,5,10,0:0:0:0:
152,108,121136,1,0,3:0:0:0:
77,374,121303,5,10,0:0:0:0:
304,219,121470,1,0,3:0:0:0:
16,179,121636,5,10,0:0:0:0:
241,303,121803,1,0,3:0:0:0:
183,11,121970,5,14,0:0:0:0:
72,321,122136,1,0,3:0:0:0:
72,51,122303,5,10,0:0:0:0:
203,279,122470,1,0,3:0:0:0:
272,65,122636,5,14,0:0:0:0:
161,375,122802,1,0,3:0:0:0:
161,105,122969,5,10,0:0:0:0:
292,333,123136,1,0,3:0:0:0:
389,79,123303,6,0,L|409:186,1,107.999997061729,14|0,0:0|3:0,0:0:0:0:
203,279,123636,2,0,L|223:172,1,107.999997061729,8|0,0:0|3:0,0:0:0:0:
317,352,123970,5,10,0:0:0:0:
94,226,124136,1,0,3:0:0:0:
347,218,124303,5,10,0:0:0:0:
140,361,124470,1,0,3:0:0:0:
180,88,124636,5,14,0:0:0:0:
301,325,124803,1,0,3:0:0:0:
274,44,124970,5,10,0:0:0:0:
168,315,125136,1,0,3:0:0:0:
118,5,125303,5,10,0:0:0:0:
257,261,125470,1,0,3:0:0:0:
371,5,125636,5,10,0:0:0:0:
166,211,125803,1,0,3:0:0:0:
441,110,125970,6,0,L|421:217,1,107.999997061729,10|0,0:0|3:0,0:0:0:0:
213,117,126303,2,0,L|193:10,1,107.999997061729,8|0,0:0|3:0,0:0:0:0:
95,243,126636,5,10,0:0:0:0:
328,128,126803,1,0,3:0:0:0:
42,108,126970,5,10,0:0:0:0:
259,228,127136,1,0,3:0:0:0:
39,331,127303,5,14,0:0:0:0:
188,92,127470,1,0,3:0:0:0:
221,326,127636,5,10,0:0:0:0:
84,76,127803,1,0,3:0:0:0:
132,378,127970,5,10,0:0:0:0:
281,139,128137,1,0,3:0:0:0:
314,373,128303,5,10,0:0:0:0:
177,123,128470,1,0,3:0:0:0:
72,333,128636,6,0,P|125:337|173:314,1,107.999997061729,10|0,0:0|3:0,0:0:0:0:
343,140,128970,2,0,P|312:184|308:237,1,107.999997061729,8|0,0:0|3:0,0:0:0:0:
407,380,129303,5,10,0:0:0:0:
188,235,129470,1,0,3:0:0:0:
475,190,129636,5,10,0:0:0:0:
247,321,129803,1,0,3:0:0:0:
304,123,129970,5,12,0:0:0:0:
407,380,130136,1,0,3:0:0:0:
426,81,130303,5,10,0:0:0:0:
331,308,130470,1,0,3:0:0:0:
251,35,130636,5,10,0:0:0:0:
428,278,130803,1,0,3:0:0:0:
473,7,130970,5,10,0:0:0:0:
327,255,131136,1,0,3:0:0:0:
214,15,131303,5,14,0:0:0:0:
446,162,131470,1,0,3:0:0:0:
143,212,131636,5,10,0:2:0:0:
392,70,131803,1,2,3:2:0:0:
304,348,131970,5,10,0:0:0:0:
214,15,132136,1,0,3:0:0:0:
152,371,132303,5,10,0:0:0:0:
290,84,132470,1,2,3:2:0:0:
79,263,132636,6,0,L|273:228,1,198.000006698131,4|8,3:2|0:0,0:0:0:0:
423,55,133136,2,0,L|405:153,1,99.0000033490656,4|0,3:2|0:0,0:0:0:0:
489,285,133470,1,8,0:0:0:0:
291,108,133636,6,0,P|217:89|137:171,1,198.000006698131,4|0,3:2|3:0,0:0:0:0:
291,325,134136,1,0,3:0:0:0:
291,325,134220,1,8,0:0:0:0:
291,325,134303,2,0,L|273:227,1,99.0000033490656,8|8,0:0|0:0,0:0:0:0:
160,355,134636,5,8,0:0:0:0:
366,180,134803,1,8,0:0:0:0:
147,108,134970,1,8,0:3:0:0:
398,289,135136,1,4,0:3:0:0:
306,39,135303,6,0,P|283:77|279:122,1,90.000000298023,6|0,3:2|0:0,0:0:0:0:
96,258,135636,2,0,P|91:213|68:175,1,90.000000298023,10|0,0:0|0:0,0:0:0:0:
232,321,135970,2,0,B|324:293|310:378|401:350,1,180.000000596046,2|8,3:2|0:0,0:0:0:0:
508,231,136470,1,0,0:0:0:0:
357,87,136636,6,0,B|380:115|412:123|412:123|372:229,1,180.000000596046,2|8,3:2|0:0,0:0:0:0:
240,103,137136,1,0,0:0:0:0:
154,250,137303,2,0,L|242:233,1,90.000000298023,2|0,3:2|0:0,0:0:0:0:
164,32,137636,2,0,P|141:70|136:114,1,90.000000298023,10|0,0:2|0:0,0:0:0:0:
341,129,137970,6,0,L|324:40,1,90.000000298023,2|0,3:2|0:0,0:0:0:0:
224,192,138303,2,0,L|240:103,1,90.000000298023,10|0,0:2|0:0,0:0:0:0:
404,212,138636,2,0,P|363:231|319:231,1,90.000000298023,2|0,3:2|0:0,0:0:0:0:
443,115,138970,2,0,P|479:140|502:178,1,90.000000298023,10|0,0:2|0:0,0:0:0:0:
341,129,139303,5,8,3:2:0:0:
341,129,139636,5,8,3:2:0:0:
216,289,139803,1,8,3:2:0:0:
307,27,139970,1,10,3:2:0:0:
388,326,140136,1,8,3:2:0:0:
409,49,140303,1,10,3:2:0:0:
290,363,140470,1,8,3:2:0:0:
209,64,140636,6,0,L|102:84,1,107.999997061729,2|2,0:0|0:0,0:0:0:0:
245,265,141303,2,0,L|351:244,1,107.999997061729,2|2,0:0|0:0,0:0:0:0:
117,208,141970,2,0,P|99:248|105:310,1,107.999997061729,2|2,0:0|0:0,0:0:0:0:
211,324,142470,1,2,0:0:0:0:
211,324,142636,2,0,L|201:271,2,53.9999985308646,2|0|0,0:0|0:0|0:0,0:0:0:0:
318,339,143136,1,2,0:0:0:0:
256,192,143220,12,0,144803,0:0:0:0:
