osu file format v14

[General]
AudioFilename: audio.mp3
AudioLeadIn: 0
PreviewTime: 44717
Countdown: 0
SampleSet: Soft
StackLeniency: 0.7
Mode: 0
LetterboxInBreaks: 0
WidescreenStoryboard: 0

[Editor]
DistanceSpacing: 1.3
BeatDivisor: 4
GridSize: 16
TimelineZoom: 1.7

[Metadata]
Title:Yubi Bouenkyou ~Anime-ban~
TitleUnicode:指望遠鏡~アニメ版~
Artist:Nogizaka46
ArtistUnicode:乃木坂46
Creator:Nevo
Version:~Shogun's Hard~
Source:Magi: The Labyrinth of Magic
Tags:マギ ending tv size Armin A_r_M_i_N Little Lince Cosmico ShogunMoon Waku Doormat My Angel Kanan Time Capsule CloudSplash16
BeatmapID:1474949
BeatmapSetID:623924

[Difficulty]
HPDrainRate:4
CircleSize:3.7
OverallDifficulty:6
ApproachRate:7.5
SliderMultiplier:1.4
SliderTickRate:1

[Events]
//Background and Video events
0,0,"Aladdin.(Magi).full.1419902.jpg",0,0
//Break Periods
//Storyboard Layer 0 (Background)
//Storyboard Layer 1 (Fail)
//Storyboard Layer 2 (Pass)
//Storyboard Layer 3 (Foreground)
//Storyboard Sound Samples

[TimingPoints]
1551,333.333333333333,4,2,1,30,1,0
1551,-125,4,2,1,30,0,0
5550,-153.846153846154,4,2,1,30,0,0
7717,-100,4,2,1,60,0,0
8217,-100,4,2,1,70,0,0
34884,-125,4,2,1,70,0,0
40217,-111.111111111111,4,2,1,70,0,0
45550,-90.9090909090909,4,2,1,80,0,1
64217,-90.9090909090909,4,2,1,80,0,0
66884,-90.9090909090909,4,2,1,80,0,1
82884,-100,4,2,1,60,0,0
86884,-100,4,2,1,5,0,0

[Colours]
Combo1 : 234,210,115
Combo2 : 55,155,255
Combo3 : 207,207,207

[HitObjects]
26,154,1551,6,0,L|159:146,1,112,2|2,0:0|0:0,0:0:0:0:
270,44,2217,2,0,L|400:52,1,112
465,60,2717,1,0,0:0:0:0:
465,60,2884,1,0,0:0:0:0:
228,297,3550,2,0,P|233:242|248:177,1,112,2|2,0:0|0:0,0:0:0:0:
405,135,4217,6,0,P|417:189|423:249,1,112,2|2,0:0|0:0,0:0:0:0:
288,347,4884,2,0,P|236:341|181:390,1,112,2|2,0:0|0:0,0:0:0:0:
43,264,5550,2,0,B|23:219|23:219|47:189|47:189|4:159|-8:80|0:-8|116:-8|152:-12|208:36|232:84|216:176|148:172,1,545.999975006105,2|2,0:0|0:0,0:0:0:0:
122,138,7717,6,0,L|104:96,2,35,8|2|2,0:0|0:0|0:0,0:0:0:0:
224,291,8217,6,0,L|234:376,1,70,6|2,0:0|0:0,0:0:0:0:
323,369,8550,1,8,0:0:0:0:
403,313,8717,2,0,L|416:160,1,140,6|2,0:0|0:0,0:0:0:0:
352,106,9217,1,8,0:0:0:0:
279,39,9384,6,0,P|346:61|422:15,1,140,6|2,0:0|0:0,0:0:0:0:
473,95,9884,1,8,0:0:0:0:
414,173,10050,2,0,B|401:331,1,140,6|2,0:0|0:0,0:0:0:0:
321,354,10550,1,8,0:0:0:0:
182,235,10884,6,0,P|147:234|101:228,1,70,6|2,0:0|0:0,0:0:0:0:
46,166,11217,1,8,0:0:0:0:
70,78,11384,2,0,P|122:38|199:71,1,140,6|6,0:0|0:0,0:0:0:0:
323,179,12050,6,0,L|332:332,1,140,6|6,0:0|0:0,0:0:0:0:
415,156,12717,2,0,P|387:106|301:88,1,140,6|2,0:0|0:0,0:0:0:0:
230,128,13217,1,8,0:0:0:0:
60,195,13550,6,0,B|38:243|38:243|55:338,1,140,6|8,0:0|0:0,0:0:0:0:
133,371,14050,1,0,0:0:0:0:
218,338,14217,2,0,L|298:332,1,70,2|2,0:0|0:0,0:0:0:0:
361,278,14550,2,0,L|444:284,1,70,8|0,0:0|0:0,0:0:0:0:
497,210,14884,6,0,P|491:137|431:95,1,140,0|8,0:0|0:0,0:0:0:0:
353,77,15384,1,0,0:0:0:0:
262,81,15550,2,0,P|226:79|185:85,1,70,2|2,0:0|0:0,0:0:0:0:
155,166,15883,2,0,P|189:170|224:168,1,70,8|0,0:0|0:0,0:0:0:0:
322,157,16217,6,0,B|345:197|345:197|336:297,1,140,0|8,0:0|0:0,0:0:0:0:
262,343,16717,1,0,0:0:0:0:
178,306,16884,2,0,L|98:313,2,70,2|2|8,0:0|0:0|0:0,0:0:0:0:
245,244,17384,1,0,0:0:0:0:
166,186,17550,6,0,L|27:175,1,140,0|8,0:0|0:0,0:0:0:0:
52,87,18050,1,0,0:0:0:0:
127,24,18217,2,0,L|284:12,1,140,2|8,0:0|0:0,0:0:0:0:
348,52,18717,1,0,0:0:0:0:
400,134,18884,6,0,B|429:216|373:204|403:285,1,140,2|8,0:0|0:0,0:0:0:0:
356,351,19384,1,0,0:0:0:0:
274,310,19550,2,0,L|194:316,1,70,2|2,0:0|0:0,0:0:0:0:
170,229,19884,2,0,L|255:223,1,70,8|0,0:0|0:0,0:0:0:0:
306,152,20217,6,0,P|298:94|219:47,1,140,0|8,0:0|0:0,0:0:0:0:
146,67,20717,1,0,0:0:0:0:
85,134,20884,2,0,P|78:171|86:214,1,70,2|2,0:0|0:0,0:0:0:0:
170,229,21217,2,0,P|175:264|169:303,1,70,8|0,0:0|0:0,0:0:0:0:
103,370,21550,6,0,P|169:339|241:358,1,140,2|8,0:0|0:0,0:0:0:0:
321,333,22050,1,0,0:0:0:0:
408,308,22217,2,0,L|484:313,2,70,2|2|8,0:0|0:0|0:0,0:0:0:0:
331,246,22717,6,0,P|311:179|364:118,1,140,6|2,0:0|0:0,0:0:0:0:
431,88,23217,1,8,0:0:0:0:
359,30,23384,2,0,P|323:23|277:28,1,70,6|0,0:0|0:0,0:0:0:0:
214,76,23717,2,0,P|178:83|139:77,1,70,2|8,0:0|0:0,0:0:0:0:
60,46,24050,1,0,0:0:0:0:
10,130,24217,6,0,B|-10:181|-10:181|15:271,1,140,6|8,0:0|0:0,0:0:0:0:
72,332,24717,1,0,0:0:0:0:
162,319,24884,2,0,L|253:310,1,70,2|2,0:0|0:0,0:0:0:0:
284,237,25217,2,0,L|199:228,1,70,8|0,0:0|0:0,0:0:0:0:
131,176,25550,6,0,P|141:112|170:39,1,140,0|8,0:0|0:0,0:0:0:0:
258,30,26050,1,0,0:0:0:0:
342,65,26217,2,0,P|378:72|425:60,1,70,2|2,0:0|0:0,0:0:0:0:
494,102,26550,2,0,L|488:179,1,70,8|2,0:0|0:0,0:0:0:0:
507,268,26884,6,0,P|474:221|391:230,1,140,2|8,0:0|0:0,0:0:0:0:
334,290,27384,1,0,0:0:0:0:
269,353,27550,2,0,L|196:358,2,70,2|2|8,0:0|0:0|0:0,0:0:0:0:
334,290,28050,1,0,0:0:0:0:
254,232,28217,6,0,B|236:185|236:185|264:93,1,140,2|8,0:0|0:0,0:0:0:0:
195,36,28717,1,0,0:0:0:0:
118,85,28884,2,0,P|85:89|41:83,1,70,2|2,0:0|0:0,0:0:0:0:
16,170,29217,2,0,P|57:165|97:171,1,70,8|0,0:0|0:0,0:0:0:0:
178,198,29550,6,0,B|185:245|185:245|173:279|173:279|187:350,1,140,2|8,0:0|0:0,0:0:0:0:
269,365,30050,1,0,0:0:0:0:
356,340,30217,2,0,L|369:264,1,70,2|2,0:0|0:0,0:0:0:0:
441,217,30550,2,0,L|426:142,1,70,8|0,0:0|0:0,0:0:0:0:
393,55,30884,6,0,B|327:75|327:75|245:50,1,140,2|8,0:0|0:0,0:0:0:0:
179,98,31384,1,0,0:0:0:0:
129,174,31550,2,0,P|124:209|121:259,1,70,2|2,0:0|0:0,0:0:0:0:
208,270,31884,2,0,P|212:304|215:339,1,70,8|0,0:0|0:0,0:0:0:0:
311,361,32217,6,0,P|365:333|439:368,1,140,2|8,0:0|0:0,0:0:0:0:
496,294,32717,1,0,0:0:0:0:
461,209,32884,2,0,L|467:137,2,70,2|2|8,0:0|0:0|0:0,0:0:0:0:
363,201,33384,6,0,B|291:180|298:232|218:210,1,140,6|2,0:0|0:0,0:0:0:0:
139,184,33884,1,8,0:0:0:0:
56,146,34050,2,0,L|0:149,2,35,12|2|2,0:0|0:0|0:0,0:0:0:0:
104,68,34384,2,0,L|190:73,1,70,2|8,0:0|0:0,0:0:0:0:
264,80,34717,1,2,0:0:0:0:
351,39,34884,6,0,P|405:25|468:65,2,112,6|2|8,0:0|0:0|0:0,0:0:0:0:
398,108,35717,1,0,0:0:0:0:
456,168,35884,2,0,L|460:247,1,56,8|2,0:0|0:0,0:0:0:0:
417,297,36217,6,0,P|367:278|301:308,2,112,0|8|8,0:0|0:0|0:0,0:0:0:0:
364,362,37050,1,0,0:0:0:0:
279,365,37217,2,0,L|222:359,1,56,2|2,0:0|0:0,0:0:0:0:
184,284,37550,6,0,B|170:230|209:237|190:157,2,112,6|2|6,0:0|0:0|0:0,0:0:0:0:
113,331,38384,1,0,0:0:0:0:
48,278,38550,2,0,P|50:247|59:211,1,56,2|2,0:0|0:0,0:0:0:0:
110,158,38884,6,0,P|100:101|81:44,2,112,6|0|8,0:0|0:0|0:0,0:0:0:0:
193,174,39717,1,2,0:0:0:0:
267,133,39884,2,0,P|300:125|336:121,1,56,2|0,0:0|0:0,0:0:0:0:
408,136,40217,6,0,L|399:277,1,125.999996154785,6|8,0:0|0:0,0:0:0:0:
341,328,40717,1,0,0:0:0:0:
260,292,40884,2,0,P|212:291|174:301,2,62.9999980773926,2|2|8,0:0|0:0|0:0,0:0:0:0:
302,214,41384,1,0,0:0:0:0:
267,133,41550,6,0,P|246:108|214:88,1,62.9999980773926,6|0,0:0|0:0,0:0:0:0:
137,60,41884,1,8,0:0:0:0:
61,95,42050,1,8,0:0:0:0:
61,95,42134,1,2,0:0:0:0:
61,95,42217,2,0,B|66:175,1,62.9999980773926,2|0,0:0|0:0,0:0:0:0:
130,216,42550,2,0,L|124:298,1,62.9999980773926,8|0,0:0|0:0,0:0:0:0:
86,365,42884,6,0,P|139:330|208:332,1,125.999996154785,6|8,0:0|0:0,0:0:0:0:
287,341,43384,2,0,P|238:309|224:231,1,125.999996154785,6|0,0:0|0:0,0:0:0:0:
235,165,43884,1,8,0:0:0:0:
283,99,44050,2,0,L|361:94,1,62.9999980773926,4|8,0:0|0:0,0:0:0:0:
424,72,44383,1,6,0:0:0:0:
501,97,44550,1,2,0:0:0:0:
492,178,44717,1,8,0:0:0:0:
33,50,45550,6,0,P|3:112|51:182,1,154.000004699707,6|8,0:0|0:0,0:0:0:0:
143,193,46050,1,0,0:0:0:0:
232,237,46217,2,0,P|241:281|246:330,1,77.0000023498536,2|2,0:0|0:0,0:0:0:0:
328,368,46550,2,0,P|332:329|340:292,1,77.0000023498536,8|0,0:0|0:0,0:0:0:0:
418,227,46884,6,0,P|343:236|292:167,1,154.000004699707,6|8,0:0|0:0,0:0:0:0:
267,85,47384,1,0,0:0:0:0:
366,76,47550,2,0,L|375:161,1,77.0000023498536,2|2,0:0|0:0,0:0:0:0:
466,192,47884,2,0,L|458:286,1,77.0000023498536,8|0,0:0|0:0,0:0:0:0:
394,364,48217,6,0,B|319:344|319:344|239:368,1,154.000004699707,6|8,0:0|0:0,0:0:0:0:
145,365,48717,1,0,0:0:0:0:
83,286,48884,2,0,L|76:192,1,77.0000023498536,2|2,0:0|0:0,0:0:0:0:
69,109,49217,2,0,P|105:85|160:78,1,77.0000023498536,8|0,0:0|0:0,0:0:0:0:
252,87,49550,6,0,L|262:260,1,154.000004699707,6|8,0:0|0:0,0:0:0:0:
351,283,50050,1,0,0:0:0:0:
439,236,50217,2,0,L|445:146,1,77.0000023498536,2|2,0:0|0:0,0:0:0:0:
350,123,50550,2,0,L|356:218,1,77.0000023498536,8|0,0:0|0:0,0:0:0:0:
337,314,50884,6,0,P|285:365|199:361,1,154.000004699707,6|8,0:0|0:0,0:0:0:0:
142,288,51384,1,0,0:0:0:0:
94,200,51550,2,0,P|55:194|17:192,1,77.0000023498536,2|2,0:0|0:0,0:0:0:0:
78,111,51884,2,0,P|119:109|172:101,1,77.0000023498536,8|0,0:0|0:0,0:0:0:0:
240,26,52217,6,0,P|301:24|397:38,1,154.000004699707,6|8,0:0|0:0,0:0:0:0:
473,97,52717,1,0,0:0:0:0:
512,191,52884,2,0,L|505:272,1,77.0000023498536,2|2,0:0|0:0,0:0:0:0:
435,340,53217,2,0,L|427:261,1,77.0000023498536,8|0,0:0|0:0,0:0:0:0:
330,200,53550,6,0,L|317:377,1,154.000004699707,6|8,0:0|0:0,0:0:0:0:
220,373,54050,1,0,0:0:0:0:
160,292,54217,2,0,P|98:250|21:267,1,154.000004699707,6|8,0:0|0:0,0:0:0:0:
77,349,54717,1,0,0:0:0:0:
160,292,54884,6,0,L|154:208,1,77.0000023498536,6|2,0:0|0:0,0:0:0:0:
90,137,55217,1,8,0:0:0:0:
44,47,55384,2,0,L|-1:42,2,38.5000011749268,8|2|2,0:0|0:0|0:0,0:0:0:0:
142,29,55717,1,2,0:0:0:0:
238,56,55884,1,8,0:0:0:0:
334,29,56050,1,2,0:0:0:0:
430,93,56217,6,0,B|435:156|435:156|427:188|427:188|435:255,1,154.000004699707,6|8,0:0|0:0,0:0:0:0:
365,318,56717,1,0,0:0:0:0:
274,274,56884,2,0,P|239:259|196:255,1,77.0000023498536,2|0,0:0|0:0,0:0:0:0:
136,177,57217,2,0,P|132:140|123:95,1,77.0000023498536,8|0,0:0|0:0,0:0:0:0:
49,34,57550,6,0,P|116:67|215:27,1,154.000004699707,6|8,0:0|0:0,0:0:0:0:
283,11,58050,1,0,0:0:0:0:
348,87,58217,2,0,L|342:179,1,77.0000023498536,2|2,0:0|0:0,0:0:0:0:
255,211,58550,2,0,L|263:303,1,77.0000023498536,8|0,0:0|0:0,0:0:0:0:
351,362,58884,6,0,P|406:313|491:338,1,154.000004699707,6|8,0:0|0:0,0:0:0:0:
510,232,59384,1,0,0:0:0:0:
480,136,59550,2,0,B|471:99|471:99|482:61,1,77.0000023498536,2|2,0:0|0:0,0:0:0:0:
387,26,59884,2,0,B|347:36|347:36|303:26,1,77.0000023498536,8|0,0:0|0:0,0:0:0:0:
204,69,60217,6,0,B|168:148|225:139|192:228,1,154.000004699707,6|8,0:0|0:0,0:0:0:0:
152,310,60717,1,0,0:0:0:0:
231,371,60884,2,0,P|269:359|312:354,1,77.0000023498536,2|2,0:0|0:0,0:0:0:0:
377,283,61217,2,0,P|337:272|290:266,1,77.0000023498536,8|0,0:0|0:0,0:0:0:0:
196,219,61550,6,0,B|121:234|121:234|41:216,1,154.000004699707,6|8,0:0|0:0,0:0:0:0:
10,123,62050,1,0,0:0:0:0:
88,60,62217,2,0,P|99:100|104:146,1,77.0000023498536,2|0,0:0|0:0,0:0:0:0:
202,117,62550,2,0,P|207:78|217:41,1,77.0000023498536,8|0,0:0|0:0,0:0:0:0:
331,24,62884,6,0,P|408:37|440:113,1,154.000004699707,6|8,0:0|0:0,0:0:0:0:
462,197,63384,1,0,0:0:0:0:
441,294,63550,2,0,L|431:379,2,77.0000023498536,2|2|8,0:0|0:0|0:0,0:0:0:0:
362,231,64050,1,0,0:0:0:0:
262,288,64217,6,0,B|210:319|153:278|153:278|85:230|35:272,2,231.000007049561,6|6|6,0:0|0:0|0:0,0:0:0:0:
421,165,65550,6,0,L|413:70,1,77.0000023498536,8|0,0:0|0:0,0:0:0:0:
325,40,65884,1,0,0:0:0:0:
325,40,66050,1,2,0:0:0:0:
232,77,66217,1,8,0:0:0:0:
232,77,66384,1,2,0:0:0:0:
136,50,66550,2,0,P|96:40|44:38,1,77.0000023498536,8|2,0:0|0:0,0:0:0:0:
46,137,66884,6,0,P|83:146|121:149,1,77.0000023498536,6|2,0:0|0:0,0:0:0:0:
221,160,67217,2,0,B|232:195|232:195|222:245,1,77.0000023498536,8|0,0:0|0:0,0:0:0:0:
139,288,67550,2,0,B|149:388,2,77.0000023498536,6|2|8,0:0|0:0|0:0,0:0:0:0:
224,234,68050,1,0,0:0:0:0:
309,287,68217,6,0,P|349:290|395:282,1,77.0000023498536,6|2,0:0|0:0,0:0:0:0:
462,220,68550,2,0,L|453:127,1,77.0000023498536,8|0,0:0|0:0,0:0:0:0:
379,75,68884,2,0,P|339:70|292:80,1,77.0000023498536,2|2,0:0|0:0,0:0:0:0:
223,137,69217,1,8,0:0:0:0:
223,137,69384,1,0,0:0:0:0:
224,234,69550,6,0,L|232:323,1,77.0000023498536,6|2,0:0|0:0,0:0:0:0:
142,358,69884,2,0,P|103:366|49:355,1,77.0000023498536,8|0,0:0|0:0,0:0:0:0:
8,279,70217,2,0,L|0:199,2,77.0000023498536,6|2|8,0:0|0:0|0:0,0:0:0:0:
107,269,70717,1,0,0:0:0:0:
181,202,70884,6,0,P|224:199|267:180,1,77.0000023498536,6|2,0:0|0:0,0:0:0:0:
325,115,71217,2,0,L|415:122,1,77.0000023498536,8|0,0:0|0:0,0:0:0:0:
496,154,71550,1,2,0:0:0:0:
496,154,71717,1,2,0:0:0:0:
431,231,71884,2,0,L|427:323,1,77.0000023498536,8|0,0:0|0:0,0:0:0:0:
334,344,72217,6,0,P|295:333|234:342,1,77.0000023498536,6|2,0:0|0:0,0:0:0:0:
172,283,72550,2,0,L|167:201,1,77.0000023498536,8|0,0:0|0:0,0:0:0:0:
96,134,72884,2,0,B|59:127|59:127|14:134,2,77.0000023498536,6|2|8,0:0|0:0|0:0,0:0:0:0:
182,82,73384,1,0,0:0:0:0:
273,43,73550,6,0,B|314:51|314:51|362:41,1,77.0000023498536,6|2,0:0|0:0,0:0:0:0:
449,44,73884,2,0,P|460:84|448:129,1,77.0000023498536,8|0,0:0|0:0,0:0:0:0:
396,200,74217,1,2,0:0:0:0:
396,200,74384,1,2,0:0:0:0:
297,213,74550,2,0,L|210:207,1,77.0000023498536,8|0,0:0|0:0,0:0:0:0:
181,301,74884,6,0,L|277:294,1,77.0000023498536,6|2,0:0|0:0,0:0:0:0:
351,330,75217,2,0,L|438:324,1,77.0000023498536,8|0,0:0|0:0,0:0:0:0:
491,246,75550,2,0,P|483:208|469:164,2,77.0000023498536,6|2|8,0:0|0:0|0:0,0:0:0:0:
427,324,76050,1,0,0:0:0:0:
379,235,76217,6,0,P|342:229|294:234,1,77.0000023498536,6|2,0:0|0:0,0:0:0:0:
224,295,76550,2,0,L|143:290,1,77.0000023498536,8|0,0:0|0:0,0:0:0:0:
50,262,76884,1,2,0:0:0:0:
50,262,77050,1,2,0:0:0:0:
22,165,77217,2,0,P|26:128|36:81,1,77.0000023498536,8|0,0:0|0:0,0:0:0:0:
118,35,77550,6,0,P|158:41|198:61,1,77.0000023498536,6|2,0:0|0:0,0:0:0:0:
271,116,77884,2,0,P|275:73|286:31,1,77.0000023498536,8|0,0:0|0:0,0:0:0:0:
369,90,78217,2,0,P|377:127|380:165,2,77.0000023498536,6|2|8,0:0|0:0|0:0,0:0:0:0:
282,40,78717,1,0,0:0:0:0:
263,138,78884,6,0,L|171:146,1,77.0000023498536,6|2,0:0|0:0,0:0:0:0:
139,233,79217,2,0,L|224:238,1,77.0000023498536,8|0,0:0|0:0,0:0:0:0:
308,276,79550,1,2,0:0:0:0:
308,276,79717,1,2,0:0:0:0:
398,232,79884,2,0,P|403:190|391:143,1,77.0000023498536,8|0,0:0|0:0,0:0:0:0:
359,63,80217,6,0,B|319:56|319:56|271:64,1,77.0000023498536,6|2,0:0|0:0,0:0:0:0:
188,93,80550,2,0,L|199:186,1,77.0000023498536,8|0,0:0|0:0,0:0:0:0:
115,229,80884,2,0,P|80:218|32:223,2,77.0000023498536,6|2|8,0:0|0:0|0:0,0:0:0:0:
196,286,81384,1,0,0:0:0:0:
263,359,81550,6,0,L|357:351,1,77.0000023498536,6|2,0:0|0:0,0:0:0:0:
408,278,81884,2,0,L|493:284,1,77.0000023498536,8|0,0:0|0:0,0:0:0:0:
506,187,82217,1,2,0:0:0:0:
506,187,82384,1,0,0:0:0:0:
478,91,82550,2,0,L|396:97,1,77.0000023498536,8|0,0:0|0:0,0:0:0:0:
335,160,82884,6,0,P|318:216|314:307,1,140,6|0,0:0|0:0,0:0:0:0:
140,353,83550,2,0,L|-11:343,1,140,0|0,0:0|0:0,0:0:0:0:
57,170,84217,2,0,L|206:162,1,140
262,98,84717,1,0,0:0:0:0:
326,33,84884,2,0,P|395:42|431:118,1,140
432,188,85384,1,0,0:0:0:0:
256,192,85467,12,0,86884,0:0:0:0:
