osu file format v14

[General]
AudioFilename: audio.mp3
AudioLeadIn: 0
PreviewTime: 44717
Countdown: 0
SampleSet: Soft
StackLeniency: 0.5
Mode: 0
LetterboxInBreaks: 0
WidescreenStoryboard: 1

[Editor]
DistanceSpacing: 0.5
BeatDivisor: 4
GridSize: 16
TimelineZoom: 1.9

[Metadata]
Title:Yubi Bouenkyou ~Anime-ban~
TitleUnicode:指望遠鏡~アニメ版~
Artist:Nogizaka46
ArtistUnicode:乃木坂46
Creator:Nevo
Version:~Collab Insane~
Source:Magi: The Labyrinth of Magic
Tags:マギ ending tv size Armin A_r_M_i_N Little Lince Cosmico ShogunMoon Waku Doormat My Angel Kanan Time Capsule CloudSplash16
BeatmapID:1474944
BeatmapSetID:623924

[Difficulty]
HPDrainRate:5
CircleSize:4
OverallDifficulty:7
ApproachRate:9
SliderMultiplier:1.7
SliderTickRate:1

[Events]
//Background and Video events
0,0,"Aladdin.(Magi).full.1419902.jpg",0,0
//Break Periods
//Storyboard Layer 0 (Background)
//Storyboard Layer 1 (Fail)
//Storyboard Layer 2 (Pass)
//Storyboard Layer 3 (Foreground)
//Storyboard Sound Samples

[TimingPoints]
1551,333.333333333333,4,2,1,40,1,0
1551,-133.333333333333,4,2,1,40,0,0
7550,-100,4,2,1,5,0,0
7717,-100,4,2,1,70,0,0
12050,-90.9090909090909,4,2,1,70,0,0
13550,-111.111111111111,4,2,1,70,0,0
17467,-111.111111111111,4,2,1,5,0,0
17550,-111.111111111111,4,2,1,60,0,0
22967,-111.111111111111,4,2,1,5,0,0
23050,-111.111111111111,4,2,1,60,0,0
24467,-111.111111111111,4,2,1,5,0,0
24550,-111.111111111111,4,2,1,60,0,0
35550,-133.333333333333,4,2,1,60,0,0
40550,-111.111111111111,4,2,1,60,0,0
45550,-111.111111111111,4,2,1,80,0,1
45884,-111.111111111111,4,2,1,80,0,1
46134,-111.111111111111,4,2,1,80,0,1
46217,-86.9565217391304,4,2,1,80,0,1
55884,-133.333333333333,4,2,1,80,0,1
56217,-86.9565217391303,4,2,1,80,0,1
64217,-100,4,2,1,80,0,0
66884,-86.9565217391304,4,2,1,80,0,1
72217,-86.9565217391304,4,2,1,80,0,1
77550,-86.9565217391304,4,2,1,80,0,1
82884,-181.818181818182,4,2,1,30,0,0
86550,-86.9565217391304,4,2,1,5,0,0

[Colours]
Combo1 : 234,210,115
Combo2 : 55,155,255
Combo3 : 207,207,207

[HitObjects]
156,195,884,5,8,1:0:0:0:
111,126,1218,1,8,1:0:0:0:
118,268,1551,6,0,P|180:273|228:234,1,127.500004863739,6|0,1:0|0:0,0:0:0:0:
343,119,2217,2,0,P|280:113|232:152,1,127.500004863739,8|0,1:0|0:0,0:0:0:0:
294,318,2884,2,0,L|303:191,1,127.500004863739,6|0,1:0|0:0,0:0:0:0:
140,131,3550,2,0,L|149:272,1,127.500004863739,8|0,1:0|0:0,0:0:0:0:
191,68,4217,6,0,P|132:50|77:80,2,127.500004863739,6|0|8,1:0|0:0|1:0,0:0:0:0:
221,143,5218,1,0,0:0:0:0:
140,131,5551,1,6,1:0:0:0:
256,192,5634,12,0,7551,0:0:0:0:
245,115,7718,5,2,0:0:0:0:
245,115,7801,1,2,0:0:0:0:
245,115,7884,2,0,P|252:163|282:204,1,85,8|0,0:0|0:0,0:0:0:0:
305,283,8218,5,6,0:0:0:0:
339,124,8384,1,2,0:0:0:0:
271,193,8551,1,8,0:0:0:0:
400,295,8718,2,0,P|393:247|363:206,1,85,6|0,0:0|0:0,0:0:0:0:
175,189,9051,5,2,0:0:0:0:
305,283,9218,1,8,0:0:0:0:
213,116,9384,2,0,P|184:154|176:205,1,85,6|0,0:0|0:0,0:0:0:0:
210,365,9718,5,2,0:0:0:0:
271,193,9884,1,8,0:0:0:0:
79,177,10051,2,0,P|86:225|115:266,1,85,6|0,0:0|0:0,0:0:0:0:
305,283,10384,5,2,0:0:0:0:
175,189,10551,1,8,0:0:0:0:
175,189,10884,5,6,0:0:0:0:
292,100,11051,1,2,0:0:0:0:
271,193,11218,1,8,0:0:0:0:
235,24,11384,6,0,P|275:6|347:21,1,85,2|0,0:0|0:0,0:0:0:0:
360,144,11718,2,0,P|330:113|291:99,1,85,2|8,0:0|0:0,0:0:0:0:
197,245,12051,6,0,P|233:206|272:192,1,93.5000028533936,6|0,0:0|0:0,0:0:0:0:
369,308,12384,2,0,P|321:283|280:283,1,93.5000028533936,2|8,0:0|0:0,0:0:0:0:
141,382,12718,6,0,P|180:367|217:326,1,93.5000028533936,6|0,0:0|0:0,0:0:0:0:
163,133,13051,5,2,0:0:0:0:
122,276,13218,1,8,0:0:0:0:
122,276,13550,6,0,B|150:299|150:299|274:290,1,152.999995330811,6|8,0:0|0:0,0:0:0:0:
259,135,14050,1,0,0:0:0:0:
259,135,14217,2,0,P|253:175|267:225,1,76.4999976654053,2|2,0:0|0:0,0:0:0:0:
343,325,14550,2,0,P|349:285|335:235,1,76.4999976654053,8|0,0:0|0:0,0:0:0:0:
155,189,14884,6,0,B|81:161|81:216|1:184,1,152.999995330811,0|8,0:0|0:0,0:0:0:0:
46,112,15384,1,0,0:0:0:0:
127,102,15550,2,0,P|167:108|217:94,1,76.4999976654053,2|2,0:0|0:0,0:0:0:0:
319,19,15883,2,0,P|279:13|229:27,1,76.4999976654053,8|0,0:0|0:0,0:0:0:0:
265,177,16217,6,0,B|289:205|289:205|295:140|279:91,1,152.999995330811,0|8,0:0|0:0,0:0:0:0:
204,116,16717,1,0,0:0:0:0:
195,202,16884,2,0,P|233:196|267:177,1,76.4999976654053,2|2,0:0|0:0,0:0:0:0:
214,33,17217,2,0,P|175:38|141:57,1,76.4999976654053,8|2,0:0|0:0,0:0:0:0:
118,206,17550,6,0,L|214:200,1,76.4999976654053,0|2,0:0|0:0,0:0:0:0:
234,320,17884,2,0,L|138:314,1,76.4999976654053,8|2,0:0|0:0,0:0:0:0:
157,315,18134,1,0,0:0:0:0:
157,315,18217,1,2,0:0:0:0:
296,201,18384,1,8,0:0:0:0:
296,201,18551,2,0,P|308:239|303:291,1,76.4999976654053,2|8,0:0|0:0,0:0:0:0:
233,149,18884,6,0,P|327:125|375:181,1,152.999995330811,6|8,0:0|0:0,0:0:0:0:
307,275,19384,1,0,0:0:0:0:
307,275,19550,2,0,L|224:270,1,76.4999976654053,2|2,0:0|0:0,0:0:0:0:
91,334,19884,2,0,L|174:329,1,76.4999976654053,8|2,0:0|0:0,0:0:0:0:
275,198,20217,6,0,P|195:195|148:265,1,152.999995330811,0|8,0:0|0:0,0:0:0:0:
230,270,20717,1,2,0:0:0:0:
353,214,20884,2,0,P|351:175|335:141,1,76.4999976654053,0|2,0:0|0:0,0:0:0:0:
230,34,21217,2,0,P|231:71|247:105,1,76.4999976654053,8|8,0:0|0:0,0:0:0:0:
386,51,21550,6,0,L|309:50,1,76.4999976654053,6|0,0:0|0:0,0:0:0:0:
203,175,21884,1,8,0:0:0:0:
247,106,22050,1,0,0:0:0:0:
166,102,22217,1,2,0:0:0:0:
284,179,22384,1,2,0:0:0:0:
210,33,22550,1,8,0:0:0:0:
127,175,22717,6,0,P|159:241|222:250,1,114.749996498108,2|0,0:0|0:0,0:0:0:0:
194,253,23050,1,2,0:0:0:0:
247,106,23217,1,8,0:0:0:0:
230,332,23384,1,8,0:0:0:0:
230,332,23717,5,8,0:0:0:0:
401,236,23884,1,2,0:0:0:0:
401,236,24217,6,0,P|354:258|281:219,1,114.749996498108,6|0,0:0|0:0,0:0:0:0:
287,226,24550,2,0,L|282:120,1,76.4999976654053,8|0,0:0|0:0,0:0:0:0:
367,71,24884,2,0,L|362:177,1,76.4999976654053,2|2,0:0|0:0,0:0:0:0:
209,115,25217,2,0,L|204:9,1,76.4999976654053,8|0,0:0|0:0,0:0:0:0:
217,196,25550,6,0,P|176:190|141:160,1,76.4999976654053,0|0,0:0|0:0,0:0:0:0:
283,149,25884,1,8,0:0:0:0:
294,236,26050,1,0,0:0:0:0:
219,355,26217,2,0,L|223:261,1,76.4999976654053,2|2,0:0|0:0,0:0:0:0:
373,260,26550,1,8,0:0:0:0:
312,316,26717,1,0,0:0:0:0:
356,180,26884,6,0,P|431:202|453:273,1,152.999995330811,2|8,0:0|0:0,0:0:0:0:
373,260,27384,1,0,0:0:0:0:
221,191,27550,1,2,0:0:0:0:
364,105,27717,2,0,P|363:160|346:194,1,76.4999976654053,2|8,0:0|0:0,0:0:0:0:
213,266,28050,5,2,0:0:0:0:
213,266,28217,2,0,P|214:211|231:177,1,76.4999976654053,0|2,0:0|0:0,0:0:0:0:
279,316,28550,1,8,0:0:0:0:
203,348,28717,1,2,0:0:0:0:
294,236,28884,2,0,L|393:231,1,76.4999976654053,8|2,0:0|0:0,0:0:0:0:
255,163,29217,2,0,L|156:158,1,76.4999976654053,8|8,0:0|0:0,0:0:0:0:
109,296,29550,6,0,P|137:258|143:217,1,76.4999976654053,6|0,0:0|0:0,0:0:0:0:
131,91,29884,2,0,P|103:129|97:170,1,76.4999976654053,8|0,0:0|0:0,0:0:0:0:
213,92,30217,1,2,0:0:0:0:
173,20,30384,1,2,0:0:0:0:
171,164,30550,1,8,0:0:0:0:
253,164,30717,1,0,0:0:0:0:
131,91,30884,6,0,L|32:86,1,76.4999976654053,2|0,0:0|0:0,0:0:0:0:
173,20,31217,2,0,L|272:15,1,76.4999976654053,8|0,0:0|0:0,0:0:0:0:
335,165,31550,1,2,0:0:0:0:
295,93,31717,1,2,0:0:0:0:
380,17,31884,2,0,L|377:94,1,76.4999976654053,8|0,0:0|0:0,0:0:0:0:
368,240,32217,1,6,0:0:0:0:
335,165,32384,1,0,0:0:0:0:
449,135,32550,1,8,0:0:0:0:
448,219,32717,1,0,0:0:0:0:
377,93,32884,5,2,0:0:0:0:
368,240,33050,1,2,0:0:0:0:
448,52,33217,1,8,0:0:0:0:
335,165,33384,1,6,0:0:0:0:
335,165,33717,5,2,0:0:0:0:
310,28,33884,1,8,0:0:0:0:
449,135,34050,1,2,0:0:0:0:
449,135,34134,1,0,0:0:0:0:
449,135,34217,1,2,0:0:0:0:
270,104,34384,5,8,0:0:0:0:
395,198,34550,1,2,0:0:0:0:
413,42,34717,1,10,0:0:0:0:
436,274,34884,6,0,P|362:280|309:207,1,152.999995330811,6|0,0:0|0:0,0:0:0:0:
395,198,35384,1,2,0:0:0:0:
253,283,35550,2,0,P|232:235|240:201,1,63.7500024318696,8|0,0:0|0:0,0:0:0:0:
374,139,35884,2,0,P|395:187|387:221,1,63.7500024318696,0|2,0:0|0:0,0:0:0:0:
165,130,36217,5,0,0:0:0:0:
165,130,36384,2,0,L|300:115,1,127.500004863739,2|0,0:0|0:0,0:0:0:0:
184,52,36884,2,0,L|260:44,1,63.7500024318696,8|0,0:0|0:0,0:0:0:0:
277,196,37217,2,0,L|213:202,1,63.7500024318696,0|2,0:0|0:0,0:0:0:0:
109,324,37550,6,0,B|128:264|128:264|108:187,1,127.500004863739,6|0,0:0|0:0,0:0:0:0:
41,263,38050,1,2,0:0:0:0:
183,354,38217,2,0,L|204:290,1,63.7500024318696,12|0,0:0|0:0,0:0:0:0:
277,196,38550,2,0,L|298:260,1,63.7500024318696,0|2,0:0|0:0,0:0:0:0:
249,119,38884,1,4,0:0:0:0:
401,234,39050,2,0,L|365:361,1,127.500004863739,2|2,0:0|0:0,0:0:0:0:
435,157,39550,5,8,0:0:0:0:
296,256,39717,1,2,0:0:0:0:
435,157,39884,2,0,L|469:57,1,95.6250036478044,8|0,0:0|0:0,0:0:0:0:
389,46,40217,6,0,L|368:110,1,63.7500024318696,6|0,0:0|0:0,0:0:0:0:
296,256,40550,6,0,L|274:163,1,76.4999976654053,8|0,0:0|0:0,0:0:0:0:
313,338,40884,1,2,0:0:0:0:
313,338,41050,1,2,0:0:0:0:
195,209,41217,2,0,P|192:166|217:116,1,76.4999976654053,8|0,0:0|0:0,0:0:0:0:
380,245,41550,2,0,L|397:319,1,76.4999976654053,2|0,0:0|0:0,0:0:0:0:
487,150,41884,2,0,L|469:224,1,76.4999976654053,8|0,0:0|0:0,0:0:0:0:
469,224,42134,1,0,0:0:0:0:
469,224,42217,5,2,0:0:0:0:
512,66,42384,1,2,0:0:0:0:
418,83,42550,2,0,L|400:157,1,76.4999976654053,8|0,0:0|0:0,0:0:0:0:
353,299,42884,6,0,L|336:225,1,76.4999976654053,6|0,0:0|0:0,0:0:0:0:
316,133,43217,1,8,0:0:0:0:
200,246,43384,6,0,L|218:172,1,76.4999976654053,6|0,0:0|0:0,0:0:0:0:
238,80,43717,1,2,0:0:0:0:
200,246,43884,1,8,0:0:0:0:
132,45,44050,6,0,L|149:119,1,76.4999976654053,12|0,0:0|0:0,0:0:0:0:
39,61,44384,1,2,0:0:0:0:
228,30,44550,1,8,0:0:0:0:
39,61,44717,1,2,0:0:0:0:
39,61,45550,6,0,L|56:135,1,76.4999976654053,6|0,0:0|0:0,0:0:0:0:
111,327,45884,2,0,L|78:200,1,114.749996498108,8|0,0:0|0:0,0:0:0:0:
82,215,46217,1,0,0:0:0:0:
0,297,46384,1,2,0:0:0:0:
200,318,46550,2,0,P|246:312|286:271,1,97.7500018644333,8|0,0:0|0:0,0:0:0:0:
285,121,46884,6,0,P|305:180|436:187,1,195.500003728867,2|8,0:0|0:0,0:0:0:0:
375,122,47384,1,2,0:0:0:0:
282,278,47550,1,0,0:0:0:0:
423,196,47717,1,2,0:0:0:0:
364,317,47884,2,0,P|318:311|278:270,1,97.7500018644333,8|2,0:0|0:0,0:0:0:0:
222,93,48217,6,0,L|205:260,1,146.62500279665,6|0,0:0|0:0,0:0:0:0:
202,263,48550,2,0,P|156:257|116:216,1,97.7500018644333,8|2,0:0|0:0,0:0:0:0:
222,93,48884,1,0,0:0:0:0:
202,263,49050,1,2,0:0:0:0:
151,52,49217,2,0,P|185:18|233:12,1,97.7500018644333,8|0,0:0|0:0,0:0:0:0:
454,99,49550,6,0,P|395:70|276:138,1,195.500003728867,2|8,0:0|0:0,0:0:0:0:
378,174,50050,1,2,0:0:0:0:
226,53,50217,2,0,P|197:91|195:139,1,97.7500018644333,0|2,0:0|0:0,0:0:0:0:
280,295,50550,2,0,P|308:256|310:208,1,97.7500018644333,8|8,0:0|0:0,0:0:0:0:
37,247,50884,6,0,L|231:230,2,195.500003728867,6|8|0,0:0|0:0|0:0,0:0:0:0:
120,145,51717,1,2,0:0:0:0:
191,313,51884,2,0,L|74:323,1,97.7500018644333,8|0,0:0|0:0,0:0:0:0:
426,247,52217,6,0,L|203:228,2,195.500003728867,2|8|0,0:0|0:0|0:0,0:0:0:0:
343,145,53050,1,2,0:0:0:0:
272,313,53217,2,0,L|389:323,1,97.7500018644333,8|2,0:0|0:0,0:0:0:0:
440,153,53550,6,0,L|342:144,1,97.7500018644333,6|2,0:0|0:0,0:0:0:0:
133,238,53884,2,0,L|230:229,1,97.7500018644333,8|2,0:0|0:0,0:0:0:0:
342,144,54217,2,0,P|352:90|329:47,1,97.7500018644333,0|2,0:0|0:0,0:0:0:0:
160,170,54550,2,0,P|191:215|237:229,1,97.7500018644333,8|2,0:0|0:0,0:0:0:0:
441,291,54884,6,0,P|382:262|263:330,1,195.500003728867,2|8,0:0|0:0,0:0:0:0:
365,366,55384,1,2,0:0:0:0:
342,144,55550,5,8,0:0:0:0:
271,312,55717,1,2,0:0:0:0:
342,144,55884,2,0,L|358:37,1,95.6250036478044,8|0,0:0|0:0,0:0:0:0:
451,87,56217,6,0,L|436:183,1,97.7500018644333,6|0,0:0|0:0,0:0:0:0:
229,229,56550,2,0,L|244:131,1,97.7500018644333,8|2,0:0|0:0,0:0:0:0:
84,144,56884,2,0,L|127:352,1,195.500003728867,0|8,0:0|0:0,0:0:0:0:
0,269,57384,1,2,0:0:0:0:
229,229,57550,6,0,L|244:327,1,97.7500018644333,2|0,0:0|0:0,0:0:0:0:
419,167,57884,2,0,L|376:375,1,195.500003728867,8|0,0:0|0:0,0:0:0:0:
512,180,58384,1,2,0:0:0:0:
335,84,58550,2,0,L|311:183,1,97.7500018644333,8|2,0:0|0:0,0:0:0:0:
152,303,58884,6,0,P|227:246|345:305,2,195.500003728867,6|8|0,0:0|0:0|0:0,0:0:0:0:
247,347,59717,1,2,0:0:0:0:
79,240,59884,2,0,L|55:339,1,97.7500018644333,8|0,0:0|0:0,0:0:0:0:
226,244,60217,6,0,L|183:36,2,195.500003728867,2|8|0,0:0|0:0|0:0,0:0:0:0:
310,128,61050,1,2,0:0:0:0:
108,69,61217,2,0,L|124:169,1,97.7500018644333,8|8,0:0|0:0,0:0:0:0:
310,128,61550,6,0,L|294:31,1,97.7500018644333,6|0,0:0|0:0,0:0:0:0:
226,244,61884,2,0,L|242:344,1,97.7500018644333,8|2,0:0|0:0,0:0:0:0:
401,120,62217,2,0,P|347:110|304:133,1,97.7500018644333,0|2,0:0|0:0,0:0:0:0:
443,307,62550,2,0,P|488:275|502:229,1,97.7500018644333,8|0,0:0|0:0,0:0:0:0:
226,244,62884,6,0,L|420:228,1,195.500003728867,2|8,0:0|0:0,0:0:0:0:
341,333,63384,1,2,0:0:0:0:
272,158,63550,2,0,L|387:149,1,97.7500018644333,0|2,0:0|0:0,0:0:0:0:
238,327,63884,2,0,L|123:318,1,97.7500018644333,8|2,0:0|0:0,0:0:0:0:
200,165,64217,6,0,L|408:147,1,170,6|8,0:0|0:0,0:0:0:0:
190,89,64717,2,0,L|397:72,1,170,2|2,0:0|0:0,0:0:0:0:
379,225,65217,2,0,L|269:235,1,85,8|2,0:0|0:0,0:0:0:0:
209,239,65550,1,2,0:0:0:0:
209,239,65884,5,2,0:0:0:0:
234,316,66050,1,8,0:0:0:0:
125,227,66217,5,2,0:0:0:0:
156,332,66383,1,2,0:0:0:0:
44,218,66551,5,8,0:0:0:0:
78,348,66717,1,0,0:0:0:0:
209,239,66884,6,0,L|319:226,1,97.7500018644333,6|2,0:0|0:0,0:0:0:0:
224,129,67217,2,0,L|124:137,1,97.7500018644333,8|2,0:0|0:0,0:0:0:0:
28,42,67550,1,12,0:0:0:0:
126,136,67717,1,2,0:0:0:0:
126,38,67884,1,8,0:0:0:0:
29,133,68050,1,2,0:0:0:0:
219,37,68217,6,0,L|327:34,1,97.7500018644333,12|2,0:0|0:0,0:0:0:0:
373,165,68550,2,0,L|268:171,1,97.7500018644333,10|2,0:0|0:0,0:0:0:0:
126,136,68884,2,0,P|136:196|126:241,1,97.7500018644333,6|8,0:0|0:0,0:0:0:0:
278,266,69217,2,0,P|269:209|276:164,1,97.7500018644333,2|8,0:0|0:0,0:0:0:0:
412,18,69550,5,6,0:0:0:0:
393,175,69717,1,2,0:0:0:0:
314,31,69884,1,8,0:0:0:0:
476,112,70050,1,2,0:0:0:0:
303,129,70217,2,0,L|201:129,1,97.7500018644333,12|2,0:0|0:0,0:0:0:0:
171,270,70550,2,0,L|295:270,1,97.7500018644333,8|2,0:0|0:0,0:0:0:0:
78,314,70884,6,0,P|61:254|157:174,1,195.500003728867,12|8,0:0|0:0,0:0:0:0:
273,219,71384,1,2,0:0:0:0:
398,162,71550,2,0,L|398:64,1,97.7500018644333,6|8,0:0|0:0,0:0:0:0:
273,121,71884,2,0,L|272:224,1,97.7500018644333,2|8,0:0|0:0,0:0:0:0:
263,356,72217,5,6,0:0:0:0:
134,305,72384,1,2,0:0:0:0:
272,218,72550,1,8,0:0:0:0:
147,147,72717,1,2,0:0:0:0:
134,305,72884,1,12,0:0:0:0:
15,216,73050,1,2,0:0:0:0:
147,147,73217,1,8,0:0:0:0:
19,69,73384,1,2,0:0:0:0:
218,17,73550,6,0,L|328:15,1,97.7500018644333,12|2,0:0|0:0,0:0:0:0:
394,126,73884,2,0,L|286:128,1,97.7500018644333,8|2,0:0|0:0,0:0:0:0:
147,147,74217,2,0,P|155:206|147:257,1,97.7500018644333,12|2,0:0|0:0,0:0:0:0:
23,181,74550,2,0,P|20:134|27:82,1,97.7500018644333,8|2,0:0|0:0,0:0:0:0:
241,58,74884,5,6,0:0:0:0:
147,147,75050,1,0,0:0:0:0:
26,83,75217,1,8,0:0:0:0:
147,147,75384,1,0,0:0:0:0:
87,243,75550,2,0,L|84:348,1,97.7500018644333,6|0,0:0|0:0,0:0:0:0:
222,373,75884,2,0,L|229:261,1,97.7500018644333,8|0,0:0|0:0,0:0:0:0:
340,148,76217,6,0,L|348:348,1,195.500003728867,6|8,0:0|0:0,0:0:0:0:
228,275,76717,1,2,0:0:0:0:
133,347,76884,2,0,L|21:344,1,97.7500018644333,4|2,0:0|0:0,0:0:0:0:
2,202,77217,2,0,L|102:202,1,97.7500018644333,8|8,0:0|0:0,0:0:0:0:
259,126,77550,5,6,0:0:0:0:
228,275,77717,1,0,0:0:0:0:
362,182,77884,2,0,P|436:192|465:184,1,97.7500018644333,8|2,0:0|0:0,0:0:0:0:
413,61,78217,2,0,P|356:55|313:62,1,97.7500018644333,4|2,0:0|0:0,0:0:0:0:
162,150,78550,2,0,P|227:157|264:149,1,97.7500018644333,8|2,0:0|0:0,0:0:0:0:
83,86,78884,6,0,P|57:164|134:258,1,195.500003728867,6|8,0:0|0:0,0:0:0:0:
223,290,79384,1,2,0:0:0:0:
246,166,79550,2,0,L|138:166,1,97.7500018644333,4|8,0:0|0:0,0:0:0:0:
40,292,79884,2,0,L|150:295,1,97.7500018644333,2|8,0:0|0:0,0:0:0:0:
317,261,80217,5,6,0:0:0:0:
357,87,80384,1,0,0:0:0:0:
433,252,80550,1,8,0:0:0:0:
267,159,80717,1,2,0:0:0:0:
450,146,80884,2,0,L|461:40,1,97.7500018644333,4|2,0:0|0:0,0:0:0:0:
280,62,81217,2,0,L|264:173,1,97.7500018644333,8|2,0:0|0:0,0:0:0:0:
217,331,81550,6,0,B|141:304|108:326|108:326|130:289|122:235,1,195.500003728867,6|8,0:0|0:0,0:0:0:0:
73,129,82050,1,2,0:0:0:0:
208,235,82217,1,4,0:0:0:0:
221,88,82384,1,8,0:0:0:0:
208,235,82550,2,0,L|317:238,1,97.7500018644333,2|8,0:0|0:0,0:0:0:0:
467,171,82884,5,6,1:0:0:0:
256,192,82967,12,0,86884,0:0:0:0:
