osu file format v14

[General]
AudioFilename: audio.mp3
AudioLeadIn: 0
PreviewTime: 55076
Countdown: 0
SampleSet: Soft
StackLeniency: 0.7
Mode: 0
LetterboxInBreaks: 0
WidescreenStoryboard: 0

[Editor]
DistanceSpacing: 0.5
BeatDivisor: 6
GridSize: 32
TimelineZoom: 2.599999

[Metadata]
Title:Tsuki no Ookisa (TV Size)
TitleUnicode:月の大きさ (TV Size)
Artist:Nogizaka46
ArtistUnicode:乃木坂46
Creator:Reform
Version:Insane
Source:NARUTO-ナルト-疾風伝
Tags:kujinn Onlybiscuit brotarks naruto shippuden op opening 14 Barrette
BeatmapID:1804851
BeatmapSetID:862848

[Difficulty]
HPDrainRate:6
CircleSize:4
OverallDifficulty:8
ApproachRate:9
SliderMultiplier:1.75
SliderTickRate:1

[Events]
//Background and Video events
0,0,"Obito.png",0,0
Video,-180,"Naruto Shippuden NCOP14.mp4"
//Break Periods
//Storyboard Layer 0 (Background)
//Storyboard Layer 1 (Fail)
//Storyboard Layer 2 (Pass)
//Storyboard Layer 3 (Foreground)
//Storyboard Sound Samples

[TimingPoints]
590,324.324324324324,4,2,1,50,1,0
590,-153.846153846154,4,2,1,50,0,0
4481,-117.64705882353,4,2,1,75,0,0
6103,-86.9565217391307,4,2,1,75,0,0
6427,-117.647058823529,4,2,1,75,0,0
9995,-117.647058823529,4,2,1,5,0,0
10103,-117.647058823529,4,2,1,75,0,0
10211,-117.647058823529,4,2,1,5,0,0
10319,-117.647058823529,4,2,1,75,0,0
10968,-133.333333333333,4,2,1,60,0,0
31725,-86.9565217391304,4,2,1,70,0,0
33184,-117.647058823529,4,2,1,60,0,0
34319,-86.9565217391302,4,2,1,70,0,0
35779,-117.647058823529,4,2,1,60,0,0
42103,-86.9565217391302,4,2,1,70,0,0
43562,-117.647058823529,4,2,1,60,0,0
44698,-86.9565217391304,4,2,1,70,0,0
46157,-117.647058823529,4,2,1,60,0,0
47292,-95.238095238095,4,2,1,70,0,0
52481,-95.2380952380951,4,2,1,70,0,0
55076,-95.2380952380952,4,2,1,80,0,1
65454,-117.647058823529,4,2,1,70,0,0
73076,-95.238095238095,4,2,1,75,0,0
82535,-95.238095238095,4,2,1,75,0,0
82643,-95.238095238095,4,2,1,5,0,0
82752,-95.238095238095,4,2,1,75,0,0
82860,-95.238095238095,4,2,1,5,0,0
82968,-95.238095238095,4,2,1,75,0,0
83454,-222.222222222222,4,2,1,65,0,0
84184,-222.222222222222,4,2,1,5,0,0
84265,-222.222222222222,4,2,1,65,0,0
84914,-181.818181818182,4,2,1,65,0,0
84995,-181.818181818182,4,2,1,5,0,0
85076,-181.818181818182,4,2,1,65,0,0
85481,-181.818181818182,4,2,1,5,0,0
85562,-181.818181818182,4,2,1,65,0,0
85968,-181.818181818182,4,2,1,5,0,0
86049,-181.818181818182,4,2,1,65,0,0
86617,-181.818181818182,4,2,1,5,0,0
86698,-181.818181818182,4,2,1,65,0,0

[Colours]
Combo1 : 188,79,73
Combo2 : 242,223,85
Combo3 : 66,86,138
Combo4 : 247,187,221

[HitObjects]
163,61,590,5,4,1:2:0:0:
226,169,752,2,0,P|239:117|250:93,1,56.8749973964692,4|0,1:2|0:0,0:0:0:0:
358,37,1076,2,0,P|381:86|397:168,1,113.749994792938,0|0,0:0|0:0,0:0:0:0:
330,236,1562,2,0,P|317:278|311:316,1,56.8749973964692,0|0,0:0|0:0,0:0:0:0:
260,169,1887,5,4,1:2:0:0:
408,282,2049,2,0,P|421:324|427:362,1,56.8749973964692,4|0,1:2|0:0,0:0:0:0:
319,379,2373,2,0,P|282:377|225:314,1,113.749994792938,0|0,0:0|0:0,0:0:0:0:
240,216,2860,2,0,P|247:178|251:151,1,56.8749973964692,0|0,0:0|0:0,0:0:0:0:
155,282,3184,5,4,1:2:0:0:
86,192,3346,2,0,P|79:154|75:127,1,56.8749973964692,4|0,1:2|0:0,0:0:0:0:
143,24,3671,2,0,P|197:27|243:84,1,113.749994792938,0|0,0:0|0:0,0:0:0:0:
310,145,4157,2,0,P|343:143|376:128,1,56.8749973964692,0|0,0:0|0:0,0:0:0:0:
424,35,4481,5,4,1:2:0:0:
486,184,4644,1,0,1:2:0:0:
344,47,4806,1,8,0:0:0:0:
336,222,4968,1,0,1:2:0:0:
338,239,5292,5,8,0:0:0:0:
209,105,5454,2,0,P|163:88|125:87,1,74.3750014185906,8|0,0:0|1:2,0:0:0:0:
39,261,5779,6,0,P|75:256|109:242,1,74.3750014185906,0|0,1:2|0:0,0:0:0:0:
318,337,6103,2,0,P|265:333|206:240,1,150.937502878904,8|0,0:0|0:0,0:0:0:0:
231,226,6427,6,0,P|241:176|248:142,1,74.3750014185906,0|0,0:0|1:2,0:0:0:0:
123,13,6752,2,0,P|130:49|137:85,1,74.3750014185906,8|0,0:0|0:0,0:0:0:0:
246,55,7076,2,0,P|293:41|340:47,2,74.3750014185906,4|0|8,1:2|0:0|0:0,0:0:0:0:
155,169,7562,2,0,P|117:168|48:81,1,148.750002837181,0|0,1:2|1:2,0:0:0:0:
149,14,8049,2,0,P|144:49|136:91,1,74.3750014185906,8|0,0:0|0:0,0:0:0:0:
308,202,8373,6,0,P|301:165|295:128,1,74.3750014185906,0|0,1:2|0:0,0:0:0:0:
267,296,8698,1,8,0:0:0:0:
383,176,8860,1,0,0:0:0:0:
345,349,9022,1,0,0:0:0:0:
234,209,9184,1,0,1:2:0:0:
422,286,9346,1,8,0:0:0:0:
239,372,9508,1,8,0:0:0:0:
239,372,9887,6,0,P|197:365|176:354,1,49.5833342790604,8|0,0:0|0:0,0:0:0:0:
74,292,10103,2,0,P|116:285|137:274,1,49.5833342790604,8|0,0:0|0:0,0:0:0:0:
241,211,10319,2,0,P|199:204|163:186,1,74.3750014185906,8|0,0:0|0:0,0:0:0:0:
170,190,10562,1,0,0:0:0:0:
170,190,10644,1,8,0:3:0:0:
226,121,10806,1,0,0:0:0:0:
73,134,10968,6,0,P|66:189|111:263,1,131.25000500679,6|10,1:2|0:0,0:0:0:0:
201,317,11454,2,0,P|241:304|283:307,1,65.6250025033952,2|0,0:0|0:0,0:0:0:0:
351,364,11779,2,0,P|391:377|433:374,1,65.6250025033952,2|0,1:2|0:0,0:0:0:0:
438,157,12103,6,0,P|416:213|401:307,1,131.25000500679,10|2,0:0|1:2,0:0:0:0:
313,184,12589,2,0,P|300:146|294:110,1,65.6250025033952,10|0,0:0|0:0,0:0:0:0:
210,217,12914,2,0,P|197:255|191:291,1,65.6250025033952,2|0,0:0|1:2,0:0:0:0:
89,146,13238,1,10,0:0:0:0:
89,146,13400,1,0,0:0:0:0:
111,357,13562,6,0,P|146:323|241:325,1,131.25000500679,6|10,1:2|0:0,0:0:0:0:
338,371,14049,2,0,P|333:324|324:292,1,65.6250025033952,2|0,0:0|0:0,0:0:0:0:
432,188,14373,2,0,P|425:220|422:252,1,65.6250025033952,2|0,1:2|0:0,0:0:0:0:
335,84,14698,6,0,P|301:67|263:65,1,65.6250025033952,10|0,0:0|0:0,0:0:0:0:
411,32,15022,1,2,1:2:0:0:
280,166,15184,2,0,P|251:181|218:186,1,65.6250025033952,8|0,0:0|0:0,0:0:0:0:
91,114,15508,1,2,1:2:0:0:
128,225,15671,1,0,1:2:0:0:
131,116,15833,2,0,P|120:62|107:26,1,65.6250025033952,10|0,0:0|0:0,0:0:0:0:
46,198,16157,6,0,P|32:270|77:337,2,131.25000500679,6|8|0,1:2|0:0|0:0,0:0:0:0:
206,157,16968,1,0,1:2:0:0:
184,307,17130,1,0,0:0:0:0:
307,143,17292,6,0,P|341:127|385:124,1,65.6250025033952,8|0,0:0|0:0,0:0:0:0:
244,93,17617,1,0,1:2:0:0:
368,223,17779,2,0,P|402:239|446:242,1,65.6250025033952,10|2,0:0|0:0,0:0:0:0:
309,302,18103,1,2,0:0:0:0:
309,302,18265,1,0,1:2:0:0:
419,162,18427,2,0,P|428:120|438:81,1,65.6250025033952,10|2,0:0|0:0,0:0:0:0:
279,41,18752,6,0,P|240:82|154:70,1,131.25000500679,6|10,1:2|0:0,0:0:0:0:
53,29,19238,2,0,B|42:116|94:83|75:177,1,131.25000500679,2|0,0:0|1:2,0:0:0:0:
17,279,19725,2,0,P|54:253|87:246,1,65.6250025033952,10|2,0:0|0:0,0:0:0:0:
271,250,20049,6,0,P|235:253|150:202,1,131.25000500679,2|10,1:2|0:0,0:0:0:0:
250,82,20535,2,0,P|310:97|391:120,1,131.25000500679,2|0,0:0|1:2,0:0:0:0:
290,176,21022,1,8,0:0:0:0:
459,115,21184,1,8,0:0:0:0:
322,190,21346,6,0,P|289:230|295:320,1,131.25000500679,6|8,1:2|0:0,0:0:0:0:
437,287,21833,2,0,P|393:272|349:264,1,65.6250025033952,2|0,0:0|0:0,0:0:0:0:
288,343,22157,2,0,P|244:358|200:366,1,65.6250025033952,2|0,1:2|0:0,0:0:0:0:
101,268,22481,6,0,P|89:223|76:185,1,65.6250025033952,10|0,0:0|0:0,0:0:0:0:
46,328,22806,1,2,1:2:0:0:
198,211,22968,2,0,P|210:166|223:128,1,65.6250025033952,10|0,0:0|0:0,0:0:0:0:
308,283,23292,2,0,P|317:314|325:346,1,65.6250025033952,2|0,0:0|1:2,0:0:0:0:
401,216,23617,1,10,0:0:0:0:
401,216,23779,1,0,0:0:0:0:
230,332,23941,6,0,P|186:328|125:260,1,131.25000500679,6|10,1:2|0:0,0:0:0:0:
49,185,24427,2,0,P|58:146|62:112,1,65.6250025033952,2|0,0:0|0:0,0:0:0:0:
177,25,24752,2,0,P|181:57|189:89,1,65.6250025033952,2|0,1:2|0:0,0:0:0:0:
327,147,25076,6,0,P|364:132|401:125,1,65.6250025033952,10|0,0:0|0:0,0:0:0:0:
255,206,25400,1,2,1:2:0:0:
394,233,25562,2,0,P|425:240|456:253,1,65.6250025033952,10|0,0:0|0:0,0:0:0:0:
285,139,25887,1,2,1:2:0:0:
319,267,26049,1,0,1:2:0:0:
418,126,26211,2,0,P|395:82|338:52,1,98.4375037550928,10|0,0:0|0:0,0:0:0:0:
314,57,26535,6,0,P|267:104|207:99,1,131.25000500679,6|10,1:2|0:0,0:0:0:0:
101,23,27022,2,0,P|116:78|134:157,1,131.25000500679,2|0,0:0|1:2,0:0:0:0:
58,292,27508,2,0,P|67:248|76:214,1,65.6250025033952,8|2,0:0|0:0,0:0:0:0:
218,296,27833,6,0,B|253:272|308:295,1,65.6250025033952,2|0,1:2|0:0,0:0:0:0:
376,345,28157,2,0,B|411:369|466:346,1,65.6250025033952,10|0,0:0|1:2,0:0:0:0:
366,149,28481,1,10,0:0:0:0:
328,268,28644,1,2,1:2:0:0:
477,164,28806,2,0,P|473:131|463:100,1,65.6250025033952,10|2,0:0|0:0,0:0:0:0:
311,37,29130,6,0,P|262:87|183:78,1,131.25000500679,6|10,1:2|0:0,0:0:0:0:
31,94,29617,2,0,P|77:92|145:150,1,131.25000500679,0|0,0:0|1:2,0:0:0:0:
201,241,30103,2,0,P|208:201|221:168,1,65.6250025033952,8|0,0:0|0:0,0:0:0:0:
305,348,30427,5,0,1:2:0:0:
347,221,30589,1,0,0:0:0:0:
411,347,30752,1,10,0:0:0:0:
465,210,30914,1,2,1:2:0:0:
379,347,31076,1,10,0:0:0:0:
309,187,31238,1,8,0:0:0:0:
309,187,31319,1,8,0:0:0:0:
309,187,31400,1,8,0:0:0:0:
460,268,31562,1,8,0:0:0:0:
261,329,31725,6,0,B|155:360|187:282|55:321,1,201.250003838539,6|8,1:2|0:0,0:0:0:0:
71,183,32211,2,0,P|132:184|96:285,1,201.250003838539,6|0,1:2|1:2,0:0:0:0:
16,136,32698,2,0,P|100:160|214:116,1,201.250003838539,14|0,0:0|0:0,0:0:0:0:
391,191,33184,5,2,1:2:0:0:
302,122,33346,2,0,P|289:82|283:40,1,74.3750014185906,10|0,0:0|0:0,0:0:0:0:
282,212,33671,1,2,0:0:0:0:
282,212,33833,1,0,1:2:0:0:
408,89,33995,2,0,P|421:49|427:7,1,74.3750014185906,10|0,0:0|0:0,0:0:0:0:
247,47,34319,6,0,B|128:31|170:114|35:84,1,201.250003838539,6|8,1:2|0:0,0:0:0:0:
26,189,34806,2,0,P|84:135|126:246,1,201.250003838539,6|0,1:2|1:2,0:0:0:0:
66,278,35292,2,0,P|142:255|290:287,1,201.250003838539,14|0,0:0|0:0,0:0:0:0:
450,360,35779,5,0,1:2:0:0:
360,253,35941,2,0,P|354:209|344:170,1,74.3750014185906,10|0,0:0|0:0,0:0:0:0:
239,286,36265,2,0,P|230:322|225:359,1,74.3750014185906,2|0,1:2|1:2,0:0:0:0:
129,260,36589,2,0,P|120:223|115:186,1,74.3750014185906,10|0,0:0|0:0,0:0:0:0:
214,47,36914,6,0,B|309:74|270:1|383:42,1,148.750002837181,6|8,1:2|0:0,0:0:0:0:
431,99,37400,2,0,P|421:150|404:255,1,148.750002837181,0|0,0:0|1:2,0:0:0:0:
336,360,37887,2,0,P|324:302|312:282,1,74.3750014185906,10|0,0:0|0:0,0:0:0:0:
76,326,38211,6,0,B|168:312|132:367|240:349,1,148.750002837181,6|8,1:2|0:0,0:0:0:0:
190,176,38698,2,0,P|195:225|197:265,1,74.3750014185906,2|0,1:2|0:0,0:0:0:0:
132,61,39022,1,0,1:2:0:0:
49,142,39184,2,0,P|44:178|42:216,1,74.3750014185906,10|0,0:0|0:0,0:0:0:0:
276,151,39508,6,0,P|330:149|391:75,1,148.750002837181,2|10,1:2|0:0,0:0:0:0:
465,163,39995,2,0,B|442:257|506:222|471:331,1,148.750002837181,2|0,0:0|1:2,0:0:0:0:
386,378,40481,2,0,P|348:348|299:342,1,74.3750014185906,8|0,0:0|0:0,0:0:0:0:
131,365,40806,5,0,1:2:0:0:
131,365,40968,1,0,0:0:0:0:
185,199,41130,1,10,0:0:0:0:
61,289,41292,1,0,1:2:0:0:
272,238,41454,1,10,0:0:0:0:
94,177,41617,1,0,1:2:0:0:
169,353,41779,1,10,0:0:0:0:
287,187,41941,1,0,0:0:0:0:
386,377,42103,6,0,B|362:255|450:314|406:151,1,201.250003838539,6|8,1:2|0:0,0:0:0:0:
319,19,42589,2,0,P|326:95|340:236,1,201.250003838539,6|0,1:2|1:2,0:0:0:0:
193,191,43076,2,0,P|224:120|276:200,1,201.250003838539,14|0,0:0|0:0,0:0:0:0:
81,258,43562,5,2,1:2:0:0:
167,330,43725,2,0,P|210:344|254:342,1,74.3750014185906,10|0,0:0|0:0,0:0:0:0:
71,349,44049,1,2,0:0:0:0:
71,349,44211,1,0,1:2:0:0:
215,246,44373,2,0,P|258:232|302:234,1,74.3750014185906,10|0,0:0|0:0,0:0:0:0:
472,342,44698,6,0,P|409:361|389:252,1,201.250003838539,6|8,1:2|0:0,0:0:0:0:
396,58,45184,2,0,B|375:181|458:130|417:266,1,201.250003838539,6|0,1:2|1:2,0:0:0:0:
184,261,45671,2,0,P|284:257|395:256,1,201.250003838539,14|0,0:0|0:0,0:0:0:0:
131,153,46157,5,0,1:2:0:0:
207,58,46319,2,0,P|226:102|234:149,1,74.3750014185906,10|0,0:0|0:0,0:0:0:0:
131,262,46644,2,0,P|112:218|104:171,1,74.3750014185906,2|8,1:2|0:0,0:0:0:0:
232,309,46968,1,2,0:0:0:0:
232,309,47130,1,0,1:2:0:0:
349,188,47292,6,0,P|397:195|446:220,1,91.8749971961976,14|0,1:2|0:0,0:0:0:0:
348,181,47779,2,0,P|396:188|445:213,1,91.8749971961976,14|0,1:2|0:0,0:0:0:0:
347,174,48265,2,0,P|395:181|444:206,1,91.8749971961976,14|0,1:2|1:2,0:0:0:0:
169,100,48589,6,0,P|123:106|81:125,1,91.8749971961976,14|0,1:2|0:0,0:0:0:0:
170,93,49076,2,0,P|124:99|82:118,1,91.8749971961976,14|0,1:2|0:0,0:0:0:0:
171,86,49562,2,0,P|125:92|83:111,1,91.8749971961976,14|0,1:2|0:0,0:0:0:0:
21,256,49887,6,0,P|69:254|144:307,1,137.812495794296,12|0,0:0|0:0,0:0:0:0:
172,338,50211,2,0,P|223:334|266:311,1,91.8749971961976,8|0,0:0|1:2,0:0:0:0:
404,217,50535,1,8,0:0:0:0:
263,145,50698,1,0,1:2:0:0:
374,305,50860,1,8,0:0:0:0:
433,128,51022,1,0,1:2:0:0:
196,247,51184,6,0,P|179:186|163:136,1,91.8749971961976,12|0,0:0|1:2,0:0:0:0:
352,318,51508,2,0,P|369:257|385:207,1,91.8749971961976,8|0,0:0|1:2,0:0:0:0:
216,374,51833,1,10,0:0:0:0:
156,207,51995,1,0,1:2:0:0:
315,300,52157,1,10,0:0:0:0:
127,372,52319,1,2,1:2:0:0:
263,160,52481,6,0,P|255:221|232:259,1,91.8749971961976,14|0,1:2|0:0,0:0:0:0:
168,103,52806,2,0,P|176:42|199:4,1,91.8749971961976,8|0,0:0|1:2,0:0:0:0:
130,215,53130,1,0,0:0:0:0:
263,84,53292,1,0,1:2:0:0:
213,271,53454,1,8,0:0:0:0:
93,109,53617,1,0,1:2:0:0:
306,194,53779,6,0,B|378:220|358:154|464:205,2,122.499996261597,14|14|14,1:2|1:2|1:2,0:0:0:0:
200,121,54427,2,0,P|129:133|79:237,1,183.749994392395,14|0,1:2|0:0,0:0:0:0:
19,98,54914,1,0,0:0:0:0:
175,215,55076,6,0,P|191:281|206:377,1,137.812495794296,6|0,1:2|0:0,0:0:0:0:
243,368,55400,2,0,P|261:311|341:302,1,137.812495794296,10|0,0:0|0:0,0:0:0:0:
363,320,55725,2,0,P|411:335|473:330,1,91.8749971961976,2|0,1:2|1:2,0:0:0:0:
301,202,56049,1,10,0:0:0:0:
301,202,56211,1,2,0:0:0:0:
447,103,56373,5,2,1:2:0:0:
410,235,56535,1,2,0:0:0:0:
323,76,56698,1,8,0:0:0:0:
259,211,56860,2,0,P|269:267|273:316,1,91.8749971961976,2|0,1:2|0:0,0:0:0:0:
138,118,57184,1,0,1:2:0:0:
103,262,57346,1,8,0:0:0:0:
18,145,57508,1,0,0:0:0:0:
211,258,57671,6,0,P|267:280|323:272,1,91.8749971961976,6|0,1:2|0:0,0:0:0:0:
442,130,57995,2,0,P|396:131|355:151,1,91.8749971961976,10|0,0:0|0:0,0:0:0:0:
400,316,58319,2,0,P|412:253|419:203,1,91.8749971961976,2|0,1:2|1:2,0:0:0:0:
251,94,58644,2,0,P|258:139|267:184,1,91.8749971961976,10|0,0:0|0:0,0:0:0:0:
156,299,58968,6,0,P|103:280|46:278,1,91.8749971961976,2|0,1:2|0:0,0:0:0:0:
242,220,59292,1,10,0:0:0:0:
93,179,59454,2,0,P|81:122|86:78,1,91.8749971961976,2|0,1:2|0:0,0:0:0:0:
186,290,59779,1,0,1:2:0:0:
265,138,59941,1,8,0:0:0:0:
344,262,60103,1,8,0:0:0:0:
459,105,60265,6,0,P|467:41|360:25,2,183.749994392395,6|10|2,1:2|0:0|1:2,0:0:0:0:
354,167,61076,1,0,1:2:0:0:
262,98,61238,2,0,P|211:114|175:148,1,91.8749971961976,10|2,0:0|0:0,0:0:0:0:
243,317,61562,5,2,1:2:0:0:
265,186,61725,1,2,0:0:0:0:
325,352,61887,1,10,0:0:0:0:
170,234,62049,2,0,P|115:213|72:216,1,91.8749971961976,2|0,1:2|0:0,0:0:0:0:
226,336,62373,1,0,1:2:0:0:
321,248,62535,2,0,P|376:227|419:230,1,91.8749971961976,8|2,0:0|0:0,0:0:0:0:
212,348,62860,6,0,P|160:337|96:331,1,91.8749971961976,6|0,1:2|0:0,0:0:0:0:
23,236,63184,2,0,P|75:225|139:219,1,91.8749971961976,10|0,0:0|0:0,0:0:0:0:
238,132,63508,2,0,P|186:121|122:115,1,91.8749971961976,2|0,1:2|1:2,0:0:0:0:
327,68,63833,1,10,0:0:0:0:
253,223,63995,1,2,0:0:0:0:
415,214,64157,5,2,1:2:0:0:
238,132,64319,1,0,1:2:0:0:
422,63,64481,1,10,0:0:0:0:
339,232,64644,1,0,1:2:0:0:
280,54,64806,1,10,0:0:0:0:
457,136,64968,1,0,1:2:0:0:
248,192,65130,1,10,0:0:0:0:
248,192,65454,6,0,P|172:193|149:277,1,148.750002837181,6|2,1:2|1:2,0:0:0:0:
245,336,65941,1,8,0:0:0:0:
332,267,66103,2,0,P|340:212|353:174,1,74.3750014185906,2|0,0:0|1:2,0:0:0:0:
450,301,66427,2,0,P|459:336|463:373,1,74.3750014185906,10|0,0:0|0:0,0:0:0:0:
468,148,66752,6,0,P|442:205|427:299,1,148.750002837181,2|8,1:2|0:0,0:0:0:0:
327,345,67238,2,0,P|301:288|286:194,1,148.750002837181,10|0,0:0|1:2,0:0:0:0:
168,117,67725,2,0,P|149:169|146:205,1,74.3750014185906,8|0,0:0|1:2,0:0:0:0:
281,32,68049,6,0,B|376:39|324:88|437:92,1,148.750002837181,4|2,1:2|1:2,0:0:0:0:
290,135,68535,1,8,0:0:0:0:
407,206,68698,2,0,P|422:252|425:294,1,74.3750014185906,2|0,0:0|1:2,0:0:0:0:
253,228,69022,2,0,P|258:191|270:156,1,74.3750014185906,10|0,0:0|0:0,0:0:0:0:
347,326,69346,6,0,P|303:319|208:384,1,148.750002837181,2|2,1:2|1:2,0:0:0:0:
112,326,69833,2,0,B|78:244|143:267|98:163,1,148.750002837181,10|0,0:0|1:2,0:0:0:0:
159,98,70319,2,0,P|165:70|169:44,1,37.1875007092953,8|0,0:0|0:0,0:0:0:0:
231,162,70481,2,0,P|234:180|238:198,1,37.1875007092953,8|8,0:0|0:0,0:0:0:0:
301,77,70644,6,0,P|348:56|403:58,1,74.3750014185906,14|0,1:2|0:0,0:0:0:0:
238,198,70968,2,0,P|201:191|168:174,1,74.3750014185906,10|0,0:0|0:0,0:0:0:0:
351,265,71292,1,2,0:0:0:0:
207,320,71454,1,0,1:2:0:0:
354,156,71617,2,0,P|377:200|384:248,1,74.3750014185906,10|8,0:0|0:0,0:0:0:0:
170,66,71941,5,14,1:2:0:0:
116,271,72103,1,14,1:2:0:0:
123,284,72589,5,14,1:2:0:0:
61,63,72752,1,14,1:2:0:0:
61,63,73076,6,0,P|94:120|222:112,1,183.749994392395,6|0,1:2|1:2,0:0:0:0:
400,84,73562,1,8,0:0:0:0:
311,38,73725,2,0,B|273:135|350:112|309:227,1,183.749994392395,2|0,0:0|1:2,0:0:0:0:
162,305,74211,2,0,P|193:269|243:259,1,91.8749971961976,10|0,0:0|0:0,0:0:0:0:
411,317,74535,6,0,B|313:297|339:366|234:336,1,183.749994392395,6|8,1:2|0:0,0:0:0:0:
111,167,75022,2,0,P|194:176|232:276,1,183.749994392395,2|0,1:2|1:2,0:0:0:0:
143,355,75508,2,0,P|136:300|127:260,1,91.8749971961976,10|0,0:0|0:0,0:0:0:0:
276,42,75833,6,0,P|254:116|246:237,1,183.749994392395,2|8,1:2|0:0,0:0:0:0:
391,339,76319,2,0,P|385:248|361:160,1,183.749994392395,2|2,0:0|1:2,0:0:0:0:
231,175,76806,2,0,P|220:222|218:266,1,91.8749971961976,8|0,0:0|0:0,0:0:0:0:
84,133,77130,5,6,1:2:0:0:
117,266,77292,1,2,0:0:0:0:
54,117,77454,1,10,0:0:0:0:
183,185,77617,2,0,B|291:211|250:135|392:164,1,183.749994392395,2|0,1:2|1:2,0:0:0:0:
367,329,78103,2,0,P|339:287|329:240,1,91.8749971961976,8|0,0:0|0:0,0:0:0:0:
460,68,78427,6,0,P|457:139|427:269,1,183.749994392395,6|8,1:2|0:0,0:0:0:0:
356,75,78914,2,0,B|254:56|287:127|179:101,1,183.749994392395,2|2,0:0|1:2,0:0:0:0:
51,222,79400,2,0,P|79:175|119:158,1,91.8749971961976,10|0,0:0|0:0,0:0:0:0:
152,335,79725,6,0,P|138:272|124:226,2,91.8749971961976,6|0|8,1:2|0:0|0:0,0:0:0:0:
239,255,80211,2,0,P|297:249|358:352,1,183.749994392395,2|0,1:2|1:2,0:0:0:0:
470,266,80698,2,0,P|481:205|493:167,1,91.8749971961976,10|0,0:0|0:0,0:0:0:0:
365,30,81022,6,0,P|377:74|384:119,1,91.8749971961976,2|0,1:2|0:0,0:0:0:0:
192,204,81346,2,0,P|241:172|289:158,1,91.8749971961976,8|2,0:0|0:0,0:0:0:0:
116,159,81671,1,0,0:0:0:0:
293,250,81833,1,0,1:2:0:0:
86,190,81995,1,8,0:0:0:0:
195,365,82157,1,8,0:0:0:0:
195,365,82535,6,0,P|232:344|265:333,1,61.2499981307984,14|0,1:2|0:0,0:0:0:0:
116,281,82752,2,0,P|79:260|46:249,1,61.2499981307984,14|0,1:2|0:0,0:0:0:0:
222,230,82968,1,14,1:2:0:0:
222,230,83292,5,8,0:0:0:0:
322,136,83454,2,0,B|229:105|243:175|133:131,1,177.187494592667,4|0,1:2|0:0,0:0:0:0:
79,117,84265,6,0,L|65:115,10,9.8437496995926,0|0|0|0|0|0|0|0|0|0|0,1:2|0:0|0:0|0:0|0:0|0:0|0:0|0:0|1:2|0:0|0:0,0:0:0:0:
130,194,84752,5,8,0:0:0:0:
130,194,84833,1,8,0:0:0:0:
130,194,84914,2,0,L|137:229,1,24.0625007343292,12|0,1:2|0:0,0:0:0:0:
231,328,85400,6,0,L|236:305,1,24.0625007343292,12|0,1:2|0:0,0:0:0:0:
347,202,85887,6,0,L|352:225,1,24.0625007343292,12|0,1:2|0:0,0:0:0:0:
388,329,86049,6,0,L|419:149,1,168.437505140305,0|0,1:2|0:0,0:0:0:0:
425,120,86698,2,8,L|430:92,3,16.0416671562195
