osu file format v14

[General]
AudioFilename: audio.mp3
AudioLeadIn: 0
PreviewTime: 55076
Countdown: 0
SampleSet: Soft
StackLeniency: 0.7
Mode: 0
LetterboxInBreaks: 0
WidescreenStoryboard: 0

[Editor]
DistanceSpacing: 1.3
BeatDivisor: 4
GridSize: 32
TimelineZoom: 2.599999

[Metadata]
Title:Tsuki no Ookisa (TV Size)
TitleUnicode:月の大きさ (TV Size)
Artist:Nogizaka46
ArtistUnicode:乃木坂46
Creator:Reform
Version:Hard
Source:NARUTO-ナルト-疾風伝
Tags:kujinn Onlybiscuit brotarks naruto shippuden op opening 14 Barrette
BeatmapID:1805101
BeatmapSetID:862848

[Difficulty]
HPDrainRate:5
CircleSize:4
OverallDifficulty:6
ApproachRate:7.5
SliderMultiplier:1.55
SliderTickRate:1

[Events]
//Background and Video events
0,0,"Itachi.png",0,0
Video,-180,"Naruto Shippuden NCOP14.mp4"
//Break Periods
//Storyboard Layer 0 (Background)
//Storyboard Layer 1 (Fail)
//Storyboard Layer 2 (Pass)
//Storyboard Layer 3 (Foreground)
//Storyboard Sound Samples

[TimingPoints]
590,324.324324324324,4,2,1,50,1,0
590,-117.647058823529,4,2,1,50,0,0
4481,-100,4,2,1,75,0,0
6103,-83.3333333333333,4,2,1,75,0,0
6427,-100,4,2,1,75,0,0
10968,-117.647058823529,4,2,1,60,0,0
31725,-100,4,2,1,70,0,0
33184,-117.647058823529,4,2,1,60,0,0
34319,-100,4,2,1,70,0,0
35779,-117.647058823529,4,2,1,60,0,0
42103,-100,4,2,1,70,0,0
43562,-117.647058823529,4,2,1,60,0,0
44698,-100,4,2,1,70,0,0
46157,-117.647058823529,4,2,1,60,0,0
47292,-100,4,2,1,70,0,0
52481,-100,4,2,1,70,0,0
55076,-100,4,2,1,80,0,1
65454,-117.647058823529,4,2,1,70,0,0
73076,-117.647058823529,4,2,1,75,0,0
83454,-181.818181818181,4,2,1,65,0,0
84184,-117.647058823529,4,2,1,5,0,0
84265,-117.647058823529,4,2,1,65,0,0
84914,-117.647058823529,4,2,1,65,0,0
86617,-117.64705882353,4,2,1,5,0,0
86698,-117.64705882353,4,2,1,65,0,0

[Colours]
Combo1 : 188,79,73
Combo2 : 242,223,85
Combo3 : 66,86,138
Combo4 : 247,187,221

[HitObjects]
61,106,590,5,4,1:2:0:0:
61,106,752,2,0,P|94:87|143:82,1,65.8750012564659,4|0,1:2|0:0,0:0:0:0:
191,129,1076,2,0,P|239:158|318:158,1,131.750002512932,0|0,0:0|0:0,0:0:0:0:
386,116,1562,2,0,P|395:71|403:39,1,65.8750012564659,0|0,0:0|0:0,0:0:0:0:
476,147,1887,5,4,1:2:0:0:
476,147,2049,2,0,P|483:179|489:211,1,65.8750012564659,4|0,1:2|0:0,0:0:0:0:
438,280,2373,2,0,P|369:283|318:340,1,131.750002512932,0|0,0:0|0:0,0:0:0:0:
244,293,2860,2,0,P|200:286|161:279,1,65.8750012564659,0|0,0:0|0:0,0:0:0:0:
70,217,3184,5,4,1:2:0:0:
70,217,3346,2,0,P|114:210|153:203,1,65.8750012564659,4|0,1:2|0:0,0:0:0:0:
205,156,3671,2,0,P|189:99|227:14,1,131.750002512932,0|0,0:0|0:0,0:0:0:0:
293,8,4157,2,0,P|335:30|355:57,1,65.8750012564659,0|0,0:0|0:0,0:0:0:0:
405,115,4481,6,0,P|430:71|478:46,2,77.5,4|0|8,1:2|1:2|0:0,0:0:0:0:
385,206,4968,2,0,P|376:269|296:337,1,155,0|8,1:2|0:0,0:0:0:0:
232,284,5454,1,8,0:0:0:0:
232,284,5617,1,0,1:2:0:0:
156,338,5779,6,0,P|106:328|67:324,1,77.5,0|0,1:2|0:0,0:0:0:0:
12,260,6103,2,0,B|-2:178|51:213|28:108,1,139.499995742798,8|0,0:0|0:0,0:0:0:0:
34,87,6427,6,0,P|80:101|111:104,1,77.5,0|0,0:0|1:2,0:0:0:0:
169,54,6752,2,0,P|215:40|246:37,1,77.5,8|0,0:0|0:0,0:0:0:0:
324,82,7076,6,0,P|349:133|319:231,1,155,4|8,1:2|0:0,0:0:0:0:
260,291,7562,2,0,P|313:262|415:279,1,155,0|0,1:2|1:2,0:0:0:0:
486,316,8049,2,0,P|494:257|503:221,1,77.5,8|0,0:0|0:0,0:0:0:0:
426,179,8373,6,0,P|418:120|409:84,1,77.5,0|0,1:2|0:0,0:0:0:0:
346,38,8698,2,0,P|297:32|251:21,1,77.5,8|0,0:0|0:0,0:0:0:0:
213,100,9022,2,0,P|164:106|118:117,1,77.5,0|0,0:0|1:2,0:0:0:0:
56,64,9346,1,8,0:0:0:0:
56,64,9508,1,8,0:0:0:0:
51,281,9887,6,0,P|40:343|70:405,2,103.333333333333,8|8|8,0:0|0:0|0:0,0:0:0:0:
181,196,10644,2,0,P|225:190|265:170,1,77.5,8|0,0:3|0:0,0:0:0:0:
343,120,10968,6,0,P|411:121|471:175,1,131.750002512932,6|10,1:2|0:0,0:0:0:0:
406,224,11454,2,0,P|396:270|391:310,1,65.8750012564659,2|0,0:0|0:0,0:0:0:0:
324,340,11779,2,0,P|318:307|311:275,1,65.8750012564659,2|0,1:2|0:0,0:0:0:0:
241,225,12103,6,0,B|162:207|181:263|87:233,1,131.750002512932,10|2,0:0|1:2,0:0:0:0:
44,189,12589,2,0,P|38:151|54:109,1,65.8750012564659,10|0,0:0|0:0,0:0:0:0:
100,59,12914,2,0,P|151:73|180:76,1,65.8750012564659,2|0,0:0|1:2,0:0:0:0:
232,125,13238,2,0,P|283:111|312:108,1,65.8750012564659,10|0,0:0|0:0,0:0:0:0:
407,70,13562,6,0,P|382:141|388:221,1,131.750002512932,6|10,1:2|0:0,0:0:0:0:
347,275,14049,2,0,P|366:328|367:361,1,65.8750012564659,2|0,0:0|0:0,0:0:0:0:
286,364,14373,2,0,P|267:311|266:278,1,65.8750012564659,2|0,1:2|0:0,0:0:0:0:
269,215,14698,6,0,P|222:205|186:206,1,65.8750012564659,10|0,0:0|0:0,0:0:0:0:
143,264,15022,1,2,1:2:0:0:
143,264,15184,2,0,P|96:274|60:273,1,65.8750012564659,8|0,0:0|0:0,0:0:0:0:
12,219,15508,1,2,1:2:0:0:
12,219,15671,1,0,1:2:0:0:
52,143,15833,2,0,P|40:96|26:62,1,65.8750012564659,10|0,0:0|0:0,0:0:0:0:
126,17,16157,6,0,P|179:16|233:100,1,131.750002512932,6|8,1:2|0:0,0:0:0:0:
257,151,16644,2,0,P|275:195|359:221,1,131.750002512932,0|0,0:0|1:2,0:0:0:0:
424,182,17130,1,0,0:0:0:0:
379,108,17292,6,0,P|335:94|303:92,1,65.8750012564659,8|0,0:0|0:0,0:0:0:0:
257,151,17617,1,0,1:2:0:0:
257,151,17779,2,0,P|213:165|181:167,1,65.8750012564659,10|2,0:0|0:0,0:0:0:0:
120,212,18103,2,0,P|125:244|131:276,1,65.8750012564659,2|0,0:0|1:2,0:0:0:0:
153,359,18427,2,0,P|197:345|229:343,1,65.8750012564659,10|2,0:0|0:0,0:0:0:0:
345,306,18752,6,0,P|395:347|476:334,1,131.750002512932,6|10,1:2|0:0,0:0:0:0:
422,266,19238,2,0,P|431:214|446:127,1,131.750002512932,2|0,0:0|1:2,0:0:0:0:
404,60,19725,2,0,P|367:81|333:84,1,65.8750012564659,10|2,0:0|0:0,0:0:0:0:
265,50,20049,6,0,P|216:30|124:44,1,131.750002512932,2|10,1:2|0:0,0:0:0:0:
72,91,20535,2,0,P|90:163|108:246,1,131.750002512932,2|0,0:0|1:2,0:0:0:0:
160,282,21022,2,0,P|151:336|148:362,1,65.8750012564659,8|8,0:0|0:0,0:0:0:0:
274,316,21346,6,0,P|338:318|384:274,1,131.750002512932,6|8,1:2|0:0,0:0:0:0:
333,204,21833,2,0,P|326:171|333:133,1,65.8750012564659,2|0,0:0|0:0,0:0:0:0:
380,69,22157,2,0,P|387:36|380:-2,1,65.8750012564659,2|0,1:2|0:0,0:0:0:0:
301,32,22481,6,0,P|236:48|166:21,1,131.750002512932,10|2,0:0|1:2,0:0:0:0:
112,86,22968,2,0,P|104:125|118:167,1,65.8750012564659,10|0,0:0|0:0,0:0:0:0:
178,200,23292,2,0,P|186:239|172:281,1,65.8750012564659,2|0,0:0|1:2,0:0:0:0:
134,336,23617,1,10,0:0:0:0:
134,336,23779,1,0,0:0:0:0:
254,321,23941,6,0,P|318:321|363:367,1,131.750002512932,6|10,1:2|0:0,0:0:0:0:
432,316,24427,2,0,P|438:270|449:232,1,65.8750012564659,2|0,0:0|0:0,0:0:0:0:
379,193,24752,2,0,P|373:147|362:109,1,65.8750012564659,2|0,1:2|0:0,0:0:0:0:
304,70,25076,6,0,P|257:84|222:93,1,65.8750012564659,10|0,0:0|0:0,0:0:0:0:
189,157,25400,1,2,1:2:0:0:
189,157,25562,2,0,P|220:165|252:175,1,65.8750012564659,10|0,0:0|0:0,0:0:0:0:
319,228,25887,1,2,1:2:0:0:
319,228,26049,1,0,1:2:0:0:
265,294,26211,2,0,P|234:302|202:312,1,65.8750012564659,10|0,0:0|0:0,0:0:0:0:
101,273,26535,6,0,P|72:227|85:141,1,131.750002512932,6|10,1:2|0:0,0:0:0:0:
126,81,27022,2,0,P|174:108|259:87,1,131.750002512932,2|0,0:0|1:2,0:0:0:0:
323,56,27508,2,0,P|375:65|416:78,1,65.8750012564659,8|2,0:0|0:0,0:0:0:0:
443,134,27833,6,0,P|425:185|451:273,1,131.750002512932,2|8,1:2|0:0,0:0:0:0:
403,336,28319,1,0,0:0:0:0:
403,336,28481,2,0,P|360:322|319:326,1,65.8750012564659,2|2,0:0|1:2,0:0:0:0:
269,371,28806,1,10,0:0:0:0:
269,371,28968,1,2,0:0:0:0:
169,332,29130,6,0,P|132:309|113:203,1,131.750002512932,6|10,1:2|0:0,0:0:0:0:
161,163,29617,2,0,P|165:118|173:16,1,131.750002512932,0|0,0:0|1:2,0:0:0:0:
242,79,30103,2,0,P|289:79|319:64,1,65.8750012564659,8|0,0:0|0:0,0:0:0:0:
428,28,30427,6,0,P|423:84|421:112,1,65.8750012564659,0|0,1:2|0:0,0:0:0:0:
367,159,30752,2,0,P|372:215|374:243,1,65.8750012564659,10|2,0:0|1:2,0:0:0:0:
444,270,31076,2,0,P|439:326|437:354,1,65.8750012564659,10|2,0:0|1:2,0:0:0:0:
438,335,31319,1,8,0:0:0:0:
438,335,31400,1,8,0:0:0:0:
356,310,31562,1,8,0:0:0:0:
241,360,31725,6,0,P|189:365|122:276,1,155,6|8,1:2|0:0,0:0:0:0:
36,260,32211,2,0,P|88:265|155:176,1,155,6|0,1:2|1:2,0:0:0:0:
233,145,32698,2,0,B|155:118|173:180|83:146,1,155,14|0,0:0|0:0,0:0:0:0:
131,75,33184,5,2,1:2:0:0:
131,74,33346,2,0,P|165:51|199:44,1,65.8750012564659,10|0,0:0|0:0,0:0:0:0:
268,77,33671,2,0,P|299:98|330:107,1,65.8750012564659,2|0,0:0|1:2,0:0:0:0:
397,59,33995,2,0,P|411:19|429:-9,1,65.8750012564659,10|0,0:0|0:0,0:0:0:0:
481,95,34319,6,0,P|489:164|502:255,1,155,6|8,1:2|0:0,0:0:0:0:
412,298,34806,2,0,P|375:264|274:283,1,155,6|0,1:2|1:2,0:0:0:0:
204,347,35292,2,0,P|167:381|66:362,1,155,14|0,0:0|0:0,0:0:0:0:
19,296,35779,5,0,1:2:0:0:
19,296,35941,2,0,P|15:255|2:220,1,65.8750012564659,10|0,0:0|0:0,0:0:0:0:
75,179,36265,2,0,P|79:138|92:103,1,65.8750012564659,2|0,1:2|1:2,0:0:0:0:
162,78,36589,2,0,P|197:95|229:102,1,65.8750012564659,10|0,0:0|0:0,0:0:0:0:
294,149,36914,6,0,P|348:127|439:131,1,131.750002512932,6|8,1:2|0:0,0:0:0:0:
464,199,37400,2,0,B|446:277|497:253|471:352,1,131.750002512932,0|0,0:0|1:2,0:0:0:0:
403,373,37887,2,0,P|364:362|340:342,1,65.8750012564659,10|0,0:0|0:0,0:0:0:0:
270,303,38211,6,0,P|231:335|144:337,1,131.750002512932,6|8,1:2|0:0,0:0:0:0:
70,312,38698,2,0,P|61:258|57:228,1,65.8750012564659,2|0,1:2|0:0,0:0:0:0:
103,173,39022,2,0,P|112:119|116:89,1,65.8750012564659,0|10,1:2|0:0,0:0:0:0:
173,46,39346,1,0,0:0:0:0:
225,113,39508,6,0,P|235:193|246:270,1,131.750002512932,2|10,1:2|0:0,0:0:0:0:
314,290,39995,2,0,P|346:250|439:263,1,131.750002512932,2|0,0:0|1:2,0:0:0:0:
482,189,40481,2,0,P|491:144|499:117,1,65.8750012564659,8|0,0:0|0:0,0:0:0:0:
442,57,40806,6,0,P|396:46|369:42,1,65.8750012564659,0|0,1:2|0:0,0:0:0:0:
320,106,41130,2,0,P|274:117|247:121,1,65.8750012564659,10|2,0:0|1:2,0:0:0:0:
183,74,41454,1,10,0:0:0:0:
183,74,41617,1,0,1:2:0:0:
140,149,41779,1,10,0:0:0:0:
203,206,41941,1,0,0:0:0:0:
131,277,42103,6,0,P|78:292|23:192,1,155,6|8,1:2|0:0,0:0:0:0:
58,134,42589,2,0,P|116:127|237:112,1,155,6|0,1:2|1:2,0:0:0:0:
298,61,43076,2,0,P|364:81|461:115,1,155,14|0,0:0|0:0,0:0:0:0:
389,174,43562,5,2,1:2:0:0:
389,174,43725,2,0,P|397:221|396:248,1,65.8750012564659,10|0,0:0|0:0,0:0:0:0:
327,289,44049,2,0,P|280:276|252:275,1,65.8750012564659,2|0,0:0|1:2,0:0:0:0:
198,331,44373,2,0,P|151:344|123:345,1,65.8750012564659,10|0,0:0|0:0,0:0:0:0:
49,290,44698,6,0,B|30:190|87:240|60:112,1,155,6|8,1:2|0:0,0:0:0:0:
13,50,45184,2,0,P|56:102|145:73,1,155,6|0,1:2|1:2,0:0:0:0:
214,24,45671,2,0,P|206:108|193:207,1,155,14|0,0:0|0:0,0:0:0:0:
251,243,46157,5,0,1:2:0:0:
251,243,46319,2,0,P|288:225|324:221,1,65.8750012564659,10|0,0:0|0:0,0:0:0:0:
370,284,46644,2,0,P|407:302|443:306,1,65.8750012564659,2|8,1:2|0:0,0:0:0:0:
499,254,46968,1,2,0:0:0:0:
499,254,47130,1,0,1:2:0:0:
412,203,47292,6,0,P|406:137|261:89,2,232.5,14|14|14,1:2|1:2|1:2,0:0:0:0:
357,279,48427,1,0,1:2:0:0:
270,243,48589,6,0,B|144:183|172:291|39:227,2,232.5,14|14|14,1:2|1:2|1:2,0:0:0:0:
357,279,49725,1,0,0:0:0:0:
404,199,49887,6,0,P|409:147|414:100,1,77.5,12|0,0:0|0:0,0:0:0:0:
335,68,50211,2,0,P|331:106|327:145,1,77.5,8|0,0:0|1:2,0:0:0:0:
237,169,50535,2,0,P|242:117|247:70,1,77.5,8|0,0:0|1:2,0:0:0:0:
168,38,50859,2,0,P|164:76|160:115,1,77.5,8|0,0:0|1:2,0:0:0:0:
84,169,51184,5,12,0:0:0:0:
84,169,51346,1,0,1:2:0:0:
73,261,51508,1,8,0:0:0:0:
73,261,51671,1,0,1:2:0:0:
159,228,51833,1,10,0:0:0:0:
159,228,51995,1,0,1:2:0:0:
148,320,52157,1,10,0:0:0:0:
148,320,52320,1,2,1:2:0:0:
232,282,52481,5,14,1:2:0:0:
302,343,52644,2,0,P|343:357|389:354,2,77.5,0|8|0,0:0|0:0|1:2,0:0:0:0:
232,282,53130,2,0,P|191:268|145:271,2,77.5,0|0|8,0:0|1:2|0:0,0:0:0:0:
312,234,53617,1,0,1:2:0:0:
244,170,53779,6,0,P|234:116|262:51,2,103.333333333333,14|14|14,1:2|1:2|1:2,0:0:0:0:
360,126,54427,1,14,1:2:0:0:
288,298,54752,2,0,P|248:281|205:283,1,77.5
85,277,55076,6,0,P|55:224|72:120,1,155,6|10,1:2|0:0,0:0:0:0:
114,54,55562,1,0,0:0:0:0:
184,115,55725,2,0,P|222:143|262:145,1,77.5,2|0,1:2|1:2,0:0:0:0:
341,123,56049,2,0,P|379:95|419:93,1,77.5,10|2,0:0|0:0,0:0:0:0:
462,166,56373,5,2,1:2:0:0:
398,234,56535,2,0,P|409:289|420:342,1,77.5,2|8,0:0|0:0,0:0:0:0:
339,367,56860,2,0,P|281:378|201:310,1,155,2|0,1:2|1:2,0:0:0:0:
121,288,57346,2,0,P|123:240|133:197,1,77.5,8|0,0:0|0:0,0:0:0:0:
199,99,57671,6,0,P|258:120|294:124,1,77.5,6|0,1:2|0:0,0:0:0:0:
350,72,57995,2,0,P|409:51|445:47,1,77.5,10|0,0:0|0:0,0:0:0:0:
468,138,58319,2,0,P|457:189|449:230,1,77.5,2|0,1:2|1:2,0:0:0:0:
368,270,58644,2,0,P|380:320|386:365,1,77.5,10|0,0:0|0:0,0:0:0:0:
285,324,58968,6,0,B|201:300|235:371|103:324,1,155,2|10,1:2|0:0,0:0:0:0:
50,282,59454,2,0,P|28:221|71:134,1,155,2|0,1:2|1:2,0:0:0:0:
140,90,59941,2,0,P|181:108|213:145,1,77.5,8|8,0:0|0:0,0:0:0:0:
309,214,60265,6,0,P|348:158|430:128,2,155,6|10|2,1:2|0:0|1:2,0:0:0:0:
264,296,61076,1,0,1:2:0:0:
187,349,61238,2,0,P|138:354|103:332,1,77.5,10|2,0:0|0:0,0:0:0:0:
49,274,61562,6,0,P|38:215|30:170,2,77.5,2|2|10,1:2|0:0|0:0,0:0:0:0:
126,222,62049,2,0,P|139:157|109:71,1,155,2|0,1:2|1:2,0:0:0:0:
172,4,62535,2,0,P|217:15|250:22,1,77.5,8|2,0:0|0:0,0:0:0:0:
333,113,62860,6,0,P|320:170|317:201,1,77.5,6|0,1:2|0:0,0:0:0:0:
390,246,63184,2,0,P|403:303|406:334,1,77.5,10|0,0:0|0:0,0:0:0:0:
319,358,63508,2,0,P|283:340|235:336,1,77.5,2|0,1:2|1:2,0:0:0:0:
158,366,63833,1,10,0:0:0:0:
83,310,63995,1,2,0:0:0:0:
91,217,64157,6,0,P|102:153|111:116,1,77.5,2|0,1:2|1:2,0:0:0:0:
192,109,64481,2,0,P|199:146|205:185,1,77.5,10|0,0:0|1:2,0:0:0:0:
287,230,64806,2,0,P|298:166|307:129,1,77.5,10|0,0:0|1:2,0:0:0:0:
386,118,65130,2,0,P|393:155|399:194,1,77.5,10|0,0:0|0:0,0:0:0:0:
386,307,65454,6,0,P|334:339|253:303,1,131.750002512932,6|2,1:2|1:2,0:0:0:0:
196,276,65941,1,8,0:0:0:0:
173,193,66103,2,0,P|160:132|153:107,1,65.8750012564659,2|0,0:0|1:2,0:0:0:0:
87,81,66427,2,0,P|78:131|73:170,1,65.8750012564659,10|0,0:0|0:0,0:0:0:0:
32,217,66752,6,0,P|75:235|104:323,1,131.750002512932,2|8,1:2|0:0,0:0:0:0:
179,354,67238,2,0,B|263:368|230:317|318:331,1,131.750002512932,10|0,0:0|1:2,0:0:0:0:
381,364,67725,2,0,P|388:319|376:284,1,65.8750012564659,8|0,0:0|1:2,0:0:0:0:
336,228,68049,6,0,P|341:159|348:74,1,131.750002512932,4|2,1:2|1:2,0:0:0:0:
283,38,68535,1,8,0:0:0:0:
230,106,68698,2,0,P|192:119|161:121,1,65.8750012564659,2|0,0:0|1:2,0:0:0:0:
94,74,69022,2,0,P|56:61|25:59,1,65.8750012564659,10|0,0:0|0:0,0:0:0:0:
48,142,69346,6,0,P|62:213|74:295,1,131.750002512932,2|2,1:2|1:2,0:0:0:0:
127,336,69833,2,0,P|156:288|250:287,1,131.750002512932,10|0,0:0|1:2,0:0:0:0:
290,331,70319,2,0,P|328:352|366:360,1,65.8750012564659,8|8,0:0|0:0,0:0:0:0:
391,351,70562,1,8,0:0:0:0:
391,351,70644,6,0,P|396:303|406:264,1,65.8750012564659,14|0,1:2|0:0,0:0:0:0:
440,210,70968,2,0,P|435:162|425:123,1,65.8750012564659,10|0,0:0|0:0,0:0:0:0:
371,83,71292,1,2,0:0:0:0:
313,146,71454,1,0,1:2:0:0:
250,87,71617,2,0,P|206:74|167:75,1,65.8750012564659,10|8,0:0|0:0,0:0:0:0:
119,126,71941,5,14,1:2:0:0:
119,126,72103,1,14,1:2:0:0:
353,231,72589,5,14,1:2:0:0:
353,231,72752,1,14,1:2:0:0:
226,345,73076,6,0,P|176:365|108:319,1,131.750002512932,6|0,1:2|1:2,0:0:0:0:
62,258,73562,1,8,0:0:0:0:
131,207,73725,2,0,B|143:123|101:156|117:62,1,131.750002512932,2|0,0:0|1:2,0:0:0:0:
161,7,74211,2,0,P|204:12|239:30,1,65.8750012564659,10|0,0:0|0:0,0:0:0:0:
301,98,74535,6,0,P|357:92|419:47,1,131.750002512932,6|8,1:2|0:0,0:0:0:0:
481,106,75022,2,0,P|469:157|467:198,1,65.8750012564659,2|0,1:2|0:0,0:0:0:0:
409,232,75346,1,0,1:2:0:0:
409,232,75508,2,0,P|422:280|423:316,1,65.8750012564659,10|0,0:0|0:0,0:0:0:0:
330,363,75833,6,0,P|285:374|207:329,1,131.750002512932,2|8,1:2|0:0,0:0:0:0:
126,329,76319,2,0,P|135:259|146:181,1,131.750002512932,2|2,0:0|1:2,0:0:0:0:
115,116,76806,2,0,P|110:53|107:28,1,65.8750012564659,8|0,0:0|0:0,0:0:0:0:
180,0,77130,5,6,1:2:0:0:
180,0,77292,1,2,0:0:0:0:
242,58,77454,1,10,0:0:0:0:
316,15,77617,2,0,P|403:14|440:64,1,131.750002512932,2|0,1:2|1:2,0:0:0:0:
473,115,78103,2,0,P|459:165|457:194,1,65.8750012564659,8|0,0:0|0:0,0:0:0:0:
410,268,78427,6,0,P|341:259|258:250,1,131.750002512932,6|8,1:2|0:0,0:0:0:0:
206,298,78914,2,0,P|132:323|72:339,1,131.750002512932,2|2,0:0|1:2,0:0:0:0:
10,286,79400,2,0,P|3:241|14:207,1,65.8750012564659,10|0,0:0|0:0,0:0:0:0:
68,131,79725,6,0,B|152:151|120:99|203:117,1,131.750002512932,6|8,1:2|0:0,0:0:0:0:
268,64,80211,2,0,P|239:114|282:187,1,131.750002512932,2|0,1:2|1:2,0:0:0:0:
315,247,80698,2,0,P|361:239|396:240,1,65.8750012564659,10|0,0:0|0:0,0:0:0:0:
461,265,81022,6,0,P|470:222|470:190,1,65.8750012564659,2|0,1:2|0:0,0:0:0:0:
396,158,81346,2,0,P|387:115|387:83,1,65.8750012564659,8|2,0:0|0:0,0:0:0:0:
319,38,81671,2,0,P|263:29|233:29,1,65.8750012564659,0|0,0:0|1:2,0:0:0:0:
196,92,81995,1,8,0:0:0:0:
196,92,82157,1,8,0:0:0:0:
297,264,82535,6,0,P|305:314|277:379,2,87.8333350086212,14|14|14,1:2|1:2|1:2,0:0:0:0:
297,264,83292,1,8,0:0:0:0:
209,307,83454,6,0,P|263:305|432:300,1,213.125006504059,4|0,1:2|1:2,0:0:0:0:
466,89,84752,5,8,0:0:0:0:
466,89,84833,1,8,0:0:0:0:
466,89,84914,1,12,1:2:0:0:
273,227,85400,5,12,1:2:0:0:
83,84,85887,5,12,1:2:0:0:
68,161,86049,2,0,P|74:229|182:165,1,230.562504397631,0|0,1:2|0:0,0:0:0:0:
186,145,86698,2,8,L|184:113,3,21.9583337521553
