osu file format v14

[General]
AudioFilename: audio.mp3
AudioLeadIn: 0
PreviewTime: 55076
Countdown: 0
SampleSet: Soft
StackLeniency: 0.7
Mode: 0
LetterboxInBreaks: 0
WidescreenStoryboard: 0

[Editor]
DistanceSpacing: 0.5
BeatDivisor: 4
GridSize: 32
TimelineZoom: 2.599999

[Metadata]
Title:Tsuki no Ookisa (TV Size)
TitleUnicode:月の大きさ (TV Size)
Artist:Nogizaka46
ArtistUnicode:乃木坂46
Creator:Reform
Version:Extra
Source:NARUTO-ナルト-疾風伝
Tags:kujinn Onlybiscuit brotarks naruto shippuden op opening 14 Barrette
BeatmapID:1804850
BeatmapSetID:862848

[Difficulty]
HPDrainRate:6.5
CircleSize:4
OverallDifficulty:8.5
ApproachRate:9.2
SliderMultiplier:1.85
SliderTickRate:1

[Events]
//Background and Video events
0,0,"Naruto.png",0,0
Video,-180,"Naruto Shippuden NCOP14.mp4"
//Break Periods
//Storyboard Layer 0 (Background)
//Storyboard Layer 1 (Fail)
//Storyboard Layer 2 (Pass)
//Storyboard Layer 3 (Foreground)
//Storyboard Sound Samples

[TimingPoints]
590,324.324324324324,4,2,1,50,1,0
590,-153.846153846154,4,2,1,50,0,0
4481,-117.64705882353,4,2,1,75,0,0
6103,-80,4,2,1,75,0,0
6427,-117.647058823529,4,2,1,75,0,0
9995,-117.647058823529,4,2,1,5,0,0
10103,-117.647058823529,4,2,1,75,0,0
10211,-117.647058823529,4,2,1,5,0,0
10319,-117.647058823529,4,2,1,75,0,0
10968,-133.333333333333,4,2,1,60,0,0
31725,-86.9565217391304,4,2,1,70,0,0
33184,-117.647058823529,4,2,1,60,0,0
34319,-86.9565217391302,4,2,1,70,0,0
35779,-117.647058823529,4,2,1,60,0,0
42103,-86.9565217391302,4,2,1,70,0,0
43562,-117.647058823529,4,2,1,60,0,0
44698,-86.9565217391304,4,2,1,70,0,0
46157,-117.647058823529,4,2,1,60,0,0
47292,-95.238095238095,4,2,1,70,0,0
52481,-95.2380952380951,4,2,1,70,0,0
53779,-95.238095238095,4,2,1,75,0,0
53887,-95.238095238095,4,2,1,5,0,0
53995,-95.238095238095,4,2,1,75,0,0
54103,-95.238095238095,4,2,1,5,0,0
54211,-95.238095238095,4,2,1,75,0,0
54319,-95.238095238095,4,2,1,5,0,0
54427,-95.238095238095,4,2,1,75,0,0
54535,-95.238095238095,4,2,1,5,0,0
54752,-95.238095238095,4,2,1,75,0,0
55076,-95.2380952380952,4,2,1,80,0,1
65454,-117.647058823529,4,2,1,70,0,0
73076,-95.238095238095,4,2,1,75,0,0
82535,-95.238095238095,4,2,1,75,0,0
82643,-95.238095238095,4,2,1,5,0,0
82752,-95.238095238095,4,2,1,75,0,0
82860,-95.238095238095,4,2,1,5,0,0
82968,-95.238095238095,4,2,1,75,0,0
83454,-222.222222222222,4,2,1,65,0,0
84184,-222.222222222222,4,2,1,5,0,0
84265,-222.222222222222,4,2,1,65,0,0
84914,-181.818181818182,4,2,1,65,0,0
84995,-181.818181818182,4,2,1,5,0,0
85076,-181.818181818182,4,2,1,65,0,0
85481,-181.818181818182,4,2,1,5,0,0
85562,-181.818181818182,4,2,1,65,0,0
85968,-181.818181818182,4,2,1,5,0,0
86049,-181.818181818182,4,2,1,65,0,0
86617,-181.818181818182,4,2,1,5,0,0
86698,-181.818181818182,4,2,1,65,0,0

[Colours]
Combo1 : 188,79,73
Combo2 : 242,223,85
Combo3 : 66,86,138
Combo4 : 247,187,221

[HitObjects]
84,65,590,5,4,1:2:0:0:
289,149,752,2,0,P|249:153|213:171,1,60.1249972476961,4|0,1:2|0:0,0:0:0:0:
72,204,1076,2,0,P|119:208|189:253,1,120.249994495392,0|0,0:0|0:0,0:0:0:0:
260,342,1562,2,0,P|266:292|271:251,1,90.1874958715441,0|0,0:0|0:0,0:0:0:0:
415,141,1887,5,4,1:2:0:0:
416,343,2049,2,0,L|413:277,1,60.1249972476961,4|0,1:2|0:0,0:0:0:0:
248,143,2373,2,0,P|268:194|336:214,1,120.249994495392,0|0,0:0|0:0,0:0:0:0:
433,179,2860,2,0,P|397:175|347:211,1,90.1874958715441
260,320,3184,5,4,1:2:0:0:
157,96,3346,2,0,P|153:135|148:170,1,60.1249972476961,4|0,1:2|0:0,0:0:0:0:
57,300,3671,2,0,P|72:254|151:252,1,120.249994495392,0|0,0:0|0:0,0:0:0:0:
235,283,4157,2,0,P|201:289|152:250,1,90.1874958715441
140,87,4481,5,4,1:2:0:0:
317,176,4644,1,0,1:2:0:0:
110,75,4806,1,8,0:0:0:0:
329,15,4968,1,0,1:2:0:0:
329,15,5292,5,8,0:0:0:0:
199,189,5454,1,8,0:0:0:0:
110,75,5617,1,0,1:2:0:0:
329,15,5779,6,0,P|319:53|314:92,1,78.6250014996529,0|0,1:2|0:0,0:0:0:0:
472,220,6103,2,0,B|367:237|415:170|295:194,1,173.4375,8|0,0:0|0:0,0:0:0:0:
270,196,6427,5,0,0:0:0:0:
446,144,6589,1,0,1:2:0:0:
358,344,6752,2,0,P|345:285|345:245,1,78.6250014996529,8|0,0:0|0:0,0:0:0:0:
195,71,7076,6,0,P|191:110|181:148,1,78.6250014996529,4|0,1:2|0:0,0:0:0:0:
100,25,7400,1,8,0:0:0:0:
264,133,7562,2,0,B|355:117|321:190|430:168,1,157.250002999306,0|0,1:2|1:2,0:0:0:0:
499,244,8049,2,0,P|448:253|409:275,1,78.6250014996529,8|0,0:0|0:0,0:0:0:0:
238,352,8373,6,0,P|199:346|163:331,1,78.6250014996529,0|0,1:2|0:0,0:0:0:0:
288,261,8698,1,8,0:0:0:0:
125,182,8860,1,0,0:0:0:0:
280,112,9022,1,0,0:0:0:0:
111,39,9184,1,0,1:2:0:0:
214,218,9346,1,8,0:0:0:0:
297,36,9508,1,8,0:0:0:0:
297,36,9887,6,0,P|324:57|367:68,1,52.4166676664353,8|0,0:0|0:0,0:0:0:0:
164,124,10103,2,0,P|137:145|94:156,1,52.4166676664353,8|0,0:0|0:0,0:0:0:0:
282,215,10319,2,0,P|309:236|361:249,1,78.6250014996529,8|0,0:0|0:0,0:0:0:0:
351,248,10562,1,0,0:0:0:0:
351,248,10644,1,8,0:3:0:0:
354,160,10806,1,0,0:0:0:0:
477,350,10968,6,0,B|498:268|441:297|468:192,1,138.750005292893,6|10,1:2|0:0,0:0:0:0:
406,82,11454,2,0,P|394:132|376:171,1,69.3750026464463,2|0,0:0|0:0,0:0:0:0:
282,271,11779,2,0,P|275:237|263:204,1,69.3750026464463,2|0,1:2|0:0,0:0:0:0:
48,94,12103,6,0,P|128:80|165:132,1,138.750005292893,10|2,0:0|1:2,0:0:0:0:
98,202,12589,2,0,P|56:209|22:220,1,69.3750026464463,10|0,0:0|0:0,0:0:0:0:
179,306,12914,2,0,P|212:315|246:320,1,69.3750026464463,2|0,0:0|1:2,0:0:0:0:
374,227,13238,1,10,0:0:0:0:
253,159,13400,1,0,0:0:0:0:
401,327,13562,6,0,P|417:260|443:175,1,138.750005292893,6|10,1:2|0:0,0:0:0:0:
337,20,14049,2,0,P|347:74|355:117,1,69.3750026464463,2|0,0:0|0:0,0:0:0:0:
171,192,14373,2,0,P|201:162|232:150,1,69.3750026464463,2|0,1:2|0:0,0:0:0:0:
337,251,14698,6,0,P|288:242|256:237,1,69.3750026464463,10|0,0:0|0:0,0:0:0:0:
186,303,15022,1,2,1:2:0:0:
369,335,15184,2,0,P|418:326|450:321,1,69.3750026464463,8|0,0:0|0:0,0:0:0:0:
298,231,15508,1,2,1:2:0:0:
298,231,15671,1,0,1:2:0:0:
394,146,15833,2,0,P|428:151|462:158,1,69.3750026464463,10|0,0:0|0:0,0:0:0:0:
170,42,16157,6,0,B|147:118|208:96|174:191,2,138.750005292893,2|8|0,1:2|0:0|0:0,0:0:0:0:
260,168,16968,1,0,1:2:0:0:
107,211,17130,1,0,0:0:0:0:
266,146,17292,6,0,P|276:100|286:69,1,69.3750026464463,8|0,0:0|0:0,0:0:0:0:
339,236,17617,1,0,1:2:0:0:
428,154,17779,2,0,P|418:108|408:77,1,69.3750026464463,10|2,0:0|0:0,0:0:0:0:
251,231,18103,2,0,P|241:185|231:154,1,69.3750026464463,2|0,0:0|1:2,0:0:0:0:
372,302,18427,2,0,P|382:256|392:225,1,69.3750026464463,10|2,0:0|0:0,0:0:0:0:
250,353,18752,6,0,P|207:301|140:306,1,138.750005292893,6|10,1:2|0:0,0:0:0:0:
63,226,19238,2,0,P|76:152|91:73,1,138.750005292893,2|0,0:0|1:2,0:0:0:0:
184,17,19725,2,0,P|190:59|196:101,1,69.3750026464463,10|2,0:0|0:0,0:0:0:0:
445,193,20049,6,0,P|424:140|326:139,1,138.750005292893,2|10,1:2|0:0,0:0:0:0:
188,195,20535,2,0,B|269:182|247:238|340:219,1,138.750005292893,2|0,0:0|1:2,0:0:0:0:
208,291,21022,1,8,0:0:0:0:
336,349,21184,1,8,0:0:0:0:
416,106,21346,6,0,P|388:157|364:241,1,138.750005292893,6|8,1:2|0:0,0:0:0:0:
282,129,21833,2,0,P|269:79|256:46,1,69.3750026464463,2|0,0:0|0:0,0:0:0:0:
170,179,22157,2,0,P|158:211|150:245,1,69.3750026464463,2|0,1:2|0:0,0:0:0:0:
31,42,22481,6,0,P|92:37|153:102,1,138.750005292893,10|2,0:0|1:2,0:0:0:0:
70,213,22968,2,0,P|65:162|59:127,1,69.3750026464463,10|0,0:0|0:0,0:0:0:0:
198,20,23292,2,0,P|193:54|190:88,1,69.3750026464463,2|0,0:0|1:2,0:0:0:0:
274,208,23617,1,10,0:0:0:0:
374,105,23779,1,0,0:0:0:0:
178,196,23941,6,0,P|184:248|262:301,1,138.750005292893,6|10,1:2|0:0,0:0:0:0:
325,359,24427,2,0,P|366:350|412:347,1,69.3750026464463,2|0,0:0|0:0,0:0:0:0:
476,246,24752,2,0,P|441:242|407:234,1,69.3750026464463,2|0,1:2|0:0,0:0:0:0:
255,137,25076,6,0,P|264:181|272:234,1,69.3750026464463,10|0,0:0|0:0,0:0:0:0:
374,89,25400,1,2,1:2:0:0:
421,211,25562,2,0,P|412:255|404:308,1,69.3750026464463,10|0,0:0|0:0,0:0:0:0:
271,87,25887,1,2,1:2:0:0:
304,229,26049,1,0,1:2:0:0:
466,124,26211,2,0,P|422:92|356:94,1,104.06250396967,10|0,0:0|0:0,0:0:0:0:
347,124,26535,6,0,P|303:156|214:144,1,138.750005292893,6|10,1:2|0:0,0:0:0:0:
116,42,27022,2,0,P|133:92|155:186,1,138.750005292893,2|0,0:0|1:2,0:0:0:0:
228,290,27508,2,0,P|239:250|253:213,1,69.3750026464463,8|2,0:0|0:0,0:0:0:0:
314,100,27833,6,0,P|362:106|398:135,1,69.3750026464463,2|0,1:2|0:0,0:0:0:0:
466,240,28157,2,0,P|434:254|400:256,1,69.3750026464463,10|0,1:2|0:0,0:0:0:0:
275,181,28481,1,10,0:0:0:0:
284,311,28643,1,2,1:2:0:0:
408,215,28806,1,10,0:0:0:0:
381,351,28968,1,2,0:0:0:0:
438,117,29130,6,0,P|401:72|311:80,1,138.750005292893,6|10,1:2|0:0,0:0:0:0:
256,149,29617,2,0,B|180:130|201:194|98:163,1,138.750005292893,0|0,0:0|1:2,0:0:0:0:
118,22,30103,2,0,P|132:66|140:101,1,69.3750026464463,8|0,0:0|0:0,0:0:0:0:
216,253,30427,5,0,1:2:0:0:
278,118,30589,1,0,0:0:0:0:
295,312,30752,1,10,0:0:0:0:
180,152,30914,1,2,1:2:0:0:
162,363,31076,1,10,0:0:0:0:
337,193,31238,1,8,0:0:0:0:
337,193,31319,1,8,0:0:0:0:
337,193,31400,1,8,0:0:0:0:
367,383,31562,1,8,0:0:0:0:
116,225,31725,6,0,B|48:170|91:83|91:83|120:122|156:118,1,212.750004057884,6|8,1:2|0:0,0:0:0:0:
330,62,32211,2,0,B|199:48|249:131|125:115,1,212.750004057884,6|0,1:2|1:2,0:0:0:0:
295,159,32698,2,0,P|351:176|336:304,1,212.750004057884,14|0,0:0|0:0,0:0:0:0:
151,359,33184,5,2,1:2:0:0:
36,221,33346,2,0,P|45:259|53:298,1,78.6250014996529,10|0,0:0|0:0,0:0:0:0:
196,164,33671,2,0,P|187:202|179:241,1,78.6250014996529,2|0,0:0|1:2,0:0:0:0:
55,38,33995,2,0,P|67:75|76:113,1,78.6250014996529,10|0,0:0|0:0,0:0:0:0:
247,48,34319,6,0,B|303:91|378:57|378:57|421:65|442:123,1,212.750004057884,6|8,1:2|0:0,0:0:0:0:
448,303,34806,2,0,B|385:185|495:210|430:97,1,212.750004057884,6|0,1:2|1:2,0:0:0:0:
229,151,35292,2,0,P|232:225|344:207,1,212.750004057884,14|0,0:0|0:0,0:0:0:0:
210,57,35779,5,0,1:2:0:0:
113,124,35941,2,0,P|64:115|25:109,1,78.6250014996529,10|0,0:0|0:0,0:0:0:0:
206,198,36265,2,0,P|244:191|283:184,1,78.6250014996529,2|0,1:2|1:2,0:0:0:0:
110,265,36589,2,0,P|71:257|32:251,1,78.6250014996529,10|0,0:0|0:0,0:0:0:0:
253,326,36914,6,0,B|340:357|325:286|423:319,1,157.250002999306,6|8,1:2|0:0,0:0:0:0:
453,229,37400,2,0,P|400:221|364:130,1,157.250002999306,0|0,0:0|1:2,0:0:0:0:
512,31,37887,2,0,P|467:47|429:50,1,78.6250014996529,10|0,0:0|0:0,0:0:0:0:
225,75,38211,6,0,P|284:78|366:139,1,157.250002999306,6|8,1:2|0:0,0:0:0:0:
283,186,38698,2,0,P|232:194|197:202,1,78.6250014996529,2|0,1:2|0:0,0:0:0:0:
83,179,39022,1,0,1:2:0:0:
173,301,39184,2,0,P|211:309|250:314,1,78.6250014996529,10|0,0:0|0:0,0:0:0:0:
182,49,39508,6,0,B|165:136|229:110|202:214,1,157.250002999306,2|10,1:2|0:0,0:0:0:0:
54,342,39995,2,0,P|54:292|154:284,1,157.250002999306,2|0,0:0|1:2,0:0:0:0:
290,369,40481,2,0,P|244:358|211:330,1,78.6250014996529,8|0,0:0|0:0,0:0:0:0:
249,137,40806,5,0,1:2:0:0:
281,273,40968,1,0,0:0:0:0:
335,83,41130,1,10,0:0:0:0:
189,207,41292,1,0,1:2:0:0:
221,45,41454,1,10,0:0:0:0:
363,223,41617,1,0,1:2:0:0:
349,31,41779,1,10,0:0:0:0:
222,229,41941,1,0,0:0:0:0:
50,36,42103,6,0,B|172:12|132:102|250:70,1,212.750004057884,6|8,1:2|0:0,0:0:0:0:
255,144,42589,2,0,P|329:101|249:70,1,212.750004057884,6|0,1:2|0:0,0:0:0:0:
91,202,43076,2,0,P|171:169|299:216,1,212.750004057884,6|0,1:2|0:0,0:0:0:0:
367,105,43562,5,2,1:2:0:0:
461,227,43725,2,0,P|470:178|481:136,1,78.6250014996529,10|0,0:0|0:0,0:0:0:0:
324,317,44049,1,2,0:0:0:0:
291,191,44211,1,0,1:2:0:0:
412,301,44373,2,0,P|457:318|493:318,1,78.6250014996529,10|0,0:0|0:0,0:0:0:0:
414,49,44698,6,0,B|305:27|333:127|203:90,1,212.750004057884,6|8,1:2|0:0,0:0:0:0:
132,91,45184,2,0,B|73:57|184:-21|227:99|172:196,1,212.750004057884,6|0,1:2|1:2,0:0:0:0:
54,254,45671,2,0,B|170:280|126:182|265:213,1,212.750004057884,14|0,0:0|0:0,0:0:0:0:
345,336,46157,5,0,1:2:0:0:
458,212,46319,2,0,P|400:218|354:222,1,78.6250014996529,10|0,0:0|0:0,0:0:0:0:
256,347,46644,2,0,P|295:350|334:354,1,78.6250014996529,2|8,1:2|0:0,0:0:0:0:
148,173,46968,1,2,0:0:0:0:
178,303,47130,1,0,1:2:0:0:
325,97,47292,6,0,P|314:154|305:200,1,97.1249970359803,14|0,1:2|0:0,0:0:0:0:
333,96,47779,2,0,P|322:153|313:199,1,97.1249970359803,14|0,1:2|0:0,0:0:0:0:
341,95,48265,2,0,P|330:152|321:198,1,97.1249970359803,14|0,1:2|1:2,0:0:0:0:
112,33,48589,6,0,P|123:90|132:136,1,97.1249970359803,14|0,1:2|0:0,0:0:0:0:
104,32,49076,2,0,P|115:89|124:135,1,97.1249970359803,14|0,1:2|0:0,0:0:0:0:
96,31,49562,2,0,P|107:88|116:134,1,97.1249970359803,14|0,1:2|0:0,0:0:0:0:
53,331,49887,6,0,P|81:273|181:285,1,145.68749555397,12|0,0:0|0:0,0:0:0:0:
234,320,50211,5,8,0:0:0:0:
292,112,50373,1,0,1:2:0:0:
141,362,50535,5,8,0:0:0:0:
88,131,50698,1,0,1:2:0:0:
355,273,50860,5,8,0:0:0:0:
92,211,51022,1,0,1:2:0:0:
413,152,51184,5,12,0:0:0:0:
166,293,51346,1,0,1:2:0:0:
472,300,51508,5,8,0:0:0:0:
176,128,51671,1,0,1:2:0:0:
452,45,51833,5,10,0:0:0:0:
277,334,51995,1,0,1:2:0:0:
244,16,52157,5,10,0:0:0:0:
403,281,52319,1,2,1:2:0:0:
153,130,52481,6,0,P|104:109|50:114,1,97.1249970359803,14|0,1:2|0:0,0:0:0:0:
264,232,52806,1,8,0:0:0:0:
117,294,52968,1,0,1:2:0:0:
243,122,53130,5,0,0:0:0:0:
246,330,53292,1,0,1:2:0:0:
96,190,53454,1,8,0:0:0:0:
278,235,53617,1,0,1:2:0:0:
142,351,53779,6,0,P|151:310|173:275,1,64.7499980239869,14|0,1:2|0:0,0:0:0:0:
340,221,53995,2,0,P|310:232|278:235,1,64.7499980239869,14|0,1:2|0:0,0:0:0:0:
123,127,54211,2,0,P|148:148|167:175,1,64.7499980239869,14|0,1:2|0:0,0:0:0:0:
228,339,54427,6,0,B|120:368|146:283|43:305,1,194.249994071961,14|0,1:2|0:0,0:0:0:0:
190,255,54914,1,0,0:0:0:0:
10,104,55076,6,0,P|71:90|104:181,1,145.68749555397,6|0,1:2|0:0,0:0:0:0:
112,193,55400,2,0,B|205:170|171:236|289:207,1,145.68749555397,10|0,0:0|0:0,0:0:0:0:
288,236,55725,2,0,P|272:281|265:329,1,97.1249970359803,2|2,1:2|1:2,0:0:0:0:
349,104,56049,1,10,0:0:0:0:
349,104,56211,1,2,0:0:0:0:
392,268,56373,5,2,1:2:0:0:
492,151,56535,1,2,0:0:0:0:
451,342,56698,1,8,0:0:0:0:
307,211,56860,2,0,B|198:185|226:283|86:240,1,194.249994071961,2|0,1:2|1:2,0:0:0:0:
290,323,57346,1,8,0:0:0:0:
171,367,57508,1,0,0:0:0:0:
336,159,57671,6,0,P|356:225|358:273,1,97.1249970359803,6|0,1:2|0:0,0:0:0:0:
171,61,57995,2,0,P|151:127|149:175,1,97.1249970359803,10|0,0:0|0:0,0:0:0:0:
311,53,58319,1,2,1:2:0:0:
247,238,58481,1,0,1:2:0:0:
123,121,58644,2,0,P|75:103|18:103,1,97.1249970359803,10|0,0:0|0:0,0:0:0:0:
274,270,58968,6,0,P|322:267|367:250,1,97.1249970359803,2|0,1:2|0:0,0:0:0:0:
221,157,59292,1,10,0:0:0:0:
387,112,59454,2,0,P|341:94|293:92,1,97.1249970359803,2|0,1:2|0:0,0:0:0:0:
112,269,59779,1,0,1:2:0:0:
64,61,59941,1,8,0:0:0:0:
188,204,60103,1,8,0:0:0:0:
397,59,60265,6,0,B|385:168|457:122|447:249,2,194.249994071961,6|10|2,1:2|0:0|1:2,0:0:0:0:
310,218,61076,1,0,1:2:0:0:
222,68,61238,2,0,P|199:117|190:173,1,97.1249970359803,10|2,0:0|0:0,0:0:0:0:
109,352,61562,5,2,1:2:0:0:
48,143,61725,1,2,0:0:0:0:
173,280,61887,1,10,0:0:0:0:
377,131,62049,2,0,B|268:109|301:194|148:148,1,194.249994071961,2|0,1:2|1:2,0:0:0:0:
135,34,62535,2,0,P|178:37|223:70,1,97.1249970359803,8|2,0:0|0:0,0:0:0:0:
164,223,62860,6,0,P|153:159|143:111,1,97.1249970359803,6|0,1:2|0:0,0:0:0:0:
312,322,63184,2,0,P|319:274|329:226,1,97.1249970359803,10|0,0:0|0:0,0:0:0:0:
85,381,63508,2,0,P|77:333|67:285,1,97.1249970359803,2|0,1:2|1:2,0:0:0:0:
222,154,63833,1,10,0:0:0:0:
189,326,63995,1,2,0:0:0:0:
275,51,64157,5,2,1:2:0:0:
320,275,64319,1,0,1:2:0:0:
123,116,64481,1,10,0:0:0:0:
191,356,64644,1,0,1:2:0:0:
283,142,64806,1,10,0:0:0:0:
75,247,64968,1,0,1:2:0:0:
293,365,65130,1,10,0:0:0:0:
399,92,65454,6,0,P|326:87|246:62,1,157.250002999306,6|2,1:2|1:2,0:0:0:0:
133,121,65941,1,8,0:0:0:0:
243,200,66103,2,0,P|297:192|344:189,1,78.6250014996529,2|0,0:0|1:2,0:0:0:0:
145,89,66427,2,0,P|105:85|67:79,1,78.6250014996529,10|0,0:0|0:0,0:0:0:0:
44,210,66752,6,0,P|106:214|127:313,1,157.250002999306,2|8,1:2|0:0,0:0:0:0:
212,361,67238,2,0,B|309:391|281:319|394:354,1,157.250002999306,10|0,0:0|1:2,0:0:0:0:
498,232,67725,2,0,P|472:271|457:321,1,78.6250014996529,8|0,0:0|1:2,0:0:0:0:
307,93,68049,6,0,P|336:164|353:246,1,157.250002999306,4|2,1:2|1:2,0:0:0:0:
419,117,68535,1,8,0:0:0:0:
253,185,68698,2,0,P|236:239|229:278,1,78.6250014996529,2|0,0:0|1:2,0:0:0:0:
133,161,69022,2,0,P|116:107|109:68,1,78.6250014996529,10|0,0:0|0:0,0:0:0:0:
30,307,69346,6,0,P|56:254|155:272,1,157.250002999306,2|2,1:2|1:2,0:0:0:0:
267,316,69833,2,0,B|178:297|209:367|95:337,1,157.250002999306,10|0,0:0|1:2,0:0:0:0:
36,180,70319,6,0,L|42:218,1,39.3125007498264,8|0,0:0|0:0,0:0:0:0:
146,144,70481,2,0,L|157:78,1,39.3125007498264,8|8,0:0|0:0,0:0:0:0:
144,258,70644,5,14,1:2:0:0:
295,155,70806,1,0,0:0:0:0:
230,353,70968,2,0,P|225:299|213:251,1,78.6250014996529,10|0,0:0|0:0,0:0:0:0:
144,124,71292,2,0,P|136:162|133:201,1,78.6250014996529,2|0,0:0|1:2,0:0:0:0:
269,47,71617,1,10,0:0:0:0:
330,227,71779,1,8,0:0:0:0:
113,49,71941,5,14,1:2:0:0:
73,340,72103,1,14,1:2:0:0:
63,358,72589,5,14,1:2:0:0:
338,157,72751,1,14,1:2:0:0:
338,157,73076,6,0,B|229:125|262:212|143:168,1,194.249994071961,6|0,1:2|1:2,0:0:0:0:
298,247,73562,1,8,0:0:0:0:
112,295,73725,2,0,P|103:213|90:100,1,194.249994071961,2|0,0:0|1:2,0:0:0:0:
245,27,74211,2,0,P|201:58|188:109,1,97.1249970359803,10|0,0:0|0:0,0:0:0:0:
451,139,74535,6,0,B|337:164|385:78|247:109,1,194.249994071961,6|8,1:2|0:0,0:0:0:0:
283,288,75022,2,0,P|291:219|298:178,1,97.1249970359803,2|0,1:2|0:0,0:0:0:0:
142,46,75346,1,0,1:2:0:0:
142,46,75508,2,0,P|149:93|154:142,1,97.1249970359803,10|0,0:0|0:0,0:0:0:0:
68,348,75833,6,0,P|61:288|187:274,1,194.249994071961,2|8,1:2|0:0,0:0:0:0:
228,330,76319,2,0,B|342:370|307:264|448:316,1,194.249994071961,2|2,0:0|1:2,0:0:0:0:
302,150,76806,2,0,P|282:209|268:258,1,97.1249970359803,8|0,0:0|0:0,0:0:0:0:
105,46,77130,5,6,1:2:0:0:
228,100,77292,1,2,0:0:0:0:
71,153,77454,1,10,0:0:0:0:
201,19,77617,2,0,B|317:13|259:85|411:76,1,194.249994071961,2|0,1:2|1:2,0:0:0:0:
242,196,78103,2,0,P|231:119|223:73,1,97.1249970359803,8|0,0:0|0:0,0:0:0:0:
390,255,78427,6,0,B|283:221|317:319|190:279,1,194.249994071961,6|8,1:2|0:0,0:0:0:0:
48,178,78914,2,0,P|118:184|248:196,1,194.249994071961,2|2,0:0|1:2,0:0:0:0:
146,349,79400,2,0,P|123:288|132:245,1,97.1249970359803,10|0,0:0|0:0,0:0:0:0:
258,66,79725,6,0,P|313:62|376:59,2,97.1249970359803,6|0|8,1:2|0:0|0:0,0:0:0:0:
88,87,80211,2,0,B|211:76|148:166|291:155,1,194.249994071961,2|0,1:2|1:2,0:0:0:0:
130,266,80698,2,0,P|121:206|114:162,1,97.1249970359803,10|0,0:0|0:0,0:0:0:0:
298,48,81022,6,0,P|290:95|283:144,1,97.1249970359803,2|0,1:2|0:0,0:0:0:0:
360,331,81346,1,8,0:0:0:0:
398,174,81508,1,2,0:0:0:0:
271,349,81671,1,0,0:0:0:0:
245,158,81833,1,0,1:2:0:0:
399,372,81995,1,8,0:0:0:0:
452,159,82157,1,8,0:0:0:0:
70,328,82535,6,0,P|102:319|134:281,1,64.7499980239869,14|0,1:2|0:0,0:0:0:0:
131,145,82752,2,0,P|122:177|139:223,1,64.7499980239869,14|0,1:2|0:0,0:0:0:0:
246,279,82968,1,14,1:2:0:0:
169,73,83292,5,8,0:0:0:0:
157,280,83454,6,0,P|147:207|129:84,1,187.312494283676,4|0,1:2|0:0,0:0:0:0:
177,30,84265,6,0,L|193:32,10,10.4062496824265,0|0|0|0|0|0|0|0|0|0|0,1:2|0:0|0:0|0:0|0:0|0:0|0:0|0:0|1:2|0:0|0:0,0:0:0:0:
253,108,84752,5,8,0:0:0:0:
253,108,84833,1,8,0:0:0:0:
253,108,84914,2,0,L|299:104,1,25.4375007762909,12|0,1:2|0:0,0:0:0:0:
81,223,85400,6,0,L|35:219,1,25.4375007762909,12|0,1:2|0:0,0:0:0:0:
268,347,85887,6,0,L|314:343,1,25.4375007762909,12|0,1:2|0:0,0:0:0:0:
365,285,86049,6,0,P|371:213|379:98,1,178.062505434036,0|0,1:2|0:0,0:0:0:0:
379,68,86698,2,8,L|381:38,3,16.9583338508606
