osu file format v14

[General]
AudioFilename: audio.mp3
AudioLeadIn: 0
PreviewTime: 55035
Countdown: 0
SampleSet: Soft
StackLeniency: 0.7
Mode: 3
LetterboxInBreaks: 0
SpecialStyle: 0
WidescreenStoryboard: 1

[Editor]
DistanceSpacing: 1.3
BeatDivisor: 4
GridSize: 16
TimelineZoom: 2.05

[Metadata]
Title:Tsuki no Ookisa (TV Size)
TitleUnicode:月の大きさ (TV Size)
Artist:Nogizaka46
ArtistUnicode:乃木坂46
Creator:Raisky757
Version:Normal
Source:NARUTO-ナルト-疾風伝
Tags:op 14 opening fourteen 7th single naruto shippuden pop jpop j-pop japanese idol group female vocal Size of the Moon Baretta Barette Weekly Shonen Jump 50th Anniversary BEST ANIME MIX vol.3 SUPER SOUNDS Akimoto Yasushi 秋元康 Furukawa Takahiro 古川貴浩 Sony Music Records Inc. Aniplex Distribution Japan Marketing SRCL-8427~8 SRCL-8423~4 SVWC-70019~20 ESCL-5082
BeatmapID:4135331
BeatmapSetID:1990517

[Difficulty]
HPDrainRate:7
CircleSize:4
OverallDifficulty:7
ApproachRate:5
SliderMultiplier:1.4
SliderTickRate:1

[Events]
//Background and Video events
0,0,"bg.jpg",0,0
//Break Periods
//Storyboard Layer 0 (Background)
//Storyboard Layer 1 (Fail)
//Storyboard Layer 2 (Pass)
//Storyboard Layer 3 (Foreground)
//Storyboard Layer 4 (Overlay)
//Storyboard Sound Samples
Sample,5617,0,"Hat Open.wav",50
Sample,9887,0,"Tom3.wav",60
Sample,10103,0,"Tom3.wav",60
Sample,10644,0,"Tom1.wav",60
Sample,20860,0,"Hat Open.wav",50
Sample,24752,0,"Hat Open.wav",50
Sample,38698,0,"Hat Open.wav",50
Sample,39022,0,"Hat Open.wav",50
Sample,45184,0,"Hat Open.wav",50
Sample,82535,0,"Tom3.wav",60
Sample,82752,0,"Tom3.wav",60
Sample,86860,0,"Tom3.wav",60

[TimingPoints]
590,324.324324324324,4,2,1,60,1,0
55076,-100.0,4,2,1,60,0,1
71941,-100.0,4,2,1,60,0,0

[HitObjects]
64,192,590,1,8,0:0:0:0:
448,192,590,1,2,0:0:0:0:
320,192,752,1,10,0:0:0:0:
192,192,1076,128,0,1400:0:0:0:0:
320,192,1400,1,0,0:0:0:0:
64,192,1562,128,0,1887:0:0:0:0:
320,192,1887,1,8,0:0:0:0:
448,192,1887,1,2,0:0:0:0:
192,192,2049,1,10,0:0:0:0:
320,192,2373,128,0,2698:0:0:0:0:
64,192,2698,1,0,0:0:0:0:
192,192,2860,1,0,0:0:0:0:
320,192,3022,1,0,0:0:0:0:
64,192,3184,1,8,0:0:0:0:
192,192,3184,1,2,0:0:0:0:
448,192,3346,1,10,0:0:0:0:
320,192,3671,128,0,4157:0:0:0:0:
64,192,4157,128,0,4481:0:0:0:0:
320,192,4481,1,2,0:0:0:0:
448,192,4481,1,4,0:0:0:0:
192,192,4644,1,2,0:0:0:0:
64,192,4806,1,8,0:0:0:0:
320,192,4968,1,2,0:0:0:0:
448,192,4968,128,4,5292:0:0:0:0:
64,192,5292,1,2,0:0:0:0:
192,192,5292,1,0,0:0:0:50:Hat Open.wav
320,192,5454,1,8,0:0:0:0:
64,192,5617,1,2,0:0:0:0:
448,192,5779,128,2,6103:0:0:0:0:
64,192,6103,128,8,6589:0:0:0:0:
192,192,6103,1,0,0:0:0:0:
448,192,6589,1,2,0:0:0:0:
64,192,6752,1,8,0:0:0:0:
192,192,6752,1,0,0:0:0:0:
64,192,7076,1,2,0:0:0:0:
448,192,7076,1,0,0:0:0:0:
320,192,7400,1,8,0:0:0:0:
64,192,7562,128,2,7887:0:0:0:0:
192,192,7562,1,0,0:0:0:0:
448,192,7887,1,2,0:0:0:0:
64,192,8049,1,8,0:0:0:0:
192,192,8049,1,0,0:0:0:0:
64,192,8373,1,2,0:0:0:0:
448,192,8373,1,0,0:0:0:0:
320,192,8698,1,8,0:0:0:0:
448,192,8698,1,0,0:0:0:0:
192,192,9022,1,0,0:0:0:0:
320,192,9184,128,2,9346:0:0:0:0:
64,192,9346,1,8,0:0:0:0:
192,192,9346,128,0,9508:0:0:0:0:
448,192,9508,128,0,9671:0:0:0:50:Hat Open.wav
64,192,9671,1,2,0:0:0:0:
320,192,9887,1,8,0:0:0:0:
192,192,10103,1,8,0:0:0:0:
320,192,10319,1,8,0:0:0:0:
448,192,10319,128,4,10644:0:0:0:0:
192,192,10644,1,2,0:0:0:0:
320,192,10806,1,0,0:0:0:60:Tom2.wav
64,192,10968,128,2,11292:0:0:0:0:
192,192,10968,1,4,0:0:0:0:
448,192,11292,1,8,0:0:0:0:
192,192,11454,128,0,11779:0:0:0:0:
320,192,11779,128,2,12103:0:0:0:0:
64,192,12103,128,8,12427:0:0:0:0:
192,192,12103,1,0,0:0:0:50:Hat Open.wav
448,192,12427,1,2,0:0:0:0:
192,192,12589,1,8,0:0:0:0:
320,192,12589,128,0,12914:0:0:0:0:
64,192,12914,1,0,0:0:0:0:
448,192,13076,1,2,0:0:0:0:
64,192,13238,1,8,0:0:0:0:
192,192,13238,128,0,13562:0:0:0:0:
320,192,13562,128,2,13887:0:0:0:0:
64,192,13887,1,8,0:0:0:0:
448,192,14049,128,0,14373:0:0:0:0:
64,192,14373,128,2,14698:0:0:0:0:
192,192,14373,1,0,0:0:0:50:Hat Open.wav
320,192,14698,128,8,15022:0:0:0:0:
448,192,14698,1,0,0:0:0:50:Hat Open.wav
192,192,15022,1,2,0:0:0:0:
320,192,15184,1,8,0:0:0:0:
448,192,15184,128,0,15508:0:0:0:0:
64,192,15508,1,2,0:0:0:0:
192,192,15671,1,2,0:0:0:0:
320,192,15833,1,8,0:0:0:0:
448,192,15833,1,0,0:0:0:50:Hat Open.wav
64,192,16157,128,2,16481:0:0:0:0:
192,192,16157,1,0,0:0:0:0:
320,192,16481,1,8,0:0:0:0:
448,192,16481,1,0,0:0:0:0:
192,192,16806,1,0,0:0:0:0:
64,192,16968,1,2,0:0:0:0:
448,192,16968,1,0,0:0:0:0:
320,192,17130,1,0,0:0:0:0:
64,192,17292,128,8,17617:0:0:0:0:
192,192,17292,1,0,0:0:0:50:Hat Open.wav
320,192,17617,1,2,0:0:0:0:
64,192,17779,1,8,0:0:0:0:
448,192,17779,1,0,0:0:0:0:
320,192,18103,1,0,0:0:0:0:
192,192,18265,1,2,0:0:0:0:
320,192,18427,1,8,0:0:0:0:
448,192,18427,128,0,18752:0:0:0:0:
64,192,18752,1,2,0:0:0:0:
320,192,19076,1,8,0:0:0:0:
448,192,19076,1,0,0:0:0:0:
192,192,19238,128,0,19562:0:0:0:0:
320,192,19562,1,2,0:0:0:0:
64,192,19725,1,8,0:0:0:0:
448,192,19725,1,0,0:0:0:0:
192,192,20049,1,2,0:0:0:0:
320,192,20049,1,0,0:0:0:0:
64,192,20211,1,0,0:0:0:0:
320,192,20373,1,8,0:0:0:0:
448,192,20373,1,0,0:0:0:0:
64,192,20535,128,0,20860:0:0:0:0:
320,192,20860,1,2,0:0:0:0:
64,192,21022,1,8,0:0:0:0:
448,192,21022,1,0,0:0:0:0:
192,192,21184,1,8,0:0:0:0:
320,192,21346,1,2,0:0:0:0:
448,192,21346,128,0,21671:0:0:0:0:
64,192,21671,1,8,0:0:0:0:
192,192,21671,1,0,0:0:0:0:
320,192,21833,128,0,22157:0:0:0:0:
64,192,22157,128,2,22481:0:0:0:0:
320,192,22481,1,8,0:0:0:0:
448,192,22481,128,0,22806:0:0:0:50:Hat Open.wav
64,192,22806,1,2,0:0:0:0:
192,192,22968,128,8,23292:0:0:0:0:
320,192,22968,1,0,0:0:0:0:
448,192,23292,1,0,0:0:0:0:
64,192,23454,1,2,0:0:0:0:
320,192,23617,128,8,23941:0:0:0:0:
448,192,23617,1,0,0:0:0:0:
192,192,23941,128,2,24265:0:0:0:0:
320,192,24265,1,8,0:0:0:0:
448,192,24265,1,0,0:0:0:0:
64,192,24427,128,0,24752:0:0:0:0:
448,192,24752,128,2,25076:0:0:0:0:
64,192,25076,1,8,0:0:0:0:
192,192,25076,128,0,25400:0:0:0:50:Hat Open.wav
320,192,25400,1,2,0:0:0:0:
64,192,25562,128,8,25887:0:0:0:0:
192,192,25562,1,0,0:0:0:0:
448,192,25887,1,2,0:0:0:0:
320,192,26049,1,2,0:0:0:0:
64,192,26211,1,8,0:0:0:0:
192,192,26211,1,0,0:0:0:50:Hat Open.wav
320,192,26535,1,2,0:0:0:0:
448,192,26535,128,0,26860:0:0:0:0:
64,192,26860,1,8,0:0:0:0:
192,192,26860,1,0,0:0:0:0:
320,192,27022,1,0,0:0:0:0:
64,192,27346,1,2,0:0:0:0:
192,192,27508,1,8,0:0:0:0:
320,192,27833,1,2,0:0:0:0:
192,192,27995,1,0,0:0:0:0:
64,192,28157,1,8,0:0:0:0:
448,192,28157,1,0,0:0:0:0:
192,192,28481,1,0,0:0:0:0:
320,192,28644,1,2,0:0:0:0:
64,192,28806,1,8,0:0:0:0:
192,192,28806,1,0,0:0:0:0:
320,192,28968,1,0,0:0:0:0:
448,192,29130,1,2,0:0:0:0:
64,192,29454,1,8,0:0:0:0:
192,192,29454,1,0,0:0:0:0:
320,192,29617,128,0,29941:0:0:0:0:
192,192,29941,1,2,0:0:0:0:
64,192,30103,1,8,0:0:0:0:
448,192,30103,1,0,0:0:0:0:
320,192,30427,1,2,0:0:0:0:
192,192,30589,1,0,0:0:0:0:
64,192,30752,1,8,0:0:0:0:
448,192,30752,1,0,0:0:0:0:
320,192,30914,1,2,0:0:0:0:
64,192,31076,128,8,31400:0:0:0:0:
192,192,31076,1,0,0:0:0:0:
320,192,31400,1,0,0:0:0:60:Tom2.wav
192,192,31562,1,0,0:0:0:60:Tom3.wav
64,192,31725,1,2,0:0:0:0:
448,192,31725,128,4,32049:0:0:0:0:
320,192,32049,1,8,0:0:0:0:
64,192,32211,128,2,32535:0:0:0:0:
192,192,32211,1,4,0:0:0:0:
320,192,32535,1,2,0:0:0:0:
64,192,32698,1,4,0:0:0:0:
192,192,32698,128,8,33184:0:0:0:0:
448,192,33184,1,2,0:0:0:0:
64,192,33346,1,8,0:0:0:0:
320,192,33346,128,0,33671:0:0:0:0:
192,192,33671,1,0,0:0:0:0:
320,192,33833,1,2,0:0:0:0:
64,192,33995,1,8,0:0:0:0:
448,192,33995,1,0,0:0:0:0:
64,192,34319,128,2,34644:0:0:0:0:
448,192,34319,1,4,0:0:0:0:
192,192,34644,1,8,0:0:0:0:
320,192,34806,1,2,0:0:0:0:
448,192,34806,128,0,35130:0:0:0:50:Hat Open.wav
192,192,35130,1,2,0:0:0:0:
320,192,35292,128,4,35779:0:0:0:0:
448,192,35292,1,8,0:0:0:0:
64,192,35779,1,2,0:0:0:0:
192,192,35941,128,8,36265:0:0:0:0:
448,192,35941,1,0,0:0:0:0:
320,192,36265,1,2,0:0:0:0:
192,192,36427,1,2,0:0:0:0:
64,192,36589,1,8,0:0:0:0:
448,192,36589,1,0,0:0:0:0:
192,192,36914,128,2,37238:0:0:0:0:
448,192,37238,1,8,0:0:0:0:
64,192,37400,128,0,37725:0:0:0:0:
320,192,37725,1,2,0:0:0:0:
64,192,37887,1,8,0:0:0:0:
192,192,37887,128,0,38211:0:0:0:0:
448,192,38211,128,2,38535:0:0:0:0:
64,192,38535,1,8,0:0:0:0:
192,192,38535,1,0,0:0:0:0:
320,192,38698,128,2,39022:0:0:0:0:
448,192,39022,1,2,0:0:0:0:
64,192,39184,1,8,0:0:0:0:
192,192,39184,128,0,39508:0:0:0:0:
320,192,39508,128,2,39833:0:0:0:0:
64,192,39833,1,8,0:0:0:0:
192,192,39833,1,0,0:0:0:0:
448,192,39995,128,0,40319:0:0:0:0:
64,192,40319,1,2,0:0:0:0:
320,192,40481,1,8,0:0:0:0:
448,192,40481,1,0,0:0:0:0:
192,192,40806,1,2,0:0:0:0:
64,192,41130,1,8,0:0:0:0:
448,192,41130,1,0,0:0:0:0:
320,192,41292,1,2,0:0:0:0:
64,192,41454,1,8,0:0:0:0:
192,192,41454,1,0,0:0:0:0:
320,192,41617,1,2,0:0:0:0:
64,192,41779,1,8,0:0:0:0:
448,192,41779,128,4,42103:0:0:0:0:
64,192,42103,128,2,42427:0:0:0:0:
192,192,42103,1,4,0:0:0:0:
320,192,42427,1,8,0:0:0:0:
448,192,42427,1,0,0:0:0:0:
192,192,42589,128,6,42914:0:0:0:0:
448,192,42914,1,2,0:0:0:0:
64,192,43076,128,4,43400:0:0:0:0:
192,192,43076,1,8,0:0:0:0:
320,192,43400,1,0,0:0:0:0:
192,192,43562,1,2,0:0:0:0:
320,192,43725,1,8,0:0:0:0:
448,192,43725,128,0,44049:0:0:0:0:
64,192,44049,1,0,0:0:0:0:
320,192,44211,1,2,0:0:0:0:
64,192,44373,1,8,0:0:0:0:
192,192,44373,128,0,44698:0:0:0:0:
320,192,44698,1,2,0:0:0:0:
448,192,44698,128,4,45022:0:0:0:0:
64,192,45022,1,8,0:0:0:0:
320,192,45184,128,2,45508:0:0:0:0:
64,192,45508,1,2,0:0:0:0:
192,192,45671,128,4,45995:0:0:0:0:
448,192,45671,1,8,0:0:0:0:
64,192,45995,1,0,0:0:0:0:
320,192,46157,1,2,0:0:0:0:
64,192,46319,128,8,46644:0:0:0:0:
192,192,46319,1,0,0:0:0:0:
448,192,46644,1,2,0:0:0:0:
320,192,46806,1,8,0:0:0:0:
192,192,46968,1,0,0:0:0:60:Tom1.wav
64,192,47130,1,0,0:0:0:60:Tom2.wav
320,192,47292,1,2,0:0:0:0:
448,192,47292,128,0,47779:0:0:0:50:Hat Open.wav
64,192,47779,128,2,48265:0:0:0:0:
192,192,47779,1,0,0:0:0:50:Hat Open.wav
320,192,48265,128,2,48589:0:0:0:0:
64,192,48589,1,2,0:0:0:0:
192,192,48589,128,0,49076:0:0:0:50:Hat Open.wav
320,192,49076,1,2,0:0:0:0:
448,192,49076,128,0,49562:0:0:0:50:Hat Open.wav
64,192,49562,128,2,49887:0:0:0:0:
192,192,49562,1,0,0:0:0:50:Hat Open.wav
320,192,49887,1,2,0:0:0:0:
448,192,49887,1,4,0:0:0:0:
64,192,50211,1,8,0:0:0:0:
192,192,50211,1,0,0:0:0:50:Hat Open.wav
64,192,50535,1,8,0:0:0:0:
448,192,50535,1,0,0:0:0:50:Hat Open.wav
320,192,50698,1,2,0:0:0:0:
64,192,50860,1,8,0:0:0:0:
192,192,50860,1,0,0:0:0:50:Hat Open.wav
64,192,51184,1,8,0:0:0:0:
320,192,51184,1,0,0:0:0:50:Hat Open.wav
192,192,51508,1,8,0:0:0:0:
320,192,51508,1,0,0:0:0:50:Hat Open.wav
64,192,51833,1,8,0:0:0:0:
448,192,51833,1,0,0:0:0:50:Hat Open.wav
192,192,51995,1,2,0:0:0:0:
320,192,52157,128,8,52481:0:0:0:0:
448,192,52157,1,0,0:0:0:50:Hat Open.wav
64,192,52481,1,2,0:0:0:0:
192,192,52481,1,4,0:0:0:0:
64,192,52806,1,8,0:0:0:0:
448,192,52806,1,0,0:0:0:0:
320,192,52968,1,0,0:0:0:60:Tom1.wav
192,192,53292,1,2,0:0:0:0:
320,192,53454,1,8,0:0:0:0:
448,192,53454,1,0,0:0:0:0:
64,192,53779,1,8,0:0:0:0:
448,192,53779,1,4,0:0:0:0:
192,192,53995,1,8,0:0:0:0:
320,192,54211,1,8,0:0:0:0:
64,192,54427,1,8,0:0:0:0:
192,192,54427,128,0,54752:0:0:0:50:Hat Open.wav
320,192,54752,1,8,0:0:0:0:
192,192,54914,1,8,0:0:0:0:
64,192,55076,1,2,0:0:0:0:
448,192,55076,128,4,55400:0:0:0:0:
64,192,55400,128,8,55725:0:0:0:0:
192,192,55400,1,0,0:0:0:0:
320,192,55725,1,2,0:0:0:0:
192,192,55887,1,2,0:0:0:0:
64,192,56049,1,8,0:0:0:0:
448,192,56049,1,0,0:0:0:0:
192,192,56373,1,2,0:0:0:0:
320,192,56373,128,0,56698:0:0:0:0:
64,192,56698,1,8,0:0:0:0:
448,192,56698,1,0,0:0:0:0:
192,192,56860,1,2,0:0:0:0:
320,192,57184,1,2,0:0:0:0:
64,192,57346,1,8,0:0:0:0:
192,192,57346,1,0,0:0:0:0:
320,192,57508,1,0,0:0:0:0:
64,192,57671,128,2,57995:0:0:0:0:
448,192,57671,1,0,0:0:0:0:
320,192,57995,1,8,0:0:0:0:
448,192,57995,128,0,58319:0:0:0:0:
192,192,58319,1,2,0:0:0:0:
320,192,58481,1,2,0:0:0:0:
64,192,58644,1,8,0:0:0:0:
448,192,58644,1,0,0:0:0:0:
320,192,58968,1,2,0:0:0:0:
448,192,58968,128,0,59292:0:0:0:0:
64,192,59292,1,8,0:0:0:0:
192,192,59292,1,0,0:0:0:0:
320,192,59454,128,2,59779:0:0:0:0:
64,192,59779,1,2,0:0:0:0:
320,192,59941,1,8,0:0:0:0:
448,192,59941,1,0,0:0:0:0:
192,192,60103,1,8,0:0:0:0:
64,192,60265,128,2,60589:0:0:0:0:
448,192,60265,1,4,0:0:0:0:
320,192,60589,1,8,0:0:0:0:
448,192,60589,128,0,60914:0:0:0:0:
64,192,60914,1,2,0:0:0:0:
192,192,61076,1,2,0:0:0:0:
320,192,61238,1,8,0:0:0:0:
448,192,61238,1,0,0:0:0:0:
64,192,61562,1,2,0:0:0:0:
192,192,61562,1,0,0:0:0:0:
64,192,61887,1,8,0:0:0:0:
448,192,61887,1,0,0:0:0:0:
320,192,62049,1,2,0:0:0:0:
64,192,62373,1,2,0:0:0:0:
320,192,62535,1,8,0:0:0:0:
448,192,62535,1,0,0:0:0:0:
192,192,62698,1,0,0:0:0:0:
64,192,62860,128,2,63184:0:0:0:0:
448,192,62860,1,0,0:0:0:0:
320,192,63184,1,8,0:0:0:0:
448,192,63184,128,0,63508:0:0:0:0:
192,192,63508,1,2,0:0:0:0:
320,192,63671,1,2,0:0:0:0:
64,192,63833,1,8,0:0:0:0:
448,192,63833,1,0,0:0:0:0:
320,192,64157,1,2,0:0:0:0:
192,192,64319,1,2,0:0:0:0:
64,192,64481,1,8,0:0:0:0:
448,192,64481,1,4,0:0:0:0:
320,192,64644,1,2,0:0:0:0:
64,192,64806,1,8,0:0:0:0:
192,192,64806,1,4,0:0:0:0:
320,192,64968,1,2,0:0:0:0:
64,192,65130,1,8,0:0:0:0:
448,192,65130,128,4,65454:0:0:0:0:
64,192,65454,1,2,0:0:0:0:
192,192,65454,128,4,65779:0:0:0:0:
320,192,65779,1,2,0:0:0:0:
64,192,65941,128,8,66265:0:0:0:0:
192,192,65941,1,0,0:0:0:0:
320,192,66265,1,2,0:0:0:0:
64,192,66427,1,8,0:0:0:0:
448,192,66427,128,0,66752:0:0:0:0:
320,192,66752,1,2,0:0:0:0:
64,192,66914,1,2,0:0:0:0:
320,192,67076,1,8,0:0:0:0:
448,192,67076,1,0,0:0:0:0:
192,192,67238,1,2,0:0:0:0:
320,192,67562,1,2,0:0:0:0:
64,192,67725,1,8,0:0:0:0:
448,192,67725,128,0,68049:0:0:0:0:
64,192,68049,128,2,68373:0:0:0:0:
192,192,68049,1,4,0:0:0:0:
320,192,68373,1,2,0:0:0:0:
64,192,68535,1,8,0:0:0:0:
192,192,68535,1,0,0:0:0:0:
64,192,68860,1,2,0:0:0:0:
448,192,68860,1,0,0:0:0:0:
192,192,69022,1,8,0:0:0:0:
320,192,69346,1,2,0:0:0:0:
448,192,69346,128,0,69671:0:0:0:0:
192,192,69671,1,2,0:0:0:0:
64,192,69833,128,8,70157:0:0:0:0:
448,192,69833,1,0,0:0:0:0:
320,192,70157,1,2,0:0:0:0:
64,192,70319,1,8,0:0:0:0:
192,192,70319,1,0,0:0:0:0:
320,192,70481,128,8,70644:0:0:0:0:
64,192,70644,128,2,70968:0:0:0:0:
448,192,70644,1,4,0:0:0:0:
320,192,70968,1,8,0:0:0:0:
448,192,70968,128,0,71292:0:0:0:0:
192,192,71292,128,0,71617:0:0:0:0:
320,192,71617,128,8,71941:0:0:0:0:
448,192,71617,1,0,0:0:0:0:
64,192,71941,1,2,0:0:0:0:
192,192,71941,1,0,0:0:0:50:Hat Open.wav
64,192,72103,128,2,72265:0:0:0:0:
192,192,72103,128,0,72265:0:0:0:50:Hat Open.wav
320,192,72589,1,2,0:0:0:0:
448,192,72589,1,0,0:0:0:50:Hat Open.wav
320,192,72752,128,2,72914:0:0:0:0:
448,192,72752,128,0,72914:0:0:0:50:Hat Open.wav
64,192,73076,128,2,73400:0:0:0:0:
192,192,73076,1,4,0:0:0:0:
448,192,73400,1,2,0:0:0:0:
192,192,73562,1,8,0:0:0:0:
320,192,73562,128,0,73887:0:0:0:0:
64,192,73887,1,0,0:0:0:0:
320,192,74049,1,2,0:0:0:0:
64,192,74211,1,8,0:0:0:0:
192,192,74211,128,0,74535:0:0:0:0:
448,192,74535,128,2,74860:0:0:0:0:
64,192,74860,1,8,0:0:0:0:
192,192,74860,1,0,0:0:0:0:
320,192,75022,128,2,75346:0:0:0:0:
448,192,75346,1,2,0:0:0:0:
64,192,75508,1,8,0:0:0:0:
192,192,75508,128,0,75833:0:0:0:0:
448,192,75833,128,2,76157:0:0:0:0:
64,192,76157,1,8,0:0:0:0:
192,192,76157,1,0,0:0:0:0:
320,192,76319,128,0,76644:0:0:0:0:
64,192,76644,1,2,0:0:0:0:
320,192,76806,1,8,0:0:0:0:
448,192,76806,128,0,77130:0:0:0:0:
192,192,77130,1,2,0:0:0:0:
320,192,77292,1,2,0:0:0:0:
64,192,77454,1,8,0:0:0:0:
448,192,77454,1,0,0:0:0:0:
64,192,77617,128,2,77941:0:0:0:0:
192,192,77617,1,4,0:0:0:0:
320,192,77941,1,2,0:0:0:0:
64,192,78103,1,8,0:0:0:0:
192,192,78103,128,0,78427:0:0:0:0:
320,192,78427,1,2,0:0:0:0:
448,192,78427,128,4,78752:0:0:0:0:
64,192,78752,128,8,79076:0:0:0:0:
192,192,78752,1,0,0:0:0:0:
320,192,79076,1,0,0:0:0:0:
192,192,79238,1,2,0:0:0:0:
320,192,79400,128,8,79725:0:0:0:0:
448,192,79400,1,0,0:0:0:0:
192,192,79725,1,2,0:0:0:0:
320,192,79887,1,0,0:0:0:0:
64,192,80049,1,8,0:0:0:0:
448,192,80049,1,0,0:0:0:0:
192,192,80211,128,2,80535:0:0:0:0:
320,192,80535,1,2,0:0:0:0:
64,192,80698,1,8,0:0:0:0:
448,192,80698,1,0,0:0:0:0:
192,192,81022,1,2,0:0:0:0:
320,192,81346,1,8,0:0:0:0:
448,192,81346,1,0,0:0:0:0:
64,192,81671,1,0,0:0:0:0:
192,192,81833,128,2,81995:0:0:0:0:
320,192,81995,128,8,82157:0:0:0:0:
448,192,81995,1,0,0:0:0:0:
64,192,82157,128,0,82319:0:0:0:50:Hat Open.wav
448,192,82319,1,2,0:0:0:0:
320,192,82535,1,8,0:0:0:0:
192,192,82752,1,8,0:0:0:0:
320,192,82968,1,8,0:0:0:0:
448,192,82968,128,0,83292:0:0:0:60:Tom3.wav
64,192,83292,1,2,0:0:0:0:
320,192,83454,128,2,83941:0:0:0:0:
448,192,83454,1,4,0:0:0:0:
64,192,83941,128,2,84265:0:0:0:0:
448,192,84265,1,2,0:0:0:0:
320,192,84427,1,0,0:0:0:0:
192,192,84589,1,2,0:0:0:0:
64,192,84752,1,8,0:0:0:0:
320,192,84914,128,2,85400:0:0:0:0:
448,192,84914,1,4,0:0:0:0:
64,192,85400,1,2,0:0:0:0:
192,192,85400,128,4,85887:0:0:0:0:
320,192,85887,1,2,0:0:0:0:
64,192,86049,1,2,0:0:0:0:
448,192,86049,128,4,86698:0:0:0:0:
64,192,86698,1,0,0:0:0:60:Tom1.wav
192,192,86779,1,0,0:0:0:0:
320,192,86860,1,2,0:0:0:0:
