osu file format v14

[General]
AudioFilename: audio.mp3
AudioLeadIn: 0
PreviewTime: 22685
Countdown: 1
SampleSet: Normal
StackLeniency: 0.7
Mode: 0
LetterboxInBreaks: 0
WidescreenStoryboard: 1

[Editor]
DistanceSpacing: 1
BeatDivisor: 8
GridSize: 4
TimelineZoom: 1.4

[Metadata]
Title:Mouse Dance
TitleUnicode:「マウスダンス」
Artist:Nogizaka46
ArtistUnicode:乃木坂46
Creator:Bananafish1
Version:Normal
Source:
Tags:mouse, pc, computer, nogizaka46, idol, idol group, japanese, dank
BeatmapID:1246791
BeatmapSetID:588926

[Difficulty]
HPDrainRate:4
CircleSize:3
OverallDifficulty:4
ApproachRate:5
SliderMultiplier:1.4
SliderTickRate:1

[Events]
//Background and Video events
0,0,"zahVggU.jpg",0,0
//Break Periods
//Storyboard Layer 0 (Background)
//Storyboard Layer 1 (Fail)
//Storyboard Layer 2 (Pass)
//Storyboard Layer 3 (Foreground)
//Storyboard Sound Samples

[TimingPoints]
54,530.973451327434,4,3,0,80,1,0
22685,-50,4,1,0,80,0,0
23216,-100,4,1,0,80,0,0

[Colours]
Combo1 : 255,128,0
Combo2 : 255,0,0
Combo3 : 255,255,0

[HitObjects]
380,176,1115,6,0,P|352:200|328:208,1,35
252,224,1646,2,0,P|224:256|224:284,1,70
292,280,2177,2,4,P|296:328|280:328,2,70
300,212,2973,1,0,0:0:0:0:
328,148,3239,1,0,0:0:0:0:
256,152,3504,2,0,P|208:160|192:204,1,70
56,168,4301,6,2,P|16:220|28:236,1,70
52,272,4832,2,0,P|92:260|100:224,1,70,0|2,0:0|0:0,0:0:0:0:
152,188,5362,1,0,0:0:0:0:
152,188,5628,1,0,0:0:0:0:
212,148,5894,2,0,P|240:120|292:128,1,70,0|2,0:0|0:0,0:0:0:0:
276,196,6426,6,0,L|276:296,1,70,0|2,0:0|0:0,0:0:0:0:
344,276,6957,2,0,L|424:276,1,70,0|2,0:0|0:0,0:0:0:0:
440,212,7488,2,0,L|444:120,1,70
380,104,8017,1,0,0:0:0:0:
380,104,8283,1,0,0:0:0:0:
312,124,8549,6,0,L|332:200,1,70,0|2,0:0|0:0,0:0:0:0:
396,220,9081,2,0,L|448:164,1,70,0|2,0:0|0:0,0:0:0:0:
464,132,9611,1,0,0:0:0:0:
428,60,9810,2,0,P|408:44|312:52,1,122.5
300,120,10672,6,0,P|332:156|348:176,1,70,0|2,0:0|0:0,0:0:0:0:
408,220,11203,2,0,P|360:248|328:244,1,70,0|2,0:0|0:0,0:0:0:0:
248,280,11734,1,0,0:0:0:0:
172,232,11934,2,0,L|144:208,1,35
120,108,12266,1,0,0:0:0:0:
120,108,12465,1,0,0:0:0:0:
184,44,12664,2,0,B|296:13|352:89|336:161|268:217,1,280
412,288,14389,6,0,L|344:224,1,70,0|2,0:0|0:0,0:0:0:0:
272,256,14920,2,0,P|312:304|312:336,1,70,0|2,0:0|0:0,0:0:0:0:
228,316,15451,1,0,0:0:0:0:
136,316,15716,1,4,0:0:0:0:
180,244,15983,2,0,L|128:192,1,70
56,136,16513,6,0,P|60:84|84:64,1,70
148,96,17044,2,0,P|136:144|116:176,1,70
100,232,17575,1,0,0:0:0:0:
188,208,17840,1,0,0:0:0:0:
168,284,18107,2,0,L|232:332,1,70
352,328,18637,6,0,P|396:344|428:312,1,70,0|2,0:0|0:0,0:0:0:0:
448,256,19168,2,0,P|408:260|380:212,1,70,0|2,0:0|0:0,0:0:0:0:
340,168,19699,1,4,0:0:0:0:
236,160,19964,1,0,0:0:0:0:
288,240,20230,2,0,L|224:276,1,70
144,256,20761,5,0,0:0:0:0:
104,192,21026,1,0,0:0:0:0:
100,116,21292,1,0,0:0:0:0:
172,80,21557,1,0,0:0:0:0:
224,152,21823,2,0,B|196:208|228:232|224:256,1,105
252,280,22288,2,0,L|280:288,1,17.5
416,172,23416,5,0,0:0:0:0:
296,212,23681,2,0,P|328:192|324:156,1,70,0|4,0:0|0:0,0:0:0:0:
308,96,24212,2,0,P|256:108|240:128,1,70
172,108,24744,2,0,P|136:72|96:68,1,70
36,96,25540,6,0,L|64:176,1,70
116,240,26072,2,0,L|176:176,1,70
196,116,26601,1,0,0:0:0:0:
252,68,26867,1,0,0:0:0:0:
272,148,27134,2,0,L|272:232,1,70
176,252,27665,6,0,L|88:208,1,70
56,140,28196,2,0,L|112:64,1,70
168,112,28725,1,0,0:0:0:0:
216,164,28991,1,0,0:0:0:0:
264,212,29258,2,0,P|312:237|356:224,1,70,0|2,0:0|0:0,0:0:0:0:
359,157,29788,6,0,L|387:81,1,70
456,88,30318,1,0,0:0:0:0:
384,92,30584,1,0,0:0:0:0:
428,164,30850,2,0,L|408:308,2,140
316,160,32177,5,0,0:0:0:0:
232,244,32442,2,0,L|152:280,1,70
100,252,32973,2,0,L|40:192,1,70
68,136,33504,2,0,P|116:88|156:96,1,105
180,108,34035,5,2,0:0:0:0:
204,196,34301,1,0,0:0:0:0:
268,224,34566,2,0,L|336:268,1,70
376,212,35097,2,0,L|416:168,3,35
480,32,36159,6,0,P|460:60|411:99,1,70
376,120,36690,2,0,P|344:136|299:175,1,70
248,164,37222,2,0,L|80:132,1,140
88,296,38284,2,0,P|132:280|224:212,1,140
304,192,39346,2,0,B|308:280|308:280|376:264,1,140
464,200,40407,6,0,P|456:140|440:128,1,70
380,136,40938,2,0,P|336:84|332:60,1,70,0|2,0:0|0:0,0:0:0:0:
268,80,41469,2,0,B|172:96|172:96|212:148,1,140
291,242,42531,6,0,P|280:210|248:204,1,70,0|2,0:0|0:0,0:0:0:0:
224,328,43062,2,0,P|213:295|183:279,1,70,0|2,0:0|0:0,0:0:0:0:
176,208,43593,2,0,L|184:68,1,140,0|2,0:0|0:0,0:0:0:0:
296,84,44389,1,0,0:0:0:0:
404,104,44655,6,0,P|360:168|272:176,1,140,0|2,0:0|0:0,0:0:0:0:
176,136,45451,1,0,0:0:0:0:
60,92,45717,2,0,P|60:176|96:248,1,140
256,192,46513,12,0,48106,0:0:0:0:
256,192,48373,6,0,P|256:220|160:300,1,140,0|2,0:0|0:0,0:0:0:0:
96,192,49433,1,0,0:0:0:0:
232,160,49966,2,0,B|204:140|204:140|212:24,1,140,0|2,0:0|0:0,0:0:0:0:
144,164,51026,6,0,L|160:232,1,70,0|2,0:0|0:0,0:0:0:0:
220,268,51557,1,0,0:0:0:0:
268,216,51823,1,0,0:0:0:0:
312,160,52090,2,0,B|332:120|292:96|212:144|192:108,1,140
84,180,53152,6,0,L|40:40,1,140,0|2,0:0|0:0,0:0:0:0:
116,36,54214,2,0,P|172:48|168:144,1,140,0|2,0:0|0:0,0:0:0:0:
296,180,55275,2,0,L|48:336,1,280,0|2,0:0|0:0,0:0:0:0:
64,148,56956,2,0,B|104:76|104:76|144:124|144:124|176:72|176:72|224:128,1,280
