osu file format v14

[General]
AudioFilename: audio.mp3
AudioLeadIn: 0
PreviewTime: 22685
Countdown: 1
SampleSet: Normal
StackLeniency: 0.7
Mode: 0
LetterboxInBreaks: 0
WidescreenStoryboard: 1

[Editor]
DistanceSpacing: 1.4
BeatDivisor: 4
GridSize: 4
TimelineZoom: 1.4

[Metadata]
Title:Mouse Dance
TitleUnicode:「マウスダンス」
Artist:Nogizaka46
ArtistUnicode:乃木坂46
Creator:Bananafish1
Version:Easy
Source:
Tags:mouse, pc, computer, nogizaka46, idol, idol group, japanese, dank
BeatmapID:1246789
BeatmapSetID:588926

[Difficulty]
HPDrainRate:2
CircleSize:2
OverallDifficulty:2
ApproachRate:3
SliderMultiplier:1.4
SliderTickRate:1

[Events]
//Background and Video events
0,0,"zahVggU.jpg",0,0
//Break Periods
2,20429,21976
//Storyboard Layer 0 (Background)
//Storyboard Layer 1 (Fail)
//Storyboard Layer 2 (Pass)
//Storyboard Layer 3 (Foreground)
//Storyboard Sound Samples

[TimingPoints]
54,530.973451327434,4,3,0,75,1,0
22685,-50,4,1,0,75,0,0
23216,-100,4,1,0,75,0,0

[Colours]
Combo1 : 255,128,0
Combo2 : 255,0,0
Combo3 : 255,255,0

[HitObjects]
256,192,1115,6,0,L|176:176,4,70
356,316,3239,2,0,P|324:256|396:248,1,140
452,180,4301,5,0,0:0:0:0:
416,80,4832,1,0,0:0:0:0:
300,92,5364,2,0,P|300:128|252:144,2,70
416,80,6426,2,0,B|421:180|348:228,1,140
288,176,7488,6,0,P|248:100|288:36,1,140
344,104,8550,2,0,P|392:176|376:248,1,140
304,312,9610,1,0,0:0:0:0:
168,280,10141,1,0,0:0:0:0:
176,160,10674,6,0,P|220:144|320:192,2,140,0|2|0,0:0|0:0|0:0,0:0:0:0:
60,128,12265,1,0,0:0:0:0:
256,192,12797,12,0,14390,0:0:0:0:
448,208,15452,6,0,L|320:288,1,140,0|2,0:0|0:0,0:0:0:0:
192,208,16514,2,0,P|208:132|256:80,1,140
420,116,17575,1,0,0:0:0:0:
416,256,18106,1,0,0:0:0:0:
288,304,18638,6,0,P|244:288|156:228,1,140,0|2,0:0|0:0,0:0:0:0:
60,236,19699,2,0,P|92:152|164:140,1,140
376,252,23416,5,0,0:0:0:0:
252,188,23947,1,0,0:0:0:0:
148,112,24478,1,0,0:0:0:0:
112,236,25009,1,0,0:0:0:0:
0,224,25541,2,0,P|12:292|208:304,1,280,0|2,0:0|0:0,0:0:0:0:
368,252,27134,6,0,L|240:172,1,140,4|2,0:0|0:0,0:0:0:0:
96,128,28196,2,0,L|240:80,1,140,4|2,0:0|0:0,0:0:0:0:
356,172,29258,2,0,P|400:197|476:152,1,140,0|2,0:0|0:0,0:0:0:0:
400,68,30318,1,0,0:0:0:0:
280,28,30851,2,0,L|260:156,1,105
244,228,31911,1,0,0:0:0:0:
96,176,32443,6,0,L|176:320,1,140
272,320,33506,2,0,L|412:272,1,140
432,112,34567,2,0,L|368:64,4,70
272,40,36159,5,0,0:0:0:0:
144,96,36690,1,0,0:0:0:0:
272,144,37222,2,0,L|272:288,1,140
128,288,38284,2,0,P|144:208|192:144,1,140
288,160,39346,6,0,L|288:304,1,140
464,272,40407,2,0,P|456:212|400:144,1,140
256,64,41469,2,0,B|168:100|144:156,1,140
192,260,42531,2,0,P|264:280|328:272,1,140,0|2,0:0|0:0,0:0:0:0:
328,180,43593,2,0,P|264:176|192:152,1,140,0|2,0:0|0:0,0:0:0:0:
100,68,44655,2,0,P|164:276|468:260,1,560,0|2,0:0|0:0,0:0:0:0:
256,192,48373,6,0,L|256:336,1,140
144,224,49434,2,0,L|144:80,1,140
228,76,50497,2,0,L|384:76,1,140
476,80,51559,1,0,0:0:0:0:
400,144,52089,1,0,0:0:0:0:
324,200,52619,1,0,0:0:0:0:
416,272,53151,6,0,L|256:320,1,140
168,200,54214,1,0,0:0:0:0:
256,192,54743,12,0,57000,0:0:0:0:
