osu file format v14

[General]
AudioFilename: audio.mp3
AudioLeadIn: 0
PreviewTime: 22685
Countdown: 1
SampleSet: Normal
StackLeniency: 0.8
Mode: 0
LetterboxInBreaks: 0
WidescreenStoryboard: 0

[Editor]
DistanceSpacing: 1
BeatDivisor: 6
GridSize: 16
TimelineZoom: 1.4

[Metadata]
Title:Mouse Dance
TitleUnicode:「マウスダンス」
Artist:Nogizaka46
ArtistUnicode:乃木坂46
Creator:Bananafish1
Version:Advanced
Source:
Tags:mouse, pc, computer, nogizaka46, idol, idol group, japanese, dank
BeatmapID:1246738
BeatmapSetID:588926

[Difficulty]
HPDrainRate:5
CircleSize:4
OverallDifficulty:5
ApproachRate:7
SliderMultiplier:1.4
SliderTickRate:1

[Events]
//Background and Video events
0,0,"zahVggU.jpg",0,0
//Break Periods
//Storyboard Layer 0 (Background)
//Storyboard Layer 1 (Fail)
//Storyboard Layer 2 (Pass)
//Storyboard Layer 3 (Foreground)
//Storyboard Sound Samples

[TimingPoints]
54,530.973451327434,4,3,0,50,1,0
22685,-50,4,1,0,50,0,0
23216,-100,4,1,0,50,0,0

[Colours]
Combo1 : 255,128,0
Combo2 : 255,0,0
Combo3 : 255,255,0

[HitObjects]
132,208,1115,6,0,P|160:184|156:172,1,35
176,156,1381,1,0,0:0:0:0:
244,168,1646,6,0,P|272:136|272:128,1,35
280,108,1912,1,0,0:0:0:0:
352,112,2177,6,4,P|356:160|340:160,2,70
304,60,2974,1,0,0:0:0:0:
284,128,3239,1,0,0:0:0:0:
296,196,3505,1,0,0:0:0:0:
284,128,3770,1,0,0:0:0:0:
212,116,4036,1,0,0:0:0:0:
156,88,4301,6,0,P|116:36|108:32,1,70,0|2,0:0|0:0,0:0:0:0:
64,84,4832,2,0,P|92:44|112:36,1,70,0|2,0:0|0:0,0:0:0:0:
152,92,5363,1,0,0:0:0:0:
184,108,5496,1,0,0:0:0:0:
216,116,5628,1,0,0:0:0:0:
252,108,5761,1,0,0:0:0:0:
288,84,5894,2,0,P|348:60|372:72,1,70,0|2,0:0|0:0,0:0:0:0:
388,120,6425,6,0,L|388:200,1,70,0|2,0:0|0:0,0:0:0:0:
320,308,6956,2,0,L|320:212,1,70,0|2,0:0|0:0,0:0:0:0:
280,164,7487,2,0,B|224:216|144:200,1,140,0|4,0:0|0:0,0:0:0:0:
96,296,8549,6,0,B|120:336|160:344,1,70
220,348,9080,2,0,L|272:292,1,70,0|2,0:0|0:0,0:0:0:0:
316,236,9611,1,0,0:0:0:0:
260,192,9877,1,0,0:0:0:0:
196,208,10142,1,0,0:0:0:0:
84,288,10673,6,0,P|116:324|160:328,1,70,0|2,0:0|0:0,0:0:0:0:
196,296,11204,2,0,P|148:324|128:348,1,70,0|2,0:0|0:0,0:0:0:0:
196,296,11734,1,0,0:0:0:0:
224,276,11867,1,0,0:0:0:0:
248,252,12000,1,0,0:0:0:0:
264,220,12132,1,0,0:0:0:0:
268,184,12267,2,0,B|300:144|292:92|228:64,1,140,0|8,0:0|0:0,0:0:0:0:
256,192,12930,12,0,14125,0:0:0:0:
44,40,14390,6,0,L|104:104,1,70,0|2,0:0|0:0,0:0:0:0:
152,124,14921,2,0,P|168:188|192:204,1,70,0|2,0:0|0:0,0:0:0:0:
220,144,15452,1,4,0:0:0:0:
260,236,15717,2,0,L|200:216,1,35
208,216,15916,1,0,0:0:0:0:
104,264,16248,5,0,0:0:0:0:
104,264,16381,1,0,0:0:0:0:
104,264,16514,2,0,P|120:300|156:300,1,70,0|2,0:0|0:0,0:0:0:0:
216,288,17045,2,0,L|264:220,1,70,0|2,0:0|0:0,0:0:0:0:
208,180,17576,1,0,0:0:0:0:
212,288,17841,1,0,0:0:0:0:
212,288,18018,2,0,P|272:212|276:184,1,116.666666666667,0|4,0:0|0:0,0:0:0:0:
300,136,18637,6,0,P|344:116|376:120,1,70,0|2,0:0|0:0,0:0:0:0:
476,136,19168,2,0,P|440:92|408:92,1,70,0|2,0:0|0:0,0:0:0:0:
340,40,19700,2,0,P|296:32|284:40,1,46.6666666666667
320,112,20142,2,0,B|256:136|256:136|300:152,1,93.3333333333333,0|2,0:0|0:0,0:0:0:0:
400,176,20761,6,0,B|416:200|416:200|372:212,1,70,0|2,0:0|0:0,0:0:0:0:
200,232,21293,1,0,0:0:0:0:
312,228,21558,1,0,0:0:0:0:
200,232,21823,6,0,P|216:192|232:184,1,46.6666666666667
296,300,22266,2,0,B|288:332|228:340|180:332,1,116.666666666667
192,334,22796,6,4,P|216:250|260:226,1,140,12|4,0:0|0:0,0:0:0:0:
336,172,23416,2,0,P|368:152|364:116,1,70,0|4,0:0|0:0,0:0:0:0:
312,72,23947,2,0,P|280:48|248:44,1,70
160,48,24478,1,0,0:0:0:0:
104,108,24655,1,0,0:0:0:0:
216,100,24920,6,0,P|224:144|196:156,1,70,0|2,0:0|0:0,0:0:0:0:
180,284,25540,2,0,L|260:280,1,70,0|2,0:0|0:0,0:0:0:0:
360,288,26071,1,0,0:0:0:0:
308,204,26336,1,0,0:0:0:0:
384,128,26602,1,0,0:0:0:0:
324,72,26868,1,0,0:0:0:0:
324,72,27044,2,0,P|264:100|248:160,1,116.666666666667,0|2,0:0|0:0,0:0:0:0:
388,222,27664,6,0,L|308:162,1,70,0|2,0:0|0:0,0:0:0:0:
204,196,28195,2,0,L|260:244,1,70,0|2,0:0|0:0,0:0:0:0:
356,253,28726,2,0,P|376:241|388:221,1,46.6666666666667
364,116,29168,2,0,P|312:116|296:132,1,70,0|2,0:0|0:0,0:0:0:0:
236,64,29788,5,0,0:0:0:0:
180,156,30054,1,0,0:0:0:0:
292,160,30319,1,0,0:0:0:0:
392,108,30584,1,0,0:0:0:0:
388,204,30851,2,0,L|368:264,1,35
328,320,31292,1,0,0:0:0:0:
120,260,31911,5,0,0:0:0:0:
208,228,32177,1,0,0:0:0:0:
136,168,32444,1,0,0:0:0:0:
120,260,32708,1,0,0:0:0:0:
228,348,32975,2,0,L|252:288,1,35,0|2,0:0|0:0,0:0:0:0:
240,152,33373,2,0,B|212:196|212:196|260:236,1,105,0|2,0:0|0:0,0:0:0:0:
440,228,34035,5,0,0:0:0:0:
324,216,34301,1,0,0:0:0:0:
372,336,34566,1,0,0:0:0:0:
324,216,34832,1,0,0:0:0:0:
396,112,35097,2,0,L|320:112,1,70,0|2,0:0|0:0,0:0:0:0:
276,112,35497,2,0,P|240:124|236:176,1,70,0|2,0:0|0:0,0:0:0:0:
380,252,36159,5,0,0:0:0:0:
240,224,36424,1,0,0:0:0:0:
124,152,36691,1,0,0:0:0:0:
208,40,36957,1,0,0:0:0:0:
124,152,37221,2,0,L|84:208,1,35,0|2,0:0|0:0,0:0:0:0:
76,324,37621,2,0,L|80:240,1,70,0|2,0:0|0:0,0:0:0:0:
68,108,38283,6,0,B|80:76|140:56,1,70,0|2,0:0|0:0,0:0:0:0:
212,104,38814,2,0,B|256:88|276:112,1,70,0|2,0:0|0:0,0:0:0:0:
272,188,39345,2,0,L|244:220,1,35,0|2,0:0|0:0,0:0:0:0:
224,240,39611,2,0,L|176:240,2,35
296,236,40141,5,0,0:0:0:0:
328,224,40275,1,0,0:0:0:0:
355,204,40407,1,0,0:0:0:0:
416,104,40672,1,0,0:0:0:0:
300,76,40938,1,0,0:0:0:0:
355,204,41203,6,0,P|384:160|372:136,1,70,0|2,0:0|0:0,0:0:0:0:
300,76,41734,2,0,P|256:77|268:117,1,70,0|2,0:0|0:0,0:0:0:0:
168,208,42531,2,0,P|128:244|128:260,1,70,0|2,0:0|0:0,0:0:0:0:
192,284,43062,2,0,P|232:268|232:236,1,70,0|2,0:0|0:0,0:0:0:0:
168,208,43593,2,0,L|176:128,1,70,0|2,0:0|0:0,0:0:0:0:
252,148,44124,1,0,0:0:0:0:
168,208,44389,1,0,0:0:0:0:
224,268,44655,6,0,P|272:220|284:212,1,70,0|2,0:0|0:0,0:0:0:0:
360,144,45186,2,0,P|318:145|318:161,1,70,0|2,0:0|0:0,0:0:0:0:
240,180,45717,2,0,L|180:164,1,35
204,100,45983,2,0,L|240:108,1,35
264,48,46249,2,0,P|236:40|176:36,1,70,0|8,0:0|0:0,0:0:0:0:
256,192,46778,12,0,48106,0:0:0:0:
404,108,48373,6,0,P|404:136|356:176,1,70,0|2,0:0|0:0,0:0:0:0:
224,144,48904,2,0,L|304:144,1,70,0|2,0:0|0:0,0:0:0:0:
480,184,49434,2,0,P|448:180|428:184,1,46.6666666666667
356,220,49876,2,0,B|328:200|256:232,1,105,0|2,0:0|0:0,0:0:0:0:
176,276,50495,6,0,P|116:256|112:236,1,70,0|2,0:0|0:0,0:0:0:0:
148,132,51026,2,0,L|164:200,1,70,0|2,0:0|0:0,0:0:0:0:
236,240,51557,1,0,0:0:0:0:
300,184,51823,1,0,0:0:0:0:
300,184,52000,2,0,P|304:140|244:72,1,140,0|4,0:0|0:0,0:0:0:0:
244,72,52619,6,0,L|208:136,1,70,0|2,0:0|0:0,0:0:0:0:
140,112,53150,2,0,L|88:168,1,70,0|2,0:0|0:0,0:0:0:0:
176,200,53682,2,0,P|184:228|196:240,1,46.6666666666667
284,180,54124,2,0,P|340:168|336:140,1,93.3333333333333,0|2,0:0|0:0,0:0:0:0:
224,56,54743,6,0,P|204:80|196:124,1,70,0|2,0:0|0:0,0:0:0:0:
284,180,55274,2,0,P|312:132|308:112,1,70,0|2,0:0|0:0,0:0:0:0:
224,56,55806,2,0,P|216:96|208:112,1,46.6666666666667,0|2,0:0|0:0,0:0:0:0:
172,192,56248,1,0,0:0:0:0:
56,56,56956,2,0,B|96:32|96:32|112:88|112:88|168:48|168:48|172:112,1,233.333333333333
