osu file format v14

[General]
AudioFilename: audio.mp3
AudioLeadIn: 0
PreviewTime: 53447
Countdown: 0
SampleSet: Soft
StackLeniency: 0.7
Mode: 0
LetterboxInBreaks: 0
WidescreenStoryboard: 0

[Editor]
DistanceSpacing: 1.3
BeatDivisor: 4
GridSize: 4
TimelineZoom: 1.8

[Metadata]
Title:Hashire! Bicycle - EP (TV-size)
TitleUnicode:Hashire! Bicycle - EP (TV-size)
Artist:Nogizaka46
ArtistUnicode:乃木坂46
Creator:Tuffiii
Version:Bicycle!
Source:
Tags:
BeatmapID:1868810
BeatmapSetID:894287

[Difficulty]
HPDrainRate:6
CircleSize:3.8
OverallDifficulty:8.5
ApproachRate:9
SliderMultiplier:1.7
SliderTickRate:1

[Events]
//Background and Video events
0,0,"anime-original-bike-city-long-hair-artwork-vc.jpg",0,0
//Break Periods
//Storyboard Layer 0 (Background)
//Storyboard Layer 1 (Fail)
//Storyboard Layer 2 (Pass)
//Storyboard Layer 3 (Foreground)
//Storyboard Sound Samples

[TimingPoints]
720,363.636363636364,4,2,0,100,1,0
720,-90.9090909090909,4,2,0,100,0,0
9447,-111.111111111111,4,2,0,100,0,0
10810,-125,4,2,0,100,0,0
11901,-125,4,2,0,70,0,0
15265,-100,4,2,0,100,0,0
47356,-100,4,2,0,55,0,0
47629,-100,4,2,0,65,0,0
47992,-100,4,2,0,75,0,0
48720,-100,4,2,0,85,0,0
49083,-100,4,2,0,95,0,0
49356,-83.3333333333333,4,2,0,100,0,0
53447,-83.3333333333333,4,2,0,100,0,1
65447,-83.3333333333333,4,2,0,100,0,1
79901,-125,4,2,0,100,0,1
85083,-83.3333333333333,4,2,0,100,0,0

[Colours]
Combo1 : 250,105,105
Combo2 : 3,199,199
Combo3 : 253,254,197
Combo4 : 136,255,199

[HitObjects]
341,75,356,6,0,L|302:136,3,42.5
130,302,720,6,0,P|151:220|151:169,1,93.5000028533936
262,297,1083,2,0,P|301:320|356:331,1,93.5000028533936
357,44,1447,1,0,0:0:0:0:
215,233,1629,1,0,0:0:0:0:
411,178,1810,1,0,0:0:0:0:
296,231,1992,6,0,L|278:337,1,93.5000028533936
291,117,2356,6,0,L|191:97,1,93.5000028533936
130,263,2720,1,0,0:0:0:0:
56,73,2901,1,0,0:0:0:0:
296,231,3083,2,0,B|340:125|371:202|412:87,1,187.000005706787
273,298,3629,5,0,0:0:0:0:
126,222,3810,1,0,0:0:0:0:
233,78,3992,1,0,0:0:0:0:
389,182,4174,2,0,P|372:231|248:306,1,187.000005706787
277,80,4720,1,0,0:0:0:0:
99,244,4901,1,0,0:0:0:0:
334,201,5083,1,0,0:0:0:0:
161,57,5265,2,0,L|76:147,1,93.5000028533936
185,314,5810,5,0,0:0:0:0:
330,26,6174,1,0,0:0:0:0:
95,236,6538,2,0,B|139:130|170:207|211:92,1,187.000005706787
312,330,7084,1,0,0:0:0:0:
347,127,7266,1,0,0:0:0:0:
224,248,7448,1,0,0:0:0:0:
190,71,7629,6,0,L|90:113,1,93.5000028533936
252,179,7993,2,0,L|355:142,1,93.5000028533936
238,302,8357,2,0,L|126:341,1,93.5000028533936
61,214,8720,1,0,0:0:0:0:
189,99,8901,2,0,L|268:174,1,93.5000028533936
357,186,9265,1,0,0:0:0:0:
333,226,9355,1,0,0:0:0:0:
306,262,9447,2,0,B|280:313|207:310|183:298|152:247|261:147|202:131|114:117,1,305.999990661621
248,210,10355,5,0,0:0:0:0:
406,44,10537,1,0,0:0:0:0:
355,273,10720,2,0,B|364:329|304:370|278:375|222:353|188:317|166:259,1,272
333,64,11629,1,0,0:0:0:0:
105,222,11810,1,0,0:0:0:0:
401,202,11992,1,0,0:0:0:0:
401,202,12083,1,0,0:0:0:0:
401,202,12174,1,0,0:0:0:0:
401,202,12265,1,0,0:0:0:0:
401,202,12356,1,0,0:0:0:0:
256,192,12447,12,0,14901,0:0:0:0:
127,242,15265,6,0,L|161:126,1,85
290,105,15629,1,0,0:0:0:0:
252,230,15810,2,0,L|320:292,1,85
356,160,16174,2,0,L|280:96,1,85
203,152,16538,2,0,P|160:129|123:81,2,85
284,228,17083,2,0,P|304:262|344:287,1,85
304,123,17447,2,0,P|344:96|402:87,1,85
482,121,17810,1,0,0:0:0:0:
482,121,18174,6,0,L|385:77,1,85
275,82,18538,2,0,L|233:167,1,85
326,211,18901,2,0,L|368:125,2,85
252,111,19447,2,0,B|163:188,1,85
90,113,19810,1,0,0:0:0:0:
87,223,19992,1,0,0:0:0:0:
165,305,20174,1,0,0:0:0:0:
263,253,20356,1,0,0:0:0:0:
180,191,20538,6,0,P|204:156|235:127,1,85
371,121,20901,1,0,0:0:0:0:
263,253,21083,2,0,L|172:253,1,85
306,172,21447,2,0,L|260:261,2,85
381,86,21992,2,0,L|417:173,1,85
276,129,22356,2,0,P|239:100|196:82,1,85
235,220,22720,2,0,P|269:249|306:264,1,85
407,187,23083,1,0,0:0:0:0:
332,69,23265,2,0,L|252:112,1,85
207,250,23629,2,0,L|287:206,1,85
106,140,23992,6,0,P|106:94|106:53,1,85
238,146,24356,2,0,L|238:233,1,85
365,139,24720,2,0,L|364:51,1,85
194,109,25083,1,0,0:0:0:0:
279,185,25265,2,0,L|198:232,2,85
147,282,26174,5,0,0:0:0:0:
238,44,26356,1,0,0:0:0:0:
304,220,26538,1,0,0:0:0:0:
131,104,26720,2,0,P|89:87|46:95,1,85
229,119,27083,2,0,P|267:138|347:131,1,85
412,56,27447,2,0,L|486:0,2,85
417,196,27992,1,0,0:0:0:0:
222,96,28174,2,0,P|226:197|298:257,1,170
321,148,28720,2,0,P|361:116|384:77,1,85
211,81,29083,2,0,L|117:128,2,85
294,187,29629,5,0,0:0:0:0:
294,187,29810,2,0,L|304:286,1,85
148,67,30174,2,0,L|59:140,1,85
267,117,30538,2,0,L|332:63,1,85
335,212,30901,2,0,L|269:265,2,85
172,118,31447,6,0,L|67:148,1,85
274,186,31810,1,0,0:0:0:0:
378,249,31992,2,0,L|470:208,1,85
319,334,32356,5,0,0:0:0:0:
352,124,32538,1,0,0:0:0:0:
417,255,32720,1,0,0:0:0:0:
240,227,32901,2,0,L|178:155,1,85
351,93,33265,2,0,P|313:116|283:157,1,85
347,273,33629,2,0,P|269:330|185:312,1,170
254,187,34174,6,0,L|220:97,2,85
342,92,34720,2,0,L|438:153,1,85
254,262,35083,2,0,L|339:268,1,85
339,268,35629,5,0,0:0:0:0:
223,91,35810,2,0,P|250:59|295:25,1,85
413,48,36174,1,0,0:0:0:0:
350,197,36356,2,0,P|323:228|278:262,1,85
113,155,36720,2,0,P|146:117|213:95,1,85
313,52,37083,2,0,B|276:104|301:145|249:219,1,170
210,272,37810,6,0,L|138:194,1,85
372,59,38174,2,0,L|327:131,1,85
210,272,38538,1,0,0:0:0:0:
203,62,39083,1,0,0:0:0:0:
289,307,39265,1,0,0:0:0:0:
324,55,39447,1,0,0:0:0:0:
118,252,39629,1,0,0:0:0:0:
118,252,39992,6,0,L|60:189,1,85
257,145,40356,2,0,L|333:108,1,85
121,300,40720,1,0,0:0:0:0:
235,55,40901,1,0,0:0:0:0:
259,319,41083,1,0,0:0:0:0:
400,129,41447,6,0,L|314:99,1,85
343,283,41810,1,0,0:0:0:0:
187,79,41992,1,0,0:0:0:0:
122,299,42174,2,0,L|22:245,1,85
211,173,42538,1,0,0:0:0:0:
372,24,42901,6,0,L|342:116,1,85,0|0,2:0|2:0,2:0:0:0:
304,309,43265,1,0,2:0:0:0:
91,111,43629,6,0,L|182:144,1,85,0|0,2:0|2:0,2:0:0:0:
372,193,43993,1,0,2:0:0:0:
112,254,44174,1,0,0:0:0:0:
112,254,44265,1,0,0:0:0:0:
112,254,44356,2,0,P|119:154|203:94,1,170
371,277,44901,1,0,0:0:0:0:
144,166,45083,1,0,0:0:0:0:
393,103,45265,1,0,0:0:0:0:
204,315,45447,1,0,0:0:0:0:
151,50,45810,6,0,B|152:129|111:119|99:230,1,170
290,69,46356,2,0,L|362:118,1,85
171,258,46720,2,0,L|99:209,1,85
370,304,47265,5,0,0:0:0:0:
267,119,47447,1,0,0:0:0:0:
222,320,47629,1,0,0:0:0:0:
378,163,47810,1,0,0:0:0:0:
186,236,47992,1,0,0:0:0:0:
264,65,48174,1,0,0:0:0:0:
75,244,48356,1,0,0:0:0:0:
367,134,48537,1,0,0:0:0:0:
241,318,48720,1,0,0:0:0:0:
211,94,48901,1,0,0:0:0:0:
144,273,49083,1,0,0:0:0:0:
368,53,49264,1,0,0:0:0:0:
323,232,49447,6,0,L|279:338,1,101.999996887207
118,113,49810,2,0,L|161:12,1,101.999996887207
349,166,50174,2,0,P|338:226|316:277,1,101.999996887207
185,296,50538,5,0,0:0:0:0:
146,76,50720,1,0,0:0:0:0:
328,243,50901,2,0,L|310:343,1,101.999996887207
325,69,51265,1,0,0:0:0:0:
159,251,51447,1,0,0:0:0:0:
412,135,51629,1,0,0:0:0:0:
142,108,51810,2,0,P|90:110|39:130,1,101.999996887207
242,222,52174,1,0,0:0:0:0:
214,31,52356,1,0,0:0:0:0:
114,278,52538,1,0,0:0:0:0:
354,122,52720,1,0,0:0:0:0:
219,334,52901,1,0,0:0:0:0:
168,46,53083,1,0,0:0:0:0:
282,64,53447,6,0,P|323:95|372:105,1,101.999996887207
168,126,53810,6,0,P|118:117|76:88,1,101.999996887207
146,254,54174,2,0,P|187:283|237:289,1,101.999996887207
400,99,54538,2,0,B|416:189|363:185|406:309,1,203.999993774414
262,127,55083,2,0,L|181:57,2,101.999996887207
77,209,55629,1,0,0:0:0:0:
250,257,55810,2,0,L|331:327,1,101.999996887207
278,69,56174,1,0,0:0:0:0:
160,247,56356,1,0,0:0:0:0:
387,139,56538,1,0,0:0:0:0:
210,349,56720,2,0,L|290:286,1,101.999996887207
282,172,57083,5,0,0:0:0:0:
97,106,57265,1,0,0:0:0:0:
302,80,57447,2,0,B|386:140|344:167|440:236,1,203.999993774414
274,236,57992,2,0,L|171:232,2,101.999996887207
307,104,58538,2,0,P|365:113|427:155,1,101.999996887207
186,122,58901,2,0,L|97:183,1,101.999996887207
270,211,59265,2,0,L|340:286,2,101.999996887207
355,107,59810,1,0,0:0:0:0:
169,280,60174,6,0,L|72:243,1,101.999996887207
274,238,60538,1,0,0:0:0:0:
105,132,60720,1,8,0:0:0:0:
198,274,60901,5,0,0:0:0:0:
178,54,61083,1,8,0:0:0:0:
115,214,61265,5,0,0:0:0:0:
284,29,61447,1,8,0:0:0:0:
186,298,61629,1,8,0:0:0:0:
186,298,61720,1,0,0:0:0:0:
185,298,61810,1,0,0:0:0:0:
317,99,61992,5,0,0:0:0:0:
291,343,62174,1,0,0:0:0:0:
395,243,62356,5,0,0:0:0:0:
200,66,62538,1,0,0:0:0:0:
224,225,62720,5,0,0:0:0:0:
393,69,62902,1,0,0:0:0:0:
277,312,63083,1,0,0:0:0:0:
277,312,63174,1,0,0:0:0:0:
277,312,63265,1,0,0:0:0:0:
270,178,63447,2,0,L|169:119,1,101.999996887207
44,54,63810,1,0,0:0:0:0:
89,306,63992,5,0,0:0:0:0:
227,49,64174,1,0,0:0:0:0:
191,332,64356,1,8,0:0:0:0:
328,127,64538,1,0,0:0:0:0:
163,323,64901,1,0,0:0:0:0:
204,75,65083,1,0,0:0:0:0:
374,226,65265,2,0,L|280:322,1,101.999996887207
99,246,65629,6,0,P|91:196|102:129,1,101.999996887207
223,105,65992,1,0,0:0:0:0:
223,105,66083,1,0,0:0:0:0:
223,105,66174,2,0,L|307:194,1,101.999996887207
185,295,66538,2,0,P|128:274|95:240,1,101.999996887207
95,61,66901,1,0,0:0:0:0:
230,224,67083,1,0,0:0:0:0:
259,37,67265,2,0,L|348:109,1,101.999996887207
111,158,67629,2,0,L|152:44,1,101.999996887207
283,240,67992,2,0,L|244:341,2,101.999996887207
376,236,68538,2,0,L|415:135,1,101.999996887207
310,33,68901,1,0,0:0:0:0:
143,122,69083,2,0,B|130:219|177:216|160:326,1,203.999993774414
246,151,69629,2,0,L|319:80,2,101.999996887207
258,239,70174,1,0,0:0:0:0:
102,74,70356,6,0,L|42:166,2,101.999996887207
158,175,70901,5,0,0:0:0:0:
310,134,71083,1,0,0:0:0:0:
310,134,71265,2,0,B|227:201|280:244|178:293,1,203.999993774414
350,71,71810,6,0,L|338:191,1,101.999996887207
215,323,72175,2,0,L|230:206,1,101.999996887207
228,84,72539,5,0,0:0:0:0:
98,210,72720,1,0,0:0:0:0:
380,145,72902,5,0,0:0:0:0:
255,276,73084,1,0,0:0:0:0:
255,276,73175,1,0,0:0:0:0:
255,276,73266,2,0,L|261:167,1,101.999996887207
189,69,73629,5,0,0:0:0:0:
109,293,73810,1,0,0:0:0:0:
55,54,73992,5,0,0:0:0:0:
271,233,74174,2,0,L|340:312,1,101.999996887207
339,133,74538,1,0,0:0:0:0:
96,89,74720,1,0,0:0:0:0:
285,270,74901,5,0,0:0:0:0:
284,270,74991,1,0,0:0:0:0:
285,270,75082,1,0,0:0:0:0:
111,197,75265,1,0,0:0:0:0:
384,176,75447,5,0,0:0:0:0:
149,98,75629,1,0,0:0:0:0:
334,55,75810,5,0,0:0:0:0:
128,301,75993,1,0,0:0:0:0:
128,301,76084,1,0,0:0:0:0:
128,301,76175,2,0,L|168:198,1,101.999996887207
319,150,76538,5,0,0:0:0:0:
63,166,76720,1,0,0:0:0:0:
264,33,76901,2,0,P|253:92|222:136,1,101.999996887207
64,274,77265,1,0,0:0:0:0:
331,153,77447,1,0,0:0:0:0:
174,163,77629,5,0,0:0:0:0:
294,294,77811,1,0,0:0:0:0:
277,99,77993,1,0,0:0:0:0:
146,262,78175,1,0,0:0:0:0:
422,107,78357,1,0,0:0:0:0:
108,148,78539,1,0,0:0:0:0:
365,281,78720,1,0,0:0:0:0:
205,81,78902,1,0,0:0:0:0:
205,81,79084,6,0,B|170:182|126:153|84:247,1,203.999993774414
243,290,79630,2,0,P|293:323|364:311,1,101.999996887207
389,144,79993,2,0,B|277:275|268:121|144:265,1,272
256,192,81083,5,0,0:0:0:0:
256,192,81265,12,0,85265,0:0:0:0:
