osu file format v14

[General]
AudioFilename: audio.mp3
AudioLeadIn: 0
PreviewTime: 49833
Countdown: 0
SampleSet: Soft
StackLeniency: 0.3
Mode: 0
LetterboxInBreaks: 0
WidescreenStoryboard: 0

[Editor]
Bookmarks: 8804,68804
DistanceSpacing: 1.2
BeatDivisor: 4
GridSize: 4
TimelineZoom: 1

[Metadata]
Title:Jingle Bells
TitleUnicode:ジングルベル
Artist:Nogizaka Haruka & Mika
ArtistUnicode:乃木坂春香&美夏
Creator:MkGuh
Version:Normal
Source:乃木坂春香の秘密ぴゃあれっつぁ♪
Tags:Snow Christmas Xmas White Santa no Himitsu: Purezza 後藤麻衣 能登麻美子 後藤麻衣 Noto Mamiko x Gotou Mai x-mas
BeatmapID:1120523
BeatmapSetID:528284

[Difficulty]
HPDrainRate:4
CircleSize:3
OverallDifficulty:4
ApproachRate:5
SliderMultiplier:1.4
SliderTickRate:1

[Events]
//Background and Video events
0,0,"christmasb g.jpg",0,0
//Break Periods
//Storyboard Layer 0 (Background)
//Storyboard Layer 1 (Fail)
//Storyboard Layer 2 (Pass)
//Storyboard Layer 3 (Foreground)
//Storyboard Sound Samples

[TimingPoints]
569,588.235294117647,4,2,2,50,1,0
9098,-100,4,2,2,60,0,0
9980,-100,4,2,2,60,0,1
10127,-100,4,2,2,60,0,0
19392,-100,4,2,2,60,0,1
19539,-100,4,2,2,60,0,0
28804,-100,4,2,2,60,0,0
49980,-100,4,2,2,70,0,1
58216,-100,4,2,2,60,0,0
59392,-100,4,2,2,70,0,1
68804,-100,4,2,2,60,0,0

[Colours]
Combo1 : 128,128,255
Combo2 : 220,180,90
Combo3 : 200,50,60
Combo4 : 70,180,60
Combo5 : 255,128,255

[HitObjects]
32,128,8804,6,0,B|68:128|68:128|108:112,1,70,8|4,0:0|0:3,0:0:0:0:
172,72,9392,2,0,B|203:59|203:59|239:59,1,70,4|4,0:3|3:0,0:0:0:0:
316,92,9980,6,0,P|344:156|312:224,1,140,6|2,1:2|1:0,0:0:0:0:
196,332,11157,2,0,P|168:268|200:200,1,140,2|2,1:0|1:0,0:0:0:0:
316,92,12333,2,0,P|352:84|392:96,1,70,2|8,1:0|0:0,0:0:0:0:
452,144,12921,2,0,P|460:177|452:211,1,70,2|8,1:0|0:0,0:0:0:0:
401,278,13510,2,0,P|453:295|503:279,2,105,2|2|4,1:0|1:0|0:3,0:0:0:0:
320,252,14686,6,0,L|240:260,1,70,2|8,1:0|0:0,0:0:0:0:
172,227,15274,2,0,P|148:159|192:87,1,140,2|2,1:0|1:0,0:0:0:0:
226,33,16157,1,8,0:0:0:0:
308,60,16451,2,0,P|340:66|377:60,1,70,2|8,1:0|0:0,0:0:0:0:
453,33,17039,2,0,B|486:98|486:98|467:173,1,140,2|2,1:0|1:0,0:0:0:0:
399,209,17921,1,4,0:3:0:0:
326,251,18216,2,0,B|293:316|293:316|309:381,1,140,2|2,1:0|1:0,0:0:0:0:
151,324,19392,6,0,P|80:305|5:332,1,140,6|2,1:2|1:0,0:0:0:0:
132,200,20568,2,0,P|203:219|278:192,1,140,2|2,1:0|1:0,0:0:0:0:
119,116,21745,2,0,L|39:116,1,70,2|8,1:0|0:0,0:0:0:0:
62,200,22333,2,0,L|132:200,1,70,2|8,1:0|0:0,0:0:0:0:
216,200,22921,2,0,P|231:250|213:309,2,105,2|2|4,1:0|1:0|0:3,0:0:0:0:
182,122,24098,6,0,P|218:116|251:122,1,70,2|8,1:0|0:0,0:0:0:0:
322,165,24686,2,0,L|463:177,1,140,2|2,1:0|1:0,0:0:0:0:
491,255,25568,1,8,0:0:0:0:
492,340,25863,2,0,P|452:355|400:347,1,70,2|8,1:0|0:0,0:0:0:0:
340,348,26451,6,0,P|269:321|203:360,1,140,2|2,1:0|1:0,0:0:0:0:
144,304,27333,1,8,1:2:0:0:
76,256,27627,2,0,L|121:113,1,140,2|0,1:0|1:0,0:0:0:0:
256,192,28804,12,4,31157,1:2:0:0:
36,144,32333,6,0,B|9:211|9:211|29:275,1,140,2|2,1:0|1:0,0:0:0:0:
84,340,33216,1,8,0:0:0:0:
148,288,33510,2,0,B|184:288|184:288|224:308,1,70,2|8,1:0|0:0,0:0:0:0:
300,304,34098,2,0,B|330:319|330:319|366:319,1,70,2|8,1:0|0:2,0:0:0:0:
440,276,34686,2,0,B|460:212|460:212|432:140,1,140,2|2,1:0|1:0,0:0:0:0:
308,32,35863,6,0,P|256:72|204:32,2,140,2|2|2,1:0|1:0|1:0,0:0:0:0:
256,192,37627,1,2,1:0:0:0:
256,276,37921,1,8,0:0:0:0:
172,276,38216,2,0,P|104:276|40:336,2,140,2|2|2,1:0|1:0|1:0,0:0:0:0:
256,276,39686,1,4,0:3:0:0:
340,276,39980,2,0,L|416:276,1,70,2|8,0:0|1:2,0:0:0:0:
476,224,40568,6,0,B|456:160|500:156|476:84,1,140,2|2,1:0|1:0,0:0:0:0:
396,124,41451,1,8,0:0:0:0:
332,68,41745,2,0,B|268:88|264:44|192:68,1,140,2|2,1:0|1:0,0:0:0:0:
56,164,42921,2,0,L|64:236,1,70,2|8,1:0|0:0,0:0:0:0:
144,264,43510,2,0,L|152:336,1,70,2|8,1:0|0:2,0:0:0:0:
232,360,44098,2,0,P|280:340|372:368,1,140,2|2,1:0|1:0,0:0:0:0:
468,228,45274,6,0,P|460:188|472:152,2,70,2|8|2,1:0|0:0|1:0,0:0:0:0:
500,308,46157,1,8,0:0:0:0:
420,336,46451,2,0,P|380:328|344:340,1,70,2|8,1:0|0:0,0:0:0:0:
272,364,47039,2,0,P|238:371|204:363,1,70,2|8,1:0|0:0,0:0:0:0:
140,312,47627,2,0,L|140:168,1,140,2|2,1:0|1:0,0:0:0:0:
140,88,48510,1,8,1:2:0:0:
220,64,48804,2,0,P|256:56|304:72,1,70,2|8,1:0|0:0,0:0:0:0:
368,84,49392,1,4,1:2:0:0:
430,239,49980,6,0,P|374:251|290:239,1,140,6|2,1:2|1:0,0:0:0:0:
218,204,50863,1,8,0:0:0:0:
152,152,51157,2,0,P|136:72|168:4,2,140,2|2|2,1:0|1:0|1:0,0:0:0:0:
218,204,52627,1,8,0:0:0:0:
281,262,52921,2,0,L|253:334,1,70,2|8,1:0|0:0,0:0:0:0:
332,368,53510,2,0,P|380:360|436:368,2,105,0|2|4,1:0|1:0|0:3,0:0:0:0:
256,328,54686,5,2,1:0:0:0:
188,280,54980,1,8,0:0:0:0:
120,228,55274,2,0,P|140:160|188:108,1,140,2|2,1:0|1:0,0:0:0:0:
256,64,56157,1,8,0:0:0:0:
326,109,56451,2,0,P|372:161|392:228,1,140,2|2,1:0|1:0,0:0:0:0:
292,364,57627,2,0,L|212:364,1,70,2|4,1:0|0:3,0:0:0:0:
136,364,58216,2,0,P|72:348|36:260,1,140,2|2,1:0|1:0,0:0:0:0:
66,122,59392,6,0,P|133:103|202:121,1,140,6|2,1:2|1:0,0:0:0:0:
265,178,60274,1,8,0:0:0:0:
350,170,60568,2,0,P|372:109|346:38,2,140,2|2|2,1:0|1:0|1:0,0:0:0:0:
321,249,62039,1,8,0:0:0:0:
245,286,62333,2,0,B|215:271|215:271|179:271,1,70,2|8,1:0|0:0,0:0:0:0:
132,341,62921,2,0,L|24:341,2,105,2|2|4,1:0|1:0|0:3,0:0:0:0:
132,256,64098,6,0,B|64:256|64:256|0:208,1,140,2|2,1:0|1:0,0:0:0:0:
20,130,64980,1,8,0:0:0:0:
78,69,65274,2,0,B|146:69|146:69|210:117,1,140,2|2,1:0|1:0,0:0:0:0:
266,167,66157,1,8,0:0:0:0:
300,243,66451,2,0,P|259:252|226:242,2,70,2|8|2,1:0|0:0|1:0,0:0:0:0:
381,265,67333,1,8,1:2:0:0:
458,231,67627,2,0,B|498:179|498:179|498:103,2,140,2|2|4,1:0|1:0|1:2,0:0:0:0:
