osu file format v14

[General]
AudioFilename: audio.mp3
AudioLeadIn: 0
PreviewTime: 49833
Countdown: 0
SampleSet: Soft
StackLeniency: 0.4
Mode: 0
LetterboxInBreaks: 0
WidescreenStoryboard: 0

[Editor]
Bookmarks: 8804,68804
DistanceSpacing: 1.2
BeatDivisor: 4
GridSize: 4
TimelineZoom: 1

[Metadata]
Title:Jingle Bells
TitleUnicode:ジングルベル
Artist:Nogizaka Haruka & Mika
ArtistUnicode:乃木坂春香&美夏
Creator:MkGuh
Version:Hard
Source:乃木坂春香の秘密ぴゃあれっつぁ♪
Tags:Snow Christmas Xmas White Santa no Himitsu: Purezza 後藤麻衣 能登麻美子 後藤麻衣 Noto Mamiko x Gotou Mai x-mas
BeatmapID:1129926
BeatmapSetID:528284

[Difficulty]
HPDrainRate:5.5
CircleSize:3.5
OverallDifficulty:6.5
ApproachRate:7.2
SliderMultiplier:1.6
SliderTickRate:1

[Events]
//Background and Video events
0,0,"christmasb g.jpg",0,0
//Break Periods
//Storyboard Layer 0 (Background)
//Storyboard Layer 1 (Fail)
//Storyboard Layer 2 (Pass)
//Storyboard Layer 3 (Foreground)
//Storyboard Sound Samples

[TimingPoints]
569,588.235294117647,4,2,2,50,1,0
9098,-100,4,2,2,60,0,0
9980,-100,4,2,2,60,0,1
10127,-100,4,2,2,60,0,0
19392,-100,4,2,2,60,0,1
19539,-100,4,2,2,60,0,0
28804,-100,4,2,2,60,0,0
49980,-100,4,2,2,70,0,1
58216,-100,4,2,2,60,0,0
59392,-100,4,2,2,70,0,1
68804,-100,4,2,2,60,0,0

[Colours]
Combo1 : 128,128,255
Combo2 : 220,180,90
Combo3 : 200,50,60
Combo4 : 70,180,60
Combo5 : 255,128,255

[HitObjects]
320,48,8804,5,0,0:0:0:0:
340,52,8951,1,0,0:0:0:0:
360,56,9098,1,4,0:3:0:0:
456,76,9392,2,0,P|484:103|492:141,1,80,4|4,0:3|3:0,0:0:0:0:
412,256,9980,6,0,L|332:249,1,80,6|8,1:2|0:0,0:0:0:0:
304,156,10568,1,2,1:0:0:0:
208,156,10863,1,8,0:0:0:0:
179,249,11157,2,0,L|100:256,2,80,2|8|2,1:0|0:0|1:0,0:0:0:0:
256,192,12039,1,8,0:0:0:0:
216,75,12333,6,0,P|254:68|294:75,1,80,2|8,1:0|0:0,0:0:0:0:
363,140,12921,2,0,P|347:197|363:254,1,120,2|0,1:0|0:0,0:0:0:0:
384,296,13510,2,0,L|304:284,1,80,2|8,1:0|0:3,0:0:0:0:
152,336,14098,2,0,L|231:347,1,80,2|4,0:0|0:3,0:0:0:0:
184,231,14686,6,0,P|195:194|187:155,1,80,2|8,1:0|0:0,0:0:0:0:
140,68,15274,2,0,P|188:101|247:96,1,120,2|0,1:0|0:0,0:0:0:0:
292,80,15863,2,0,L|371:79,1,80,2|8,1:0|0:0,0:0:0:0:
460,116,16451,2,0,P|460:156|436:196,1,80,2|0,1:0|0:0,0:0:0:0:
416,188,16892,1,0,0:0:0:0:
388,188,17039,5,2,1:0:0:0:
332,268,17333,1,8,0:0:0:0:
256,208,17627,1,2,1:0:0:0:
180,264,17921,1,8,0:3:0:0:
116,192,18216,2,0,P|80:125|117:57,1,160,2|2,1:0|1:0,0:0:0:0:
312,120,19392,6,0,P|347:137|387:138,1,80,6|8,1:2|0:0,0:0:0:0:
484,144,19980,1,2,1:0:0:0:
484,244,20274,1,8,0:0:0:0:
386,244,20568,2,0,P|347:245|312:263,1,80,2|8,1:0|0:0,0:0:0:0:
304,360,21157,1,2,1:0:0:0:
208,364,21451,1,8,0:0:0:0:
124,244,21745,6,0,P|163:245|199:263,1,80,2|8,1:0|0:0,0:0:0:0:
256,188,22333,2,0,L|256:68,1,120,2|0,1:0|0:0,0:0:0:0:
256,20,22921,1,2,1:0:0:0:
162,44,23216,2,0,P|129:51|86:44,1,53.3333333333333,8|0,0:0|0:0,0:0:0:0:
78,41,23510,2,0,P|34:53|-6:89,1,80,2|8,1:0|0:0,0:0:0:0:
10,169,24098,6,0,L|20:248,1,80,2|8,1:0|0:0,0:0:0:0:
85,318,24686,2,0,P|142:304|197:326,1,120,2|0,1:0|0:0,0:0:0:0:
239,347,25274,1,2,1:0:0:0:
326,307,25568,1,8,0:0:0:0:
411,262,25863,2,0,P|392:228|391:188,1,80,2|8,1:0|0:0,0:0:0:0:
462,26,26451,6,0,P|481:60|482:100,1,80,2|8,1:0|0:0,0:0:0:0:
463,161,26941,2,0,L|443:204,1,26.6666666666667,8|2,0:0|1:0,0:0:0:0:
371,237,27333,1,8,1:2:0:0:
294,179,27627,2,0,P|220:155|145:177,1,160,2|0,1:0|1:0,0:0:0:0:
256,192,28804,12,0,30568,1:2:0:0:
36,196,31157,5,6,1:2:0:0:
36,100,31451,1,8,0:0:0:0:
120,56,31745,2,0,B|160:56|160:56|193:78,1,80,2|8,1:0|0:0,0:0:0:0:
256,152,32333,2,0,L|256:232,1,80,2|8,1:0|0:0,0:0:0:0:
256,296,32823,2,0,L|256:322,1,26.6666666666667,0|2,0:0|1:0,0:0:0:0:
348,348,33216,1,8,0:0:0:0:
444,332,33510,6,0,P|480:316|501:283,1,80,2|8,1:0|0:0,0:0:0:0:
416,240,34098,1,2,1:0:0:0:
416,144,34392,1,8,0:2:0:0:
501,101,34686,2,0,P|480:68|444:52,1,80,2|8,1:0|0:0,0:0:0:0:
380,52,35176,2,0,L|353:52,1,26.6666666666667,0|2,0:0|1:0,0:0:0:0:
256,44,35568,1,8,0:0:0:0:
171,100,35863,6,0,P|149:132|113:146,1,80,2|8,1:0|0:0,0:0:0:0:
16,144,36451,1,2,1:0:0:0:
16,244,36745,1,8,0:0:0:0:
113,237,37039,2,0,P|149:250|171:283,1,80,2|8,1:0|0:0,0:0:0:0:
172,348,37529,2,0,L|198:348,1,26.6666666666667,0|2,0:0|1:0,0:0:0:0:
296,348,37921,1,8,0:0:0:0:
388,320,38216,6,0,B|404:284|404:284|390:245,1,80,2|8,1:0|0:0,0:0:0:0:
340,164,38804,2,0,B|326:125|326:125|342:89,1,80,2|8,1:0|0:2,0:0:0:0:
304,0,39392,1,2,1:0:0:0:
208,0,39686,1,8,0:3:0:0:
156,80,39980,2,0,L|116:80,3,40,2|4|8|0,0:0|0:3|1:2|0:0,0:0:0:0:
68,80,40568,6,0,P|48:113|13:131,1,80,6|8,1:2|0:0,0:0:0:0:
3,223,41157,1,2,1:0:0:0:
59,300,41451,1,8,0:0:0:0:
125,369,41745,2,0,L|202:348,1,80,2|8,1:0|0:0,0:0:0:0:
265,338,42235,2,0,L|290:330,1,26.6666666666667,0|2,0:0|1:0,0:0:0:0:
373,282,42627,1,8,0:0:0:0:
376,187,42921,6,0,P|383:148|373:110,1,80,2|8,1:0|0:0,0:0:0:0:
308,40,43510,1,2,1:0:0:0:
204,40,43804,1,8,0:2:0:0:
137,110,44099,2,0,P|127:148|135:187,1,80,2|8,1:0|0:0,0:0:0:0:
180,236,44588,2,0,L|206:236,1,26.6666666666667,0|2,0:0|1:0,0:0:0:0:
304,236,44980,1,8,0:0:0:0:
332,353,45274,6,0,P|256:372|179:353,2,160,2|2|2,1:0|1:0|1:0,0:0:0:0:
420,316,46745,1,8,0:0:0:0:
376,232,47039,2,0,B|366:193|366:193|380:156,1,80,2|8,1:0|0:0,0:0:0:0:
420,68,47627,5,2,1:0:0:0:
332,28,47921,1,8,0:0:0:0:
256,88,48216,1,2,1:0:0:0:
180,28,48510,1,8,1:2:0:0:
92,68,48804,2,0,L|92:148,2,80,2|8|6,1:0|0:0|1:2,0:0:0:0:
92,260,49980,6,0,P|129:271|154:301,1,80,6|8,1:2|0:0,0:0:0:0:
208,380,50568,1,2,1:0:0:0:
304,380,50863,1,8,0:0:0:0:
418,259,51157,2,0,P|381:271|356:302,1,80,2|8,1:0|0:0,0:0:0:0:
256,272,51745,2,0,L|256:192,1,80,2|8,1:0|0:0,0:0:0:0:
192,120,52333,5,2,1:0:0:0:
256,48,52627,1,8,0:0:0:0:
320,120,52921,2,0,P|359:120|393:99,1,80,2|8,1:0|0:0,0:0:0:0:
408,88,53363,1,0,0:0:0:0:
424,76,53510,1,2,1:0:0:0:
504,124,53804,1,8,0:3:0:0:
436,191,54098,1,2,0:0:0:0:
504,260,54392,1,4,0:3:0:0:
412,356,54686,6,0,L|333:342,1,80,2|8,1:0|0:0,0:0:0:0:
248,299,55274,2,0,P|261:263|295:244,1,80,2|8,1:0|0:0,0:0:0:0:
316,248,55716,1,0,0:0:0:0:
336,252,55863,1,2,1:0:0:0:
428,224,56157,1,8,0:0:0:0:
407,131,56451,2,0,P|379:104|340:95,1,80,2|8,1:0|0:0,0:0:0:0:
320,96,56892,1,0,0:0:0:0:
300,96,57039,5,2,1:0:0:0:
204,112,57333,1,8,0:0:0:0:
256,192,57627,1,2,1:0:0:0:
204,272,57921,1,8,0:0:0:0:
300,288,58216,2,0,B|412:288|412:288|452:262,1,160,2|2,1:0|1:0,0:0:0:0:
499,76,59392,6,0,P|461:84|422:75,1,80,6|8,1:2|0:0,0:0:0:0:
360,4,59980,1,2,1:0:0:0:
296,76,60274,1,8,0:0:0:0:
211,27,60568,2,0,P|173:20|133:27,1,80,2|8,1:0|0:0,0:0:0:0:
83,108,61157,2,0,P|76:146|83:186,1,80,2|8,1:0|0:0,0:0:0:0:
184,216,61745,5,2,1:0:0:0:
256,152,62039,1,8,0:0:0:0:
328,216,62333,2,0,P|346:250|345:290,1,80,2|8,1:0|0:0,0:0:0:0:
340,309,62774,1,0,0:0:0:0:
333,326,62921,1,2,1:0:0:0:
242,358,63216,1,8,0:3:0:0:
150,323,63510,2,0,P|112:316|72:322,1,80,2|4,0:0|0:3,0:0:0:0:
15,207,64098,6,0,L|24:127,1,80,2|8,1:0|0:0,0:0:0:0:
82,51,64686,2,0,B|117:62|134:89|134:89|188:80,1,120,2|0,1:0|0:0,0:0:0:0:
232,70,65274,1,2,1:0:0:0:
324,52,65568,1,8,0:0:0:0:
416,80,65863,2,0,P|438:112|443:152,1,80,2|8,1:0|0:0,0:0:0:0:
378,296,66451,6,0,P|356:264|351:224,2,80,2|8|2,1:0|0:0|1:0,0:0:0:0:
305,359,67333,2,0,P|270:351|232:355,1,53.3333333333333,8|0,0:2|0:2,0:2:0:0:
221,355,67627,2,0,P|182:368|127:352,1,80,8|0,0:0|0:0,0:0:0:0:
90,327,68118,6,0,L|41:340,1,26.6666666666667,8|4,0:3|0:3,0:0:0:0:
90,233,68510,1,8,0:3:0:0:
178,280,68804,1,4,1:2:0:0:
