osu file format v14

[General]
AudioFilename: audio.mp3
AudioLeadIn: 0
PreviewTime: 49833
Countdown: 0
SampleSet: Soft
StackLeniency: 0.3
Mode: 0
LetterboxInBreaks: 0
WidescreenStoryboard: 0

[Editor]
Bookmarks: 48804,68804
DistanceSpacing: 1
BeatDivisor: 4
GridSize: 4
TimelineZoom: 1

[Metadata]
Title:Jingle Bells
TitleUnicode:ジングルベル
Artist:Nogizaka Haruka & Mika
ArtistUnicode:乃木坂春香&美夏
Creator:MkGuh
Version:Easy
Source:乃木坂春香の秘密ぴゃあれっつぁ♪
Tags:Snow Christmas Xmas White Santa no Himitsu: Purezza 後藤麻衣 能登麻美子 後藤麻衣 Noto Mamiko x Gotou Mai x-mas
BeatmapID:1120522
BeatmapSetID:528284

[Difficulty]
HPDrainRate:2
CircleSize:3
OverallDifficulty:2
ApproachRate:3
SliderMultiplier:1.2
SliderTickRate:1

[Events]
//Background and Video events
0,0,"christmasb g.jpg",0,0
//Break Periods
//Storyboard Layer 0 (Background)
//Storyboard Layer 1 (Fail)
//Storyboard Layer 2 (Pass)
//Storyboard Layer 3 (Foreground)
//Storyboard Sound Samples

[TimingPoints]
569,588.235294117647,4,2,2,50,1,0
9098,-100,4,2,2,60,0,0
9980,-100,4,2,2,60,0,1
10127,-100,4,2,2,60,0,0
19392,-100,4,2,2,60,0,1
19539,-100,4,2,2,60,0,0
28804,-100,4,2,2,60,0,0
49980,-100,4,2,2,70,0,1
58216,-100,4,2,2,60,0,0
59392,-100,4,2,2,70,0,1
68804,-100,4,2,2,60,0,0

[Colours]
Combo1 : 128,128,255
Combo2 : 220,180,90
Combo3 : 200,50,60
Combo4 : 70,180,60
Combo5 : 255,128,255

[HitObjects]
152,100,8804,5,0,0:0:0:0:
256,40,9392,1,4,0:3:0:0:
360,100,9980,6,0,L|424:100,2,60,6|8|2,1:2|0:0|1:0,0:0:0:0:
256,161,11157,2,0,L|255:298,2,120,2|2|2,1:0|1:0|1:0,0:0:0:0:
197,56,12921,1,2,1:0:0:0:
317,57,13510,2,0,P|403:94|444:84,1,120,2|2,1:0|0:0,0:0:0:0:
476,199,14686,6,0,P|460:224|436:241,2,60,2|8|2,1:0|0:0|1:0,0:0:0:0:
425,90,15863,2,0,P|379:65|307:82,1,120,2|2,1:0|1:0,0:0:0:0:
224,156,17039,1,2,1:0:0:0:
283,260,17627,1,2,1:0:0:0:
387,319,18216,2,0,B|416:258|387:199,1,120,2|2,1:0|1:0,0:0:0:0:
356,87,19392,6,0,L|336:19,2,60,6|8|2,1:2|0:0|1:0,0:0:0:0:
273,174,20568,2,0,L|140:207,2,120,2|2|2,1:0|1:0|1:0,0:0:0:0:
387,209,22333,1,2,1:0:0:0:
322,309,22921,2,0,L|205:337,1,120,2|2,1:0|1:0,0:0:0:0:
113,260,24098,6,0,P|85:292|77:328,2,60,2|8|2,1:0|0:0|1:0,0:0:0:0:
232,252,25274,2,0,P|219:192|177:152,1,120,2|2,1:0|1:0,0:0:0:0:
68,103,26451,2,0,P|124:45|277:85,1,240,2|2,1:0|1:0,0:0:0:0:
359,152,28216,1,0,1:0:0:0:
256,192,28804,12,6,31157,1:2:0:0:
256,67,32921,5,2,1:0:0:0:
348,144,33510,2,0,P|348:204|312:256,1,120,2|2,1:0|1:0,0:0:0:0:
196,252,34686,2,0,P|163:202|163:143,1,120,2|2,1:0|1:0,0:0:0:0:
72,64,35863,6,0,L|8:72,2,60,2|8|2,1:0|0:0|1:0,0:0:0:0:
163,143,37039,1,2,1:0:0:0:
268,84,37627,1,2,1:0:0:0:
372,144,38216,2,0,P|398:172|408:255,1,120,2|2,1:0|1:0,0:0:0:0:
291,226,39392,2,0,P|219:230|163:266,1,120,2|2,1:0|0:0,0:0:0:0:
87,331,40568,6,0,P|59:331|19:311,2,60,6|8|2,1:2|0:0|1:0,0:0:0:0:
177,252,41745,2,0,P|173:176|137:128,1,120,2|2,1:0|1:0,0:0:0:0:
239,59,42921,2,0,L|363:47,1,120,2|2,1:0|1:0,0:0:0:0:
410,155,44098,2,0,L|289:170,1,120,2|2,1:0|1:0,0:0:0:0:
173,192,45274,5,2,1:0:0:0:
84,273,45863,1,2,1:0:0:0:
171,354,46451,1,2,1:0:0:0:
255,269,47039,1,2,1:0:0:0:
338,355,47627,2,0,P|402:371|458:356,1,120,2|2,1:0|1:0,0:0:0:0:
488,243,48804,2,0,P|424:227|368:247,1,120,2|6,1:0|1:2,0:0:0:0:
257,270,49980,6,0,L|257:342,2,60,6|8|2,1:2|0:0|1:0,0:0:0:0:
166,190,51157,2,0,P|109:176|50:193,2,120,2|2|2,1:0|1:0|1:0,0:0:0:0:
272,134,52921,1,2,1:0:0:0:
376,75,53510,2,0,P|399:136|385:209,1,120,2|2,1:0|0:0,0:0:0:0:
436,301,54686,6,0,P|476:273|488:253,2,60,2|8|2,1:0|0:0|1:0,0:0:0:0:
326,350,55863,2,0,P|299:299|303:238,1,120,2|2,1:0|1:0,0:0:0:0:
366,136,57039,1,2,1:0:0:0:
255,89,57627,1,2,1:0:0:0:
144,135,58216,2,0,L|33:60,1,120,2|2,1:0|1:0,0:0:0:0:
152,15,59392,6,0,P|182:10|215:16,2,60,6|8|2,1:2|0:0|1:0,0:0:0:0:
44,67,60568,2,0,P|26:139|56:192,2,120,2|2|2,1:0|1:0|1:0,0:0:0:0:
151,120,62333,1,2,1:0:0:0:
264,158,62921,2,0,P|282:230|252:283,1,120,2|2,1:0|0:0,0:0:0:0:
160,329,64098,6,0,L|100:329,2,60,2|8|2,1:0|0:0|1:0,0:0:0:0:
264,269,65274,2,0,P|325:254|390:274,1,120,2|2,1:0|1:0,0:0:0:0:
495,236,66451,1,2,1:0:0:0:
455,122,67039,1,2,1:0:0:0:
336,101,67627,2,0,P|372:37|426:14,2,120,8|0|4,0:0|0:0|1:2,0:0:0:0:
