osu file format v14

[General]
AudioFilename: audio.mp3
AudioLeadIn: 0
PreviewTime: 20779
Countdown: 1
SampleSet: Normal
StackLeniency: 0.7
Mode: 1
LetterboxInBreaks: 0
WidescreenStoryboard: 1

[Editor]
Bookmarks: 10,10559,21108,31658,42207,52757
DistanceSpacing: 2
BeatDivisor: 4
GridSize: 32
TimelineZoom: 3.899999

[Metadata]
Title:Aether Ritual
TitleUnicode:Aether Ritual
Artist:Nog
ArtistUnicode:Nog
Creator:Kqrth
Version:Inner Oni
Source:
Tags:game music ost contest tribe groove african percussion
BeatmapID:1946932
BeatmapSetID:928431

[Difficulty]
HPDrainRate:6
CircleSize:2
OverallDifficulty:6
ApproachRate:10
SliderMultiplier:1.4
SliderTickRate:3

[Events]
//Background and Video events
0,0,"bg.jpg",0,0
//Break Periods
//Storyboard Layer 0 (Background)
//Storyboard Layer 1 (Fail)
//Storyboard Layer 2 (Pass)
//Storyboard Layer 3 (Foreground)
//Storyboard Sound Samples

[TimingPoints]
10,329.67032967033,4,1,0,50,1,0
21108,-100,4,1,0,50,0,1
26053,-100,4,1,0,50,0,0
26383,-100,4,1,0,50,0,1
31658,-100,4,1,0,50,0,0
52757,-100,4,1,0,50,0,1
53416,-100,4,1,0,50,0,0

[HitObjects]
256,192,10,5,0,0:0:0:0:
256,192,669,1,8,0:0:0:0:
256,192,999,1,0,0:0:0:0:
256,192,1163,1,8,0:0:0:0:
256,192,1328,1,0,0:0:0:0:
256,192,2317,1,0,0:0:0:0:
256,192,2647,1,0,0:0:0:0:
256,192,3306,1,8,0:0:0:0:
256,192,3636,1,0,0:0:0:0:
256,192,3801,1,8,0:0:0:0:
256,192,3966,1,0,0:0:0:0:
256,192,4460,1,0,0:0:0:0:
256,192,4955,1,0,0:0:0:0:
256,192,5284,1,0,0:0:0:0:
256,192,5944,1,8,0:0:0:0:
256,192,6273,1,0,0:0:0:0:
256,192,6438,1,8,0:0:0:0:
256,192,6603,1,0,0:0:0:0:
256,192,7592,1,0,0:0:0:0:
256,192,7922,1,0,0:0:0:0:
256,192,8581,1,8,0:0:0:0:
256,192,8911,1,0,0:0:0:0:
256,192,9075,1,8,0:0:0:0:
256,192,9240,1,0,0:0:0:0:
256,192,9735,1,0,0:0:0:0:
256,192,10229,1,0,0:0:0:0:
256,192,10559,5,8,0:0:0:0:
256,192,10641,1,8,0:0:0:0:
256,192,10724,5,0,0:0:0:0:
256,192,10806,1,0,0:0:0:0:
256,192,10889,1,8,0:0:0:0:
256,192,11053,5,0,0:0:0:0:
256,192,11218,1,8,0:0:0:0:
256,192,11260,1,8,0:0:0:0:
256,192,11383,5,8,0:0:0:0:
256,192,11424,1,8,0:0:0:0:
256,192,11548,1,0,0:0:0:0:
256,192,11589,1,0,0:0:0:0:
256,192,11713,5,8,0:0:0:0:
256,192,11754,5,8,0:0:0:0:
256,192,11878,5,0,0:0:0:0:
256,192,11960,1,0,0:0:0:0:
256,192,12042,5,0,0:0:0:0:
256,192,12125,1,0,0:0:0:0:
256,192,12207,1,8,0:0:0:0:
256,192,12372,5,0,0:0:0:0:
256,192,12537,1,8,0:0:0:0:
256,192,12578,1,8,0:0:0:0:
256,192,12702,5,8,0:0:0:0:
256,192,12743,1,8,0:0:0:0:
256,192,12867,1,0,0:0:0:0:
256,192,12908,1,0,0:0:0:0:
256,192,13196,5,8,0:0:0:0:
256,192,13279,1,8,0:0:0:0:
256,192,13361,5,0,0:0:0:0:
256,192,13444,1,0,0:0:0:0:
256,192,13526,1,8,0:0:0:0:
256,192,13691,5,0,0:0:0:0:
256,192,13856,1,8,0:0:0:0:
256,192,13897,1,8,0:0:0:0:
256,192,14020,5,8,0:0:0:0:
256,192,14062,1,8,0:0:0:0:
256,192,14185,1,0,0:0:0:0:
256,192,14227,1,0,0:0:0:0:
256,192,14350,5,8,0:0:0:0:
256,192,14391,5,8,0:0:0:0:
256,192,14515,5,0,0:0:0:0:
256,192,14680,5,0,0:0:0:0:
256,192,14845,1,8,0:0:0:0:
256,192,15010,5,0,0:0:0:0:
256,192,15174,1,8,0:0:0:0:
256,192,15216,1,8,0:0:0:0:
256,192,15339,5,8,0:0:0:0:
256,192,15380,1,8,0:0:0:0:
256,192,15504,1,0,0:0:0:0:
256,192,15545,1,0,0:0:0:0:
256,192,15834,5,8,0:0:0:0:
256,192,15916,1,8,0:0:0:0:
256,192,15999,5,0,0:0:0:0:
256,192,16081,1,0,0:0:0:0:
256,192,16163,1,8,0:0:0:0:
256,192,16328,5,0,0:0:0:0:
256,192,16493,1,8,0:0:0:0:
256,192,16534,1,8,0:0:0:0:
256,192,16658,5,8,0:0:0:0:
256,192,16699,1,8,0:0:0:0:
256,192,16823,1,0,0:0:0:0:
256,192,16864,1,0,0:0:0:0:
256,192,16988,5,8,0:0:0:0:
256,192,17029,5,8,0:0:0:0:
256,192,17152,5,0,0:0:0:0:
256,192,17235,1,0,0:0:0:0:
256,192,17317,5,0,0:0:0:0:
256,192,17400,1,0,0:0:0:0:
256,192,17482,1,8,0:0:0:0:
256,192,17647,5,0,0:0:0:0:
256,192,17812,1,8,0:0:0:0:
256,192,17853,1,8,0:0:0:0:
256,192,17977,5,8,0:0:0:0:
256,192,18018,1,8,0:0:0:0:
256,192,18141,1,0,0:0:0:0:
256,192,18183,1,0,0:0:0:0:
256,192,18471,5,8,0:0:0:0:
256,192,18553,1,8,0:0:0:0:
256,192,18636,5,0,0:0:0:0:
256,192,18718,1,0,0:0:0:0:
256,192,18801,1,8,0:0:0:0:
256,192,18966,5,0,0:0:0:0:
256,192,19130,1,8,0:0:0:0:
256,192,19172,1,8,0:0:0:0:
256,192,19295,5,8,0:0:0:0:
256,192,19336,1,8,0:0:0:0:
256,192,19460,1,0,0:0:0:0:
256,192,19501,1,0,0:0:0:0:
256,192,19625,5,8,0:0:0:0:
256,192,19666,5,8,0:0:0:0:
256,192,19790,5,0,0:0:0:0:
256,192,19955,5,0,0:0:0:0:
256,192,20119,1,8,0:0:0:0:
256,192,20284,5,0,0:0:0:0:
256,192,20449,1,8,0:0:0:0:
256,192,20490,1,8,0:0:0:0:
256,192,20614,5,8,0:0:0:0:
256,192,20655,1,8,0:0:0:0:
256,192,20779,1,0,0:0:0:0:
256,192,20820,1,0,0:0:0:0:
256,192,21108,1,8,0:0:0:0:
256,192,21218,1,8,0:0:0:0:
256,192,21328,1,8,0:0:0:0:
256,192,21438,1,8,0:0:0:0:
256,192,21603,1,0,0:0:0:0:
256,192,21768,1,8,0:0:0:0:
256,192,21933,1,8,0:0:0:0:
256,192,22097,1,0,0:0:0:0:
256,192,22427,1,0,0:0:0:0:
256,192,22537,1,0,0:0:0:0:
256,192,22647,1,0,0:0:0:0:
256,192,22757,1,0,0:0:0:0:
256,192,22922,1,0,0:0:0:0:
256,192,23086,1,8,0:0:0:0:
256,192,23251,1,8,0:0:0:0:
256,192,23416,1,0,0:0:0:0:
256,192,23746,1,8,0:0:0:0:
256,192,23856,1,8,0:0:0:0:
256,192,23966,1,8,0:0:0:0:
256,192,24075,1,8,0:0:0:0:
256,192,24240,1,0,0:0:0:0:
256,192,24405,1,8,0:0:0:0:
256,192,24570,1,8,0:0:0:0:
256,192,24735,1,0,0:0:0:0:
256,192,25064,1,0,0:0:0:0:
256,192,25174,1,0,0:0:0:0:
256,192,25284,1,0,0:0:0:0:
256,192,25394,1,0,0:0:0:0:
256,192,25559,1,0,0:0:0:0:
256,192,25724,1,8,0:0:0:0:
256,192,25889,1,8,0:0:0:0:
256,192,26053,1,0,0:0:0:0:
256,192,26383,1,8,0:0:0:0:
256,192,26493,1,8,0:0:0:0:
256,192,26603,1,8,0:0:0:0:
256,192,26713,1,8,0:0:0:0:
256,192,26878,1,0,0:0:0:0:
256,192,27042,1,8,0:0:0:0:
256,192,27207,1,8,0:0:0:0:
256,192,27372,1,0,0:0:0:0:
256,192,27702,1,0,0:0:0:0:
256,192,27812,1,0,0:0:0:0:
256,192,27922,1,0,0:0:0:0:
256,192,28031,1,0,0:0:0:0:
256,192,28196,1,0,0:0:0:0:
256,192,28361,1,8,0:0:0:0:
256,192,28526,1,8,0:0:0:0:
256,192,28691,1,0,0:0:0:0:
256,192,29020,1,8,0:0:0:0:
256,192,29130,1,8,0:0:0:0:
256,192,29240,1,8,0:0:0:0:
256,192,29350,1,8,0:0:0:0:
256,192,29515,1,0,0:0:0:0:
256,192,29680,1,8,0:0:0:0:
256,192,29845,1,8,0:0:0:0:
256,192,30010,1,0,0:0:0:0:
256,192,30339,1,0,0:0:0:0:
256,192,30449,1,0,0:0:0:0:
256,192,30559,1,0,0:0:0:0:
256,192,30669,1,0,0:0:0:0:
256,192,30834,1,0,0:0:0:0:
256,192,30999,1,8,0:0:0:0:
256,192,31163,1,8,0:0:0:0:
256,192,31328,1,0,0:0:0:0:
256,192,31658,5,8,0:0:0:0:
256,192,31740,1,8,0:0:0:0:
256,192,31823,5,0,0:0:0:0:
256,192,31905,1,0,0:0:0:0:
256,192,31988,1,8,0:0:0:0:
256,192,32152,5,0,0:0:0:0:
256,192,32317,1,8,0:0:0:0:
256,192,32358,1,8,0:0:0:0:
256,192,32482,5,8,0:0:0:0:
256,192,32523,1,8,0:0:0:0:
256,192,32647,1,0,0:0:0:0:
256,192,32688,1,0,0:0:0:0:
256,192,32812,5,8,0:0:0:0:
256,192,32853,5,8,0:0:0:0:
256,192,32977,5,0,0:0:0:0:
256,192,33059,1,0,0:0:0:0:
256,192,33141,5,0,0:0:0:0:
256,192,33224,1,0,0:0:0:0:
256,192,33306,1,8,0:0:0:0:
256,192,33471,5,0,0:0:0:0:
256,192,33636,1,8,0:0:0:0:
256,192,33677,1,8,0:0:0:0:
256,192,33801,5,8,0:0:0:0:
256,192,33842,1,8,0:0:0:0:
256,192,33966,1,0,0:0:0:0:
256,192,34007,1,0,0:0:0:0:
256,192,34295,5,8,0:0:0:0:
256,192,34378,1,8,0:0:0:0:
256,192,34460,5,0,0:0:0:0:
256,192,34542,1,0,0:0:0:0:
256,192,34625,1,8,0:0:0:0:
256,192,34790,5,0,0:0:0:0:
256,192,34955,1,8,0:0:0:0:
256,192,34996,1,8,0:0:0:0:
256,192,35119,5,8,0:0:0:0:
256,192,35161,1,8,0:0:0:0:
256,192,35284,1,0,0:0:0:0:
256,192,35325,1,0,0:0:0:0:
256,192,35449,5,8,0:0:0:0:
256,192,35490,5,8,0:0:0:0:
256,192,35614,5,0,0:0:0:0:
256,192,35779,5,0,0:0:0:0:
256,192,35944,1,8,0:0:0:0:
256,192,36108,5,0,0:0:0:0:
256,192,36273,1,8,0:0:0:0:
256,192,36314,1,8,0:0:0:0:
256,192,36438,5,8,0:0:0:0:
256,192,36479,1,8,0:0:0:0:
256,192,36603,1,0,0:0:0:0:
256,192,36644,1,0,0:0:0:0:
256,192,36933,5,8,0:0:0:0:
256,192,37015,1,8,0:0:0:0:
256,192,37097,5,0,0:0:0:0:
256,192,37180,1,0,0:0:0:0:
256,192,37262,1,8,0:0:0:0:
256,192,37427,5,0,0:0:0:0:
256,192,37592,1,8,0:0:0:0:
256,192,37633,1,8,0:0:0:0:
256,192,37757,5,8,0:0:0:0:
256,192,37798,1,8,0:0:0:0:
256,192,37922,1,0,0:0:0:0:
256,192,37963,1,0,0:0:0:0:
256,192,38086,5,8,0:0:0:0:
256,192,38128,5,8,0:0:0:0:
256,192,38251,5,0,0:0:0:0:
256,192,38334,1,0,0:0:0:0:
256,192,38416,5,0,0:0:0:0:
256,192,38499,1,0,0:0:0:0:
256,192,38581,1,8,0:0:0:0:
256,192,38746,5,0,0:0:0:0:
256,192,38911,1,8,0:0:0:0:
256,192,38952,1,8,0:0:0:0:
256,192,39075,5,8,0:0:0:0:
256,192,39117,1,8,0:0:0:0:
256,192,39240,1,0,0:0:0:0:
256,192,39281,1,0,0:0:0:0:
256,192,39570,5,8,0:0:0:0:
256,192,39652,1,8,0:0:0:0:
256,192,39735,5,0,0:0:0:0:
256,192,39817,1,0,0:0:0:0:
256,192,39900,1,8,0:0:0:0:
256,192,40064,5,0,0:0:0:0:
256,192,40229,1,8,0:0:0:0:
256,192,40270,1,8,0:0:0:0:
256,192,40394,5,8,0:0:0:0:
256,192,40435,1,8,0:0:0:0:
256,192,40559,1,0,0:0:0:0:
256,192,40600,1,0,0:0:0:0:
256,192,40724,5,8,0:0:0:0:
256,192,40765,5,8,0:0:0:0:
256,192,40889,5,0,0:0:0:0:
256,192,41053,5,0,0:0:0:0:
256,192,41218,1,8,0:0:0:0:
256,192,41383,5,0,0:0:0:0:
256,192,41548,1,8,0:0:0:0:
256,192,41589,1,8,0:0:0:0:
256,192,41713,5,8,0:0:0:0:
256,192,41754,1,8,0:0:0:0:
256,192,41878,1,0,0:0:0:0:
256,192,41919,1,0,0:0:0:0:
256,192,42207,1,0,0:0:0:0:
256,192,42867,1,8,0:0:0:0:
256,192,43196,1,0,0:0:0:0:
256,192,43361,1,8,0:0:0:0:
256,192,43526,1,0,0:0:0:0:
256,192,44515,1,0,0:0:0:0:
256,192,44845,1,0,0:0:0:0:
256,192,45504,1,8,0:0:0:0:
256,192,45834,1,0,0:0:0:0:
256,192,45999,1,8,0:0:0:0:
256,192,46163,1,0,0:0:0:0:
256,192,46658,1,0,0:0:0:0:
256,192,47152,1,0,0:0:0:0:
256,192,47482,1,0,0:0:0:0:
256,192,48141,1,8,0:0:0:0:
256,192,48471,1,0,0:0:0:0:
256,192,48636,1,8,0:0:0:0:
256,192,48801,1,0,0:0:0:0:
256,192,49790,1,0,0:0:0:0:
256,192,50119,1,0,0:0:0:0:
256,192,50779,1,8,0:0:0:0:
256,192,51108,1,0,0:0:0:0:
256,192,51273,1,8,0:0:0:0:
256,192,51438,1,0,0:0:0:0:
256,192,51933,1,0,0:0:0:0:
256,192,52427,1,0,0:0:0:0:
256,192,52757,5,12,0:0:0:0:
