osu file format v14

[General]
AudioFilename: audio.mp3
AudioLeadIn: 0
PreviewTime: 20779
Countdown: 1
SampleSet: Normal
StackLeniency: 0.7
Mode: 1
LetterboxInBreaks: 0
WidescreenStoryboard: 1

[Editor]
Bookmarks: 10,10559,21108,31658,42207,52757
DistanceSpacing: 2
BeatDivisor: 2
GridSize: 32
TimelineZoom: 1.2

[Metadata]
Title:Aether Ritual
TitleUnicode:Aether Ritual
Artist:Nog
ArtistUnicode:Nog
Creator:Kqrth
Version:Futsuu
Source:
Tags:game music ost contest tribe groove african percussion
BeatmapID:1939220
BeatmapSetID:928431

[Difficulty]
HPDrainRate:6
CircleSize:2
OverallDifficulty:4
ApproachRate:10
SliderMultiplier:1.4
SliderTickRate:3

[Events]
//Background and Video events
0,0,"bg.jpg",0,0
//Break Periods
//Storyboard Layer 0 (Background)
//Storyboard Layer 1 (Fail)
//Storyboard Layer 2 (Pass)
//Storyboard Layer 3 (Foreground)
//Storyboard Sound Samples

[TimingPoints]
10,329.67032967033,4,1,0,50,1,0
21108,-100,4,1,0,50,0,1
26053,-100,4,1,0,50,0,0
26383,-100,4,1,0,50,0,1
31658,-100,4,1,0,50,0,0
52757,-100,4,1,0,50,0,1
53416,-100,4,1,0,50,0,0

[HitObjects]
256,192,10,5,0,0:0:0:0:
256,192,999,1,0,0:0:0:0:
256,192,1328,1,0,0:0:0:0:
256,192,2317,1,0,0:0:0:0:
256,192,2647,1,0,0:0:0:0:
256,192,3636,1,0,0:0:0:0:
256,192,3966,1,0,0:0:0:0:
256,192,4460,1,0,0:0:0:0:
256,192,4955,1,0,0:0:0:0:
256,192,5284,1,8,0:0:0:0:
256,192,6273,1,0,0:0:0:0:
256,192,6603,1,0,0:0:0:0:
256,192,7592,1,0,0:0:0:0:
256,192,7922,1,0,0:0:0:0:
256,192,8911,1,0,0:0:0:0:
256,192,9240,1,0,0:0:0:0:
256,192,9735,1,0,0:0:0:0:
256,192,10229,1,0,0:0:0:0:
256,192,10559,1,8,0:0:0:0:
256,192,10724,1,8,0:0:0:0:
256,192,11053,1,8,0:0:0:0:
256,192,11548,1,0,0:0:0:0:
256,192,11878,1,0,0:0:0:0:
256,192,12042,1,0,0:0:0:0:
256,192,12372,1,8,0:0:0:0:
256,192,12867,1,0,0:0:0:0:
256,192,13196,1,0,0:0:0:0:
256,192,13361,1,8,0:0:0:0:
256,192,13691,1,8,0:0:0:0:
256,192,14020,1,8,0:0:0:0:
256,192,14185,1,0,0:0:0:0:
256,192,14515,1,8,0:0:0:0:
256,192,14845,1,0,0:0:0:0:
256,192,15010,1,8,0:0:0:0:
256,192,15834,1,8,0:0:0:0:
256,192,15999,1,8,0:0:0:0:
256,192,16328,1,8,0:0:0:0:
256,192,16823,1,0,0:0:0:0:
256,192,17152,1,0,0:0:0:0:
256,192,17317,1,0,0:0:0:0:
256,192,17647,1,8,0:0:0:0:
256,192,18141,1,0,0:0:0:0:
256,192,18471,1,0,0:0:0:0:
256,192,18636,1,8,0:0:0:0:
256,192,18966,1,8,0:0:0:0:
256,192,19295,1,8,0:0:0:0:
256,192,19460,1,0,0:0:0:0:
256,192,19790,1,8,0:0:0:0:
256,192,20119,1,0,0:0:0:0:
256,192,20284,1,8,0:0:0:0:
256,192,21108,1,12,0:0:0:0:
256,192,21603,1,8,0:0:0:0:
256,192,22097,1,0,0:0:0:0:
256,192,22427,1,8,0:0:0:0:
256,192,22592,1,0,0:0:0:0:
256,192,22922,1,8,0:0:0:0:
256,192,23416,1,0,0:0:0:0:
256,192,23746,1,8,0:0:0:0:
256,192,24240,1,8,0:0:0:0:
256,192,24735,1,0,0:0:0:0:
256,192,25064,1,8,0:0:0:0:
256,192,25394,1,0,0:0:0:0:
256,192,25559,1,8,0:0:0:0:
256,192,26383,1,12,0:0:0:0:
256,192,26878,1,8,0:0:0:0:
256,192,27372,1,0,0:0:0:0:
256,192,27702,1,8,0:0:0:0:
256,192,27867,1,0,0:0:0:0:
256,192,28196,1,8,0:0:0:0:
256,192,28691,1,0,0:0:0:0:
256,192,29020,1,8,0:0:0:0:
256,192,29515,1,8,0:0:0:0:
256,192,30010,1,0,0:0:0:0:
256,192,30339,1,8,0:0:0:0:
256,192,30669,1,0,0:0:0:0:
256,192,30834,1,8,0:0:0:0:
256,192,31658,5,8,0:0:0:0:
256,192,31823,1,8,0:0:0:0:
256,192,32152,5,8,0:0:0:0:
256,192,32647,1,0,0:0:0:0:
256,192,32977,1,0,0:0:0:0:
256,192,33141,1,0,0:0:0:0:
256,192,33471,1,8,0:0:0:0:
256,192,33966,1,0,0:0:0:0:
256,192,34295,1,0,0:0:0:0:
256,192,34460,1,8,0:0:0:0:
256,192,34790,1,8,0:0:0:0:
256,192,35119,1,8,0:0:0:0:
256,192,35284,1,0,0:0:0:0:
256,192,35614,1,8,0:0:0:0:
256,192,35944,1,0,0:0:0:0:
256,192,36108,1,8,0:0:0:0:
256,192,36933,1,8,0:0:0:0:
256,192,37097,1,8,0:0:0:0:
256,192,37427,1,8,0:0:0:0:
256,192,37922,1,0,0:0:0:0:
256,192,38251,1,0,0:0:0:0:
256,192,38416,1,0,0:0:0:0:
256,192,38746,1,8,0:0:0:0:
256,192,39240,1,0,0:0:0:0:
256,192,39570,1,0,0:0:0:0:
256,192,39735,1,8,0:0:0:0:
256,192,40064,1,8,0:0:0:0:
256,192,40394,1,8,0:0:0:0:
256,192,40559,1,0,0:0:0:0:
256,192,40889,1,8,0:0:0:0:
256,192,41218,1,0,0:0:0:0:
256,192,41383,1,8,0:0:0:0:
256,192,42207,1,8,0:0:0:0:
256,192,43196,5,0,0:0:0:0:
256,192,43526,1,0,0:0:0:0:
256,192,44515,1,0,0:0:0:0:
256,192,44845,1,0,0:0:0:0:
256,192,45834,1,0,0:0:0:0:
256,192,46163,1,0,0:0:0:0:
256,192,46658,1,0,0:0:0:0:
256,192,47152,1,0,0:0:0:0:
256,192,47482,1,8,0:0:0:0:
256,192,48471,1,0,0:0:0:0:
256,192,48801,1,0,0:0:0:0:
256,192,49790,1,0,0:0:0:0:
256,192,50119,1,0,0:0:0:0:
256,192,51108,1,0,0:0:0:0:
256,192,51438,1,0,0:0:0:0:
256,192,51933,1,0,0:0:0:0:
256,192,52427,1,0,0:0:0:0:
256,192,52757,1,12,0:0:0:0:
