osu file format v14

[General]
AudioFilename: audio.mp3
AudioLeadIn: 0
PreviewTime: 9276
Countdown: 1
SampleSet: Normal
StackLeniency: 0.7
Mode: 1
LetterboxInBreaks: 0
WidescreenStoryboard: 0

[Editor]
DistanceSpacing: 1
BeatDivisor: 4
GridSize: 32
TimelineZoom: 3.499999

[Metadata]
Title:Aether Ronaldo
TitleUnicode:Aether Ronaldo
Artist:Nog (feat. Sorrizo Ronaldo)
ArtistUnicode:Nog (feat. Sorrizo Ronaldo)
Creator:Skull Kid
Version:Ritual Oni
Source:
Tags:HiroK mashup game music ost contest tribe groove african percussion Kqrth
BeatmapID:1996370
BeatmapSetID:955661

[Difficulty]
HPDrainRate:2.5
CircleSize:4
OverallDifficulty:7
ApproachRate:9
SliderMultiplier:1.4
SliderTickRate:1

[Events]
//Background and Video events
0,0,"BG.jpg",0,90
//Break Periods
//Storyboard Layer 0 (Background)
//Storyboard Layer 1 (Fail)
//Storyboard Layer 2 (Pass)
//Storyboard Layer 3 (Foreground)
//Storyboard Sound Samples

[TimingPoints]
46,329.67032967033,4,1,0,50,1,0
9606,-83.3333333333333,4,1,0,50,0,0
9936,-71.4285714285714,4,1,0,50,0,0
10265,-62.5,4,1,0,50,0,0
10430,-62.5,4,1,0,70,0,0
10595,-55.5555555555556,4,1,0,70,0,1
12738,-50,4,1,0,70,0,1
12903,-45.4545454545455,4,1,0,70,0,1
13067,-41.6666666666667,4,1,0,70,0,1
13232,-55.5555555555556,4,1,0,70,0,1
15375,-50,4,1,0,70,0,1
15540,-45.4545454545455,4,1,0,70,0,1
15705,-41.6666666666667,4,1,0,70,0,1
15870,-55.5555555555556,4,1,0,70,0,1
18013,-50,4,1,0,70,0,1
18177,-45.4545454545455,4,1,0,70,0,1
18342,-41.6666666666667,4,1,0,70,0,1
18507,-55.5555555555556,4,1,0,70,0,1
20650,-50,4,1,0,70,0,1
20815,-45.4545454545455,4,1,0,70,0,1
20980,-41.6666666666667,4,1,0,70,0,1
21144,-66.6666666666667,4,1,0,70,0,0
24194,-67.7966101694915,4,1,0,70,0,0
24276,-68.9655172413793,4,1,0,70,0,0
24359,-70.1754385964912,4,1,0,70,0,0
24441,-71.4285714285714,4,1,0,70,0,0
24606,-72.7272727272727,4,1,0,70,0,0
24688,-74.0740740740741,4,1,0,70,0,0
24771,-75.4716981132076,4,1,0,70,0,0
24936,-76.9230769230769,4,1,0,70,0,0
25100,-78.4313725490196,4,1,0,70,0,0
25183,-80,4,1,0,70,0,0
25265,-81.6326530612245,4,1,0,70,0,0
25348,-82.815734989648,4,1,0,70,0,0
25430,-83.3333333333333,4,1,0,70,0,0
30705,-74.0740740740741,4,1,0,70,0,0
31035,-66.6666666666667,4,1,0,70,0,0
31364,-60.6060606060606,4,1,0,70,0,0
31694,-55.5555555555556,4,1,0,70,0,1
33837,-50,4,1,0,70,0,1
34002,-45.4545454545455,4,1,0,70,0,1
34166,-41.6666666666667,4,1,0,70,0,1
34331,-55.5555555555556,4,1,0,70,0,1
36474,-50,4,1,0,70,0,1
36639,-45.4545454545455,4,1,0,70,0,1
36804,-41.6666666666667,4,1,0,70,0,1
36969,-55.5555555555556,4,1,0,70,0,1
39111,-50,4,1,0,70,0,1
39276,-45.4545454545455,4,1,0,70,0,1
39441,-41.6666666666667,4,1,0,70,0,1
39606,-55.5555555555556,4,1,0,70,0,1
41749,-50,4,1,0,70,0,1
41914,-45.4545454545455,4,1,0,70,0,1
42078,-41.6666666666667,4,1,0,70,0,1
42161,-41.6666666666667,4,1,0,50,0,1
42243,-100,4,1,0,50,0,0

[HitObjects]
256,192,46,5,4,0:0:0:0:
256,192,705,1,8,0:0:0:0:
256,192,1035,1,0,0:0:0:0:
256,192,1199,1,8,0:0:0:0:
256,192,1364,1,0,0:0:0:0:
256,192,2353,1,0,0:0:0:0:
256,192,2683,1,0,0:0:0:0:
256,192,3342,1,8,0:0:0:0:
256,192,3672,1,0,0:0:0:0:
256,192,3837,1,8,0:0:0:0:
256,192,4002,1,0,0:0:0:0:
256,192,4496,1,0,0:0:0:0:
256,192,4991,1,0,0:0:0:0:
256,192,5320,1,0,0:0:0:0:
256,192,5980,1,8,0:0:0:0:
256,192,6309,1,0,0:0:0:0:
256,192,6474,1,8,0:0:0:0:
256,192,6639,1,0,0:0:0:0:
256,192,7628,1,0,0:0:0:0:
256,192,7958,1,0,0:0:0:0:
256,192,8617,1,8,0:0:0:0:
256,192,8947,1,0,0:0:0:0:
256,192,9111,1,0,0:0:0:0:
256,192,9276,1,12,0:0:0:0:
256,192,9606,1,12,0:0:0:0:
256,192,9936,1,4,0:0:0:0:
256,192,10265,1,4,0:0:0:0:
256,192,10595,1,8,0:0:0:0:
256,192,10616,1,0,0:0:0:0:
256,192,10677,1,8,0:0:0:0:
256,192,10698,1,0,0:0:0:0:
256,192,10760,1,8,0:0:0:0:
256,192,10781,1,0,0:0:0:0:
256,192,10842,1,8,0:0:0:0:
256,192,10863,1,0,0:0:0:0:
256,192,10925,1,8,0:0:0:0:
256,192,10946,1,0,0:0:0:0:
256,192,11007,1,8,0:0:0:0:
256,192,11028,1,0,0:0:0:0:
256,192,11090,1,8,0:0:0:0:
256,192,11111,1,0,0:0:0:0:
256,192,11172,1,8,0:0:0:0:
256,192,11193,1,0,0:0:0:0:
256,192,11254,1,8,0:0:0:0:
256,192,11275,1,0,0:0:0:0:
256,192,11336,1,8,0:0:0:0:
256,192,11357,1,0,0:0:0:0:
256,192,11419,1,8,0:0:0:0:
256,192,11440,1,0,0:0:0:0:
256,192,11501,1,8,0:0:0:0:
256,192,11522,1,0,0:0:0:0:
256,192,11584,1,8,0:0:0:0:
256,192,11605,1,0,0:0:0:0:
256,192,11666,1,8,0:0:0:0:
256,192,11687,1,0,0:0:0:0:
256,192,11749,1,8,0:0:0:0:
256,192,11770,1,0,0:0:0:0:
256,192,11831,1,8,0:0:0:0:
256,192,11852,1,0,0:0:0:0:
256,192,11914,1,8,0:0:0:0:
256,192,11935,1,0,0:0:0:0:
256,192,11996,1,8,0:0:0:0:
256,192,12017,1,0,0:0:0:0:
256,192,12079,1,8,0:0:0:0:
256,192,12100,1,0,0:0:0:0:
256,192,12161,1,8,0:0:0:0:
256,192,12182,1,0,0:0:0:0:
256,192,12243,1,8,0:0:0:0:
256,192,12264,1,0,0:0:0:0:
256,192,12325,1,8,0:0:0:0:
256,192,12346,1,0,0:0:0:0:
256,192,12408,1,8,0:0:0:0:
256,192,12429,1,0,0:0:0:0:
256,192,12490,1,8,0:0:0:0:
256,192,12511,1,0,0:0:0:0:
256,192,12573,1,12,0:0:0:0:
256,192,12738,1,12,0:0:0:0:
256,192,12903,1,12,0:0:0:0:
256,192,13067,1,12,0:0:0:0:
256,192,13232,1,0,0:0:0:0:
256,192,13253,1,8,0:0:0:0:
256,192,13315,1,0,0:0:0:0:
256,192,13336,1,8,0:0:0:0:
256,192,13397,1,0,0:0:0:0:
256,192,13418,1,8,0:0:0:0:
256,192,13480,1,0,0:0:0:0:
256,192,13501,1,8,0:0:0:0:
256,192,13562,1,0,0:0:0:0:
256,192,13583,1,8,0:0:0:0:
256,192,13645,1,0,0:0:0:0:
256,192,13666,1,8,0:0:0:0:
256,192,13727,1,0,0:0:0:0:
256,192,13748,1,8,0:0:0:0:
256,192,13810,1,0,0:0:0:0:
256,192,13831,1,8,0:0:0:0:
256,192,13892,1,0,0:0:0:0:
256,192,13913,1,8,0:0:0:0:
256,192,13975,1,0,0:0:0:0:
256,192,13996,1,8,0:0:0:0:
256,192,14057,1,0,0:0:0:0:
256,192,14078,1,8,0:0:0:0:
256,192,14140,1,0,0:0:0:0:
256,192,14161,1,8,0:0:0:0:
256,192,14221,1,0,0:0:0:0:
256,192,14242,1,8,0:0:0:0:
256,192,14304,1,0,0:0:0:0:
256,192,14325,1,8,0:0:0:0:
256,192,14386,1,0,0:0:0:0:
256,192,14407,1,8,0:0:0:0:
256,192,14469,1,0,0:0:0:0:
256,192,14490,1,8,0:0:0:0:
256,192,14551,1,0,0:0:0:0:
256,192,14572,1,8,0:0:0:0:
256,192,14634,1,0,0:0:0:0:
256,192,14655,1,8,0:0:0:0:
256,192,14716,1,0,0:0:0:0:
256,192,14737,1,8,0:0:0:0:
256,192,14799,1,0,0:0:0:0:
256,192,14820,1,8,0:0:0:0:
256,192,14881,1,0,0:0:0:0:
256,192,14902,1,8,0:0:0:0:
256,192,14964,1,0,0:0:0:0:
256,192,14985,1,8,0:0:0:0:
256,192,15046,1,0,0:0:0:0:
256,192,15067,1,8,0:0:0:0:
256,192,15129,1,0,0:0:0:0:
256,192,15150,1,8,0:0:0:0:
256,192,15210,1,4,0:0:0:0:
256,192,15375,1,4,0:0:0:0:
256,192,15540,1,4,0:0:0:0:
256,192,15705,1,4,0:0:0:0:
256,192,15870,1,8,0:0:0:0:
256,192,15891,1,0,0:0:0:0:
256,192,15952,1,8,0:0:0:0:
256,192,15973,1,0,0:0:0:0:
256,192,16035,1,8,0:0:0:0:
256,192,16056,1,0,0:0:0:0:
256,192,16117,1,8,0:0:0:0:
256,192,16138,1,0,0:0:0:0:
256,192,16200,1,8,0:0:0:0:
256,192,16221,1,0,0:0:0:0:
256,192,16282,1,8,0:0:0:0:
256,192,16303,1,0,0:0:0:0:
256,192,16365,1,8,0:0:0:0:
256,192,16386,1,0,0:0:0:0:
256,192,16447,1,8,0:0:0:0:
256,192,16468,1,0,0:0:0:0:
256,192,16529,1,8,0:0:0:0:
256,192,16550,1,0,0:0:0:0:
256,192,16611,1,8,0:0:0:0:
256,192,16632,1,0,0:0:0:0:
256,192,16694,1,8,0:0:0:0:
256,192,16715,1,0,0:0:0:0:
256,192,16776,1,8,0:0:0:0:
256,192,16797,1,0,0:0:0:0:
256,192,16859,1,8,0:0:0:0:
256,192,16880,1,0,0:0:0:0:
256,192,16941,1,8,0:0:0:0:
256,192,16962,1,0,0:0:0:0:
256,192,17024,1,8,0:0:0:0:
256,192,17045,1,0,0:0:0:0:
256,192,17106,1,8,0:0:0:0:
256,192,17127,1,0,0:0:0:0:
256,192,17189,1,8,0:0:0:0:
256,192,17210,1,0,0:0:0:0:
256,192,17271,1,8,0:0:0:0:
256,192,17292,1,0,0:0:0:0:
256,192,17354,1,8,0:0:0:0:
256,192,17375,1,0,0:0:0:0:
256,192,17436,1,8,0:0:0:0:
256,192,17457,1,0,0:0:0:0:
256,192,17518,1,8,0:0:0:0:
256,192,17539,1,0,0:0:0:0:
256,192,17600,1,8,0:0:0:0:
256,192,17621,1,0,0:0:0:0:
256,192,17683,1,8,0:0:0:0:
256,192,17704,1,0,0:0:0:0:
256,192,17765,1,8,0:0:0:0:
256,192,17786,1,0,0:0:0:0:
256,192,17848,1,12,0:0:0:0:
256,192,18013,1,12,0:0:0:0:
256,192,18178,1,12,0:0:0:0:
256,192,18342,1,12,0:0:0:0:
256,192,18507,1,0,0:0:0:0:
256,192,18528,1,8,0:0:0:0:
256,192,18590,1,0,0:0:0:0:
256,192,18611,1,8,0:0:0:0:
256,192,18672,1,0,0:0:0:0:
256,192,18693,1,8,0:0:0:0:
256,192,18755,1,0,0:0:0:0:
256,192,18776,1,8,0:0:0:0:
256,192,18837,1,0,0:0:0:0:
256,192,18858,1,8,0:0:0:0:
256,192,18920,1,0,0:0:0:0:
256,192,18941,1,8,0:0:0:0:
256,192,19002,1,0,0:0:0:0:
256,192,19023,1,8,0:0:0:0:
256,192,19085,1,0,0:0:0:0:
256,192,19106,1,8,0:0:0:0:
256,192,19167,1,0,0:0:0:0:
256,192,19188,1,8,0:0:0:0:
256,192,19250,1,0,0:0:0:0:
256,192,19271,1,8,0:0:0:0:
256,192,19332,1,0,0:0:0:0:
256,192,19353,1,8,0:0:0:0:
256,192,19415,1,0,0:0:0:0:
256,192,19436,1,8,0:0:0:0:
256,192,19496,1,0,0:0:0:0:
256,192,19517,1,8,0:0:0:0:
256,192,19579,1,0,0:0:0:0:
256,192,19600,1,8,0:0:0:0:
256,192,19661,1,0,0:0:0:0:
256,192,19682,1,8,0:0:0:0:
256,192,19744,1,0,0:0:0:0:
256,192,19765,1,8,0:0:0:0:
256,192,19826,1,0,0:0:0:0:
256,192,19847,1,8,0:0:0:0:
256,192,19909,1,0,0:0:0:0:
256,192,19930,1,8,0:0:0:0:
256,192,19991,1,0,0:0:0:0:
256,192,20012,1,8,0:0:0:0:
256,192,20074,1,0,0:0:0:0:
256,192,20095,1,8,0:0:0:0:
256,192,20156,1,0,0:0:0:0:
256,192,20177,1,8,0:0:0:0:
256,192,20239,1,0,0:0:0:0:
256,192,20260,1,8,0:0:0:0:
256,192,20321,1,0,0:0:0:0:
256,192,20342,1,8,0:0:0:0:
256,192,20404,1,0,0:0:0:0:
256,192,20425,1,8,0:0:0:0:
256,192,20485,1,4,0:0:0:0:
256,192,20650,1,4,0:0:0:0:
256,192,20815,1,12,0:0:0:0:
256,192,20980,1,12,0:0:0:0:
256,192,21144,1,4,0:0:0:0:
256,192,21309,1,8,0:0:0:0:
256,192,21392,1,8,0:0:0:0:
256,192,21474,1,0,0:0:0:0:
256,192,21556,1,8,0:0:0:0:
256,192,21639,1,0,0:0:0:0:
256,192,21721,1,0,0:0:0:0:
256,192,21804,1,8,0:0:0:0:
256,192,21845,1,8,0:0:0:0:
256,192,21886,1,0,0:0:0:0:
256,192,21927,1,0,0:0:0:0:
256,192,21969,1,8,0:0:0:0:
256,192,22010,1,8,0:0:0:0:
256,192,22051,1,0,0:0:0:0:
256,192,22092,1,0,0:0:0:0:
256,192,22133,1,8,0:0:0:0:
256,192,22175,1,8,0:0:0:0:
256,192,22216,1,0,0:0:0:0:
256,192,22257,1,0,0:0:0:0:
256,192,22298,1,8,0:0:0:0:
256,192,22339,1,8,0:0:0:0:
256,192,22381,1,0,0:0:0:0:
256,192,22422,1,0,0:0:0:0:
256,192,22463,1,8,0:0:0:0:
256,192,22504,1,8,0:0:0:0:
256,192,22545,1,0,0:0:0:0:
256,192,22586,1,0,0:0:0:0:
256,192,22628,1,8,0:0:0:0:
256,192,22669,1,8,0:0:0:0:
256,192,22710,1,0,0:0:0:0:
256,192,22751,1,0,0:0:0:0:
256,192,22792,1,8,0:0:0:0:
256,192,22834,1,8,0:0:0:0:
256,192,22875,1,0,0:0:0:0:
256,192,22916,1,0,0:0:0:0:
256,192,22957,1,8,0:0:0:0:
256,192,22998,1,8,0:0:0:0:
256,192,23040,1,0,0:0:0:0:
256,192,23081,1,0,0:0:0:0:
256,192,23122,1,8,0:0:0:0:
256,192,23163,1,8,0:0:0:0:
256,192,23204,1,0,0:0:0:0:
256,192,23245,1,0,0:0:0:0:
256,192,23287,1,8,0:0:0:0:
256,192,23328,1,8,0:0:0:0:
256,192,23369,1,0,0:0:0:0:
256,192,23410,1,0,0:0:0:0:
256,192,23451,1,8,0:0:0:0:
256,192,23493,1,8,0:0:0:0:
256,192,23534,1,0,0:0:0:0:
256,192,23575,1,0,0:0:0:0:
256,192,23616,1,8,0:0:0:0:
256,192,23657,1,8,0:0:0:0:
256,192,23699,1,0,0:0:0:0:
256,192,23740,1,0,0:0:0:0:
256,192,23782,1,8,0:0:0:0:
256,192,23823,1,8,0:0:0:0:
256,192,23864,1,0,0:0:0:0:
256,192,23905,1,0,0:0:0:0:
256,192,23947,1,8,0:0:0:0:
256,192,23988,1,8,0:0:0:0:
256,192,24029,1,0,0:0:0:0:
256,192,24070,1,0,0:0:0:0:
256,192,24111,1,8,0:0:0:0:
256,192,24194,1,8,0:0:0:0:
256,192,24276,1,0,0:0:0:0:
256,192,24359,1,0,0:0:0:0:
256,192,24441,1,8,0:0:0:0:
256,192,24606,1,0,0:0:0:0:
256,192,24688,1,8,0:0:0:0:
256,192,24771,1,8,0:0:0:0:
256,192,24936,1,0,0:0:0:0:
256,192,25100,1,8,0:0:0:0:
256,192,25183,1,0,0:0:0:0:
256,192,25265,1,8,0:0:0:0:
256,192,25348,1,8,0:0:0:0:
256,192,25430,1,0,0:0:0:0:
256,192,25595,1,0,0:0:0:0:
256,192,25760,1,8,0:0:0:0:
256,192,25925,1,0,0:0:0:0:
256,192,26089,1,8,0:0:0:0:
256,192,26254,1,8,0:0:0:0:
256,192,26419,1,4,0:0:0:0:
256,192,26584,1,8,0:0:0:0:
256,192,26666,1,8,0:0:0:0:
256,192,26749,1,0,0:0:0:0:
256,192,26831,1,8,0:0:0:0:
256,192,26914,1,0,0:0:0:0:
256,192,26996,1,0,0:0:0:0:
256,192,27078,1,8,0:0:0:0:
256,192,27161,1,8,0:0:0:0:
256,192,27243,1,0,0:0:0:0:
256,192,27408,1,0,0:0:0:0:
256,192,27573,1,8,0:0:0:0:
256,192,27738,1,0,0:0:0:0:
256,192,27903,1,8,0:0:0:0:
256,192,27985,1,0,0:0:0:0:
256,192,28067,1,8,0:0:0:0:
256,192,28232,1,0,0:0:0:0:
256,192,28315,1,8,0:0:0:0:
256,192,28397,1,8,0:0:0:0:
256,192,28562,1,0,0:0:0:0:
256,192,28727,1,8,0:0:0:0:
256,192,28892,1,8,0:0:0:0:
256,192,29056,1,4,0:0:0:0:
256,192,29386,1,8,0:0:0:0:
256,192,29551,1,8,0:0:0:0:
256,192,29716,1,0,0:0:0:0:
256,192,29881,1,8,0:0:0:0:
256,192,30046,1,0,0:0:0:0:
256,192,30210,1,0,0:0:0:0:
256,192,30375,1,12,0:0:0:0:
256,192,30705,1,12,0:0:0:0:
256,192,31035,1,4,0:0:0:0:
256,192,31364,1,4,0:0:0:0:
256,192,31694,1,8,0:0:0:0:
256,192,31715,1,0,0:0:0:0:
256,192,31776,1,8,0:0:0:0:
256,192,31797,1,0,0:0:0:0:
256,192,31859,1,8,0:0:0:0:
256,192,31880,1,0,0:0:0:0:
256,192,31941,1,8,0:0:0:0:
256,192,31962,1,0,0:0:0:0:
256,192,32024,1,8,0:0:0:0:
256,192,32045,1,0,0:0:0:0:
256,192,32106,1,8,0:0:0:0:
256,192,32127,1,0,0:0:0:0:
256,192,32189,1,8,0:0:0:0:
256,192,32210,1,0,0:0:0:0:
256,192,32271,1,8,0:0:0:0:
256,192,32292,1,0,0:0:0:0:
256,192,32353,1,8,0:0:0:0:
256,192,32374,1,0,0:0:0:0:
256,192,32435,1,8,0:0:0:0:
256,192,32456,1,0,0:0:0:0:
256,192,32518,1,8,0:0:0:0:
256,192,32539,1,0,0:0:0:0:
256,192,32600,1,8,0:0:0:0:
256,192,32621,1,0,0:0:0:0:
256,192,32683,1,8,0:0:0:0:
256,192,32704,1,0,0:0:0:0:
256,192,32765,1,8,0:0:0:0:
256,192,32786,1,0,0:0:0:0:
256,192,32848,1,8,0:0:0:0:
256,192,32869,1,0,0:0:0:0:
256,192,32930,1,8,0:0:0:0:
256,192,32951,1,0,0:0:0:0:
256,192,33013,1,8,0:0:0:0:
256,192,33034,1,0,0:0:0:0:
256,192,33095,1,8,0:0:0:0:
256,192,33116,1,0,0:0:0:0:
256,192,33178,1,8,0:0:0:0:
256,192,33199,1,0,0:0:0:0:
256,192,33260,1,8,0:0:0:0:
256,192,33281,1,0,0:0:0:0:
256,192,33342,1,8,0:0:0:0:
256,192,33363,1,0,0:0:0:0:
256,192,33424,1,8,0:0:0:0:
256,192,33445,1,0,0:0:0:0:
256,192,33507,1,8,0:0:0:0:
256,192,33528,1,0,0:0:0:0:
256,192,33589,1,8,0:0:0:0:
256,192,33610,1,0,0:0:0:0:
256,192,33672,1,12,0:0:0:0:
256,192,33837,1,12,0:0:0:0:
256,192,34002,1,12,0:0:0:0:
256,192,34166,1,12,0:0:0:0:
256,192,34331,1,0,0:0:0:0:
256,192,34352,1,8,0:0:0:0:
256,192,34414,1,0,0:0:0:0:
256,192,34435,1,8,0:0:0:0:
256,192,34496,1,0,0:0:0:0:
256,192,34517,1,8,0:0:0:0:
256,192,34579,1,0,0:0:0:0:
256,192,34600,1,8,0:0:0:0:
256,192,34661,1,0,0:0:0:0:
256,192,34682,1,8,0:0:0:0:
256,192,34744,1,0,0:0:0:0:
256,192,34765,1,8,0:0:0:0:
256,192,34826,1,0,0:0:0:0:
256,192,34847,1,8,0:0:0:0:
256,192,34909,1,0,0:0:0:0:
256,192,34930,1,8,0:0:0:0:
256,192,34991,1,0,0:0:0:0:
256,192,35012,1,8,0:0:0:0:
256,192,35074,1,0,0:0:0:0:
256,192,35095,1,8,0:0:0:0:
256,192,35156,1,0,0:0:0:0:
256,192,35177,1,8,0:0:0:0:
256,192,35239,1,0,0:0:0:0:
256,192,35260,1,8,0:0:0:0:
256,192,35320,1,0,0:0:0:0:
256,192,35341,1,8,0:0:0:0:
256,192,35403,1,0,0:0:0:0:
256,192,35424,1,8,0:0:0:0:
256,192,35485,1,0,0:0:0:0:
256,192,35506,1,8,0:0:0:0:
256,192,35568,1,0,0:0:0:0:
256,192,35589,1,8,0:0:0:0:
256,192,35650,1,0,0:0:0:0:
256,192,35671,1,8,0:0:0:0:
256,192,35733,1,0,0:0:0:0:
256,192,35754,1,8,0:0:0:0:
256,192,35815,1,0,0:0:0:0:
256,192,35836,1,8,0:0:0:0:
256,192,35898,1,0,0:0:0:0:
256,192,35919,1,8,0:0:0:0:
256,192,35980,1,0,0:0:0:0:
256,192,36001,1,8,0:0:0:0:
256,192,36063,1,0,0:0:0:0:
256,192,36084,1,8,0:0:0:0:
256,192,36145,1,0,0:0:0:0:
256,192,36166,1,8,0:0:0:0:
256,192,36228,1,0,0:0:0:0:
256,192,36249,1,8,0:0:0:0:
256,192,36309,1,4,0:0:0:0:
256,192,36474,1,4,0:0:0:0:
256,192,36639,1,4,0:0:0:0:
256,192,36804,1,4,0:0:0:0:
256,192,36969,1,8,0:0:0:0:
256,192,36990,1,0,0:0:0:0:
256,192,37051,1,8,0:0:0:0:
256,192,37072,1,0,0:0:0:0:
256,192,37134,1,8,0:0:0:0:
256,192,37155,1,0,0:0:0:0:
256,192,37216,1,8,0:0:0:0:
256,192,37237,1,0,0:0:0:0:
256,192,37299,1,8,0:0:0:0:
256,192,37320,1,0,0:0:0:0:
256,192,37381,1,8,0:0:0:0:
256,192,37402,1,0,0:0:0:0:
256,192,37464,1,8,0:0:0:0:
256,192,37485,1,0,0:0:0:0:
256,192,37546,1,8,0:0:0:0:
256,192,37567,1,0,0:0:0:0:
256,192,37628,1,8,0:0:0:0:
256,192,37649,1,0,0:0:0:0:
256,192,37710,1,8,0:0:0:0:
256,192,37731,1,0,0:0:0:0:
256,192,37793,1,8,0:0:0:0:
256,192,37814,1,0,0:0:0:0:
256,192,37875,1,8,0:0:0:0:
256,192,37896,1,0,0:0:0:0:
256,192,37958,1,8,0:0:0:0:
256,192,37979,1,0,0:0:0:0:
256,192,38040,1,8,0:0:0:0:
256,192,38061,1,0,0:0:0:0:
256,192,38123,1,8,0:0:0:0:
256,192,38144,1,0,0:0:0:0:
256,192,38205,1,8,0:0:0:0:
256,192,38226,1,0,0:0:0:0:
256,192,38288,1,8,0:0:0:0:
256,192,38309,1,0,0:0:0:0:
256,192,38370,1,8,0:0:0:0:
256,192,38391,1,0,0:0:0:0:
256,192,38453,1,8,0:0:0:0:
256,192,38474,1,0,0:0:0:0:
256,192,38535,1,8,0:0:0:0:
256,192,38556,1,0,0:0:0:0:
256,192,38617,1,8,0:0:0:0:
256,192,38638,1,0,0:0:0:0:
256,192,38699,1,8,0:0:0:0:
256,192,38720,1,0,0:0:0:0:
256,192,38782,1,8,0:0:0:0:
256,192,38803,1,0,0:0:0:0:
256,192,38864,1,8,0:0:0:0:
256,192,38885,1,0,0:0:0:0:
256,192,38947,1,12,0:0:0:0:
256,192,39112,1,12,0:0:0:0:
256,192,39277,1,12,0:0:0:0:
256,192,39441,1,12,0:0:0:0:
256,192,39606,1,0,0:0:0:0:
256,192,39627,1,8,0:0:0:0:
256,192,39689,1,0,0:0:0:0:
256,192,39710,1,8,0:0:0:0:
256,192,39771,1,0,0:0:0:0:
256,192,39792,1,8,0:0:0:0:
256,192,39854,1,0,0:0:0:0:
256,192,39875,1,8,0:0:0:0:
256,192,39936,1,0,0:0:0:0:
256,192,39957,1,8,0:0:0:0:
256,192,40019,1,0,0:0:0:0:
256,192,40040,1,8,0:0:0:0:
256,192,40101,1,0,0:0:0:0:
256,192,40122,1,8,0:0:0:0:
256,192,40184,1,0,0:0:0:0:
256,192,40205,1,8,0:0:0:0:
256,192,40266,1,0,0:0:0:0:
256,192,40287,1,8,0:0:0:0:
256,192,40349,1,0,0:0:0:0:
256,192,40370,1,8,0:0:0:0:
256,192,40431,1,0,0:0:0:0:
256,192,40452,1,8,0:0:0:0:
256,192,40514,1,0,0:0:0:0:
256,192,40535,1,8,0:0:0:0:
256,192,40595,1,0,0:0:0:0:
256,192,40616,1,8,0:0:0:0:
256,192,40678,1,0,0:0:0:0:
256,192,40699,1,8,0:0:0:0:
256,192,40760,1,0,0:0:0:0:
256,192,40781,1,8,0:0:0:0:
256,192,40843,1,0,0:0:0:0:
256,192,40864,1,8,0:0:0:0:
256,192,40925,1,0,0:0:0:0:
256,192,40946,1,8,0:0:0:0:
256,192,41008,1,0,0:0:0:0:
256,192,41029,1,8,0:0:0:0:
256,192,41090,1,0,0:0:0:0:
256,192,41111,1,8,0:0:0:0:
256,192,41173,1,0,0:0:0:0:
256,192,41194,1,8,0:0:0:0:
256,192,41255,1,0,0:0:0:0:
256,192,41276,1,8,0:0:0:0:
256,192,41338,1,0,0:0:0:0:
256,192,41359,1,8,0:0:0:0:
256,192,41420,1,0,0:0:0:0:
256,192,41441,1,8,0:0:0:0:
256,192,41503,1,0,0:0:0:0:
256,192,41524,1,8,0:0:0:0:
256,192,41584,1,4,0:0:0:0:
256,192,41749,1,4,0:0:0:0:
256,192,41914,1,12,0:0:0:0:
256,192,42079,1,12,0:0:0:0:
256,192,42243,1,4,0:0:0:0:
256,192,42903,1,8,0:0:0:0:
256,192,43232,1,0,0:0:0:0:
256,192,43397,1,8,0:0:0:0:
256,192,43562,1,0,0:0:0:0:
256,192,44551,1,0,0:0:0:0:
256,192,44881,1,0,0:0:0:0:
256,192,45540,1,8,0:0:0:0:
256,192,45870,1,0,0:0:0:0:
256,192,46035,1,8,0:0:0:0:
256,192,46199,1,0,0:0:0:0:
256,192,46694,1,0,0:0:0:0:
256,192,47188,1,0,0:0:0:0:
256,192,47518,1,0,0:0:0:0:
256,192,48177,1,8,0:0:0:0:
256,192,48507,1,0,0:0:0:0:
256,192,48672,1,8,0:0:0:0:
256,192,48837,1,0,0:0:0:0:
256,192,49826,1,0,0:0:0:0:
256,192,50155,1,0,0:0:0:0:
256,192,50815,1,8,0:0:0:0:
256,192,51144,1,0,0:0:0:0:
256,192,51309,1,8,0:0:0:0:
256,192,51474,1,0,0:0:0:0:
256,192,51969,1,0,0:0:0:0:
256,192,52463,1,0,0:0:0:0:
256,192,52793,1,12,0:0:0:0:
