osu file format v14

[General]
AudioFilename: audio.mp3
AudioLeadIn: 0
PreviewTime: 25598
Countdown: 0
SampleSet: Soft
StackLeniency: 0.4
Mode: 0
LetterboxInBreaks: 0
WidescreenStoryboard: 0

[Editor]
Bookmarks: 25697,41881
DistanceSpacing: 1.1
BeatDivisor: 4
GridSize: 32
TimelineZoom: 1

[Metadata]
Title:Wir werden Sieger sein
TitleUnicode:Wir werden Sieger sein
Artist:Noel Pix
ArtistUnicode:Noel Pix
Creator:Suissie
Version:Insane
Source:Pokemon: Advanced Battle
Tags:pokemon advanced battle intro opening tv size german deutsch
BeatmapID:1916186
BeatmapSetID:917574

[Difficulty]
HPDrainRate:6
CircleSize:4
OverallDifficulty:8
ApproachRate:8.8
SliderMultiplier:1.8
SliderTickRate:1

[Events]
//Background and Video events
0,0,"api.jpg",0,0
//Break Periods
//Storyboard Layer 0 (Background)
//Storyboard Layer 1 (Fail)
//Storyboard Layer 2 (Pass)
//Storyboard Layer 3 (Foreground)
//Storyboard Sound Samples

[TimingPoints]
3592.1436585047,394.736842105263,4,2,1,75,1,0
5171,-100,4,2,1,65,0,0
25697,-100,4,2,1,80,0,1
35171,-100,4,2,1,60,0,0
39907,-100,4,2,1,70,0,0
41486,-100,4,2,1,80,0,1
49381,-100,4,2,1,80,0,0
52539,-100,4,2,1,80,0,1
55697,-100,4,2,1,80,0,0

[Colours]
Combo1 : 255,192,0
Combo2 : 0,236,236
Combo3 : 128,255,0
Combo4 : 242,24,57

[HitObjects]
99,174,3592,5,6,1:2:0:0:
140,305,3789,1,4,0:3:0:0:
140,305,3986,1,4,0:3:0:0:
214,193,4184,1,4,1:2:0:0:
265,325,4381,1,2,1:2:0:0:
265,325,4578,1,4,0:3:0:0:
338,206,4776,1,6,1:2:0:0:
338,206,4973,1,0,0:0:0:0:
491,360,5171,6,0,P|498:304|490:249,1,90,4|0,0:3|0:0,0:0:0:0:
399,186,5565,2,0,P|337:186|301:193,1,90,0|0,1:0|0:0,0:0:0:0:
241,271,5960,1,4,0:3:0:0:
241,271,6157,1,4,0:3:0:0:
341,293,6355,1,0,1:0:0:0:
225,182,6552,6,0,P|179:204|148:253,1,90,4|0,0:3|0:0,0:0:0:0:
194,345,6947,2,0,P|231:301|241:246,1,90,4|0,0:3|1:0,0:0:0:0:
82,199,7342,2,0,P|79:265|96:302,1,90,0|4,0:0|0:3,0:0:0:0:
174,197,7736,1,4,0:3:0:0:
118,88,7934,1,0,1:0:0:0:
68,200,8131,1,4,0:3:0:0:
41,43,8328,6,0,P|85:5|149:10,1,90,4|0,0:3|0:0,0:0:0:0:
210,94,8723,2,0,P|139:94|104:68,1,90,0|0,1:0|0:0,0:0:0:0:
217,2,9118,1,4,0:3:0:0:
217,2,9315,1,4,0:3:0:0:
274,144,9513,1,0,1:0:0:0:
372,8,9710,6,0,P|419:26|444:75,1,90,4|0,0:3|0:0,0:0:0:0:
449,169,10105,2,0,P|408:218|352:227,1,90,4|0,0:3|1:0,0:0:0:0:
275,175,10500,2,0,P|252:115|272:62,1,90,0|4,0:0|0:3,0:0:0:0:
360,134,10894,1,4,0:3:0:0:
296,265,11092,1,0,1:0:0:0:
189,169,11289,1,4,0:3:0:0:
238,335,11486,6,0,P|295:352|346:346,1,90,4|0,0:0|0:0,0:0:0:0:
458,260,11881,2,0,P|391:261|359:285,1,90,0|0,1:0|0:0,0:0:0:0:
467,342,12276,1,4,0:3:0:0:
467,342,12473,1,4,0:3:0:0:
503,191,12671,1,0,1:0:0:0:
348,264,12868,6,0,P|302:266|253:253,1,90,4|0,0:3|0:0,0:0:0:0:
204,140,13263,1,4,0:3:0:0:
328,119,13460,1,0,1:0:0:0:
292,244,13657,2,0,P|223:250|178:222,1,90,0|4,0:0|0:3,0:0:0:0:
109,168,14052,1,4,0:3:0:0:
230,139,14250,1,0,1:0:0:0:
230,139,14447,1,4,0:3:0:0:
83,83,14644,6,0,P|41:98|10:139,1,90,4|0,0:3|0:0,0:0:0:0:
89,274,15039,2,0,L|100:167,1,90,0|0,1:0|0:0,0:0:0:0:
183,120,15434,1,4,0:3:0:0:
183,120,15631,1,4,0:3:0:0:
280,209,15828,2,0,L|277:109,1,90,0|4,1:0|0:3,0:0:0:0:
402,43,16223,5,0,0:0:0:0:
417,178,16421,1,4,0:3:0:0:
288,129,16618,1,0,1:0:0:0:
465,98,16815,2,0,P|501:138|510:205,1,90,0|4,0:0|0:3,0:0:0:0:
486,255,17210,1,4,0:3:0:0:
337,308,17407,1,0,1:0:0:0:
402,164,17605,1,0,1:0:0:0:
402,164,17703,1,0,1:0:0:0:
402,164,17802,6,0,P|331:151|281:165,1,90,4|0,1:2|0:0,0:0:0:0:
221,262,18197,1,0,1:0:0:0:
352,311,18394,2,0,P|330:250|295:215,1,90,0|4,0:0|0:3,0:0:0:0:
186,183,18789,1,4,0:3:0:0:
214,308,18986,1,0,1:0:0:0:
268,171,19184,6,0,P|249:120|202:81,1,90,4|0,0:3|0:0,0:0:0:0:
62,183,19578,2,0,P|115:192|172:170,1,90,4|0,0:3|1:0,0:0:0:0:
149,3,19973,2,0,P|114:44|104:105,1,90,4|4,0:3|0:3,0:0:0:0:
184,172,20368,1,4,0:3:0:0:
291,66,20565,2,0,L|306:171,1,90,0|4,1:0|0:3,0:0:0:0:
330,313,20960,5,4,0:2:0:0:
390,165,21157,1,0,0:0:0:0:
466,308,21355,2,0,L|477:214,1,90,0|0,1:0|0:0,0:0:0:0:
496,104,21750,1,4,0:3:0:0:
496,104,21947,1,4,0:3:0:0:
389,180,22144,1,0,1:0:0:0:
395,37,22342,1,4,0:3:0:0:
270,172,22539,6,0,P|211:171|161:150,1,90,4|0,0:3|0:0,0:0:0:0:
53,0,22934,2,0,P|81:51|88:105,1,90,0|0,1:0|0:0,0:0:0:0:
2,267,23328,2,4,P|32:216|75:183,1,90,4|4,0:3|0:3,0:3:0:0:
277,199,23723,1,0,1:0:0:0:
277,199,23921,1,4,0:3:0:0:
117,308,24118,5,8,1:3:0:0:
223,45,24513,1,8,1:3:0:0:
208,67,24907,1,4,1:3:0:0:
325,152,25105,1,8,1:3:0:0:
200,214,25302,1,8,1:3:0:0:
325,152,25500,1,8,1:3:0:0:
165,55,25697,6,0,P|99:47|34:55,1,90,4|0,0:2|0:0,0:0:0:0:
94,235,26092,2,0,P|160:243|225:235,1,90,0|0,1:0|0:0,0:0:0:0:
339,191,26486,1,4,0:3:0:0:
339,191,26684,1,4,0:3:0:0:
411,44,26881,1,0,1:0:0:0:
502,190,27078,2,0,P|507:244|501:309,1,90,4|0,0:3|0:0,0:0:0:0:
400,380,27473,5,4,0:3:0:0:
245,375,27671,2,0,P|199:367|159:346,1,90,0|0,1:0|0:0,0:0:0:0:
112,172,28065,1,4,0:3:0:0:
49,315,28263,1,4,0:3:0:0:
0,165,28460,1,0,1:0:0:0:
0,165,28657,1,4,0:3:0:0:
185,256,28855,6,4,P|243:261|303:250,1,90,4|0,2:0|2:0,2:0:0:0:
432,194,29250,1,0,1:0:0:0:
432,194,29447,1,0,0:0:0:0:
325,62,29644,1,4,0:3:0:0:
308,220,29842,1,4,0:3:0:0:
451,97,30039,1,0,1:0:0:0:
492,217,30236,6,0,P|495:281|483:328,1,90,4|0,0:3|0:0,0:0:0:0:
369,381,30631,1,4,0:3:0:0:
367,182,30828,2,0,P|357:131|317:83,1,90,0|0,1:0|1:0,0:0:0:0:
336,99,31125,1,0,1:0:0:0:
336,99,31223,1,0,1:0:0:0:
155,121,31421,1,4,0:3:0:0:
298,22,31618,1,0,1:0:0:0:
231,172,31815,1,0,1:0:0:0:
231,172,31914,1,0,1:0:0:0:
231,172,32013,6,0,P|239:106|222:59,1,90,0|0,1:2|0:0,0:0:0:0:
43,86,32407,2,0,P|35:152|52:199,1,90,0|0,1:0|0:0,0:0:0:0:
140,293,32802,1,4,0:3:0:0:
140,293,33000,1,4,0:3:0:0:
229,143,33197,1,0,1:0:0:0:
321,299,33394,2,0,P|371:306|426:291,1,90,4|0,3:0|0:0,0:0:0:0:
496,204,33789,5,4,0:3:0:0:
361,143,33986,1,0,1:0:0:0:
380,280,34184,1,0,0:0:0:0:
446,130,34381,2,4,P|423:75|373:52,1,90,4|4,0:3|0:3,0:3:0:0:
252,22,34776,1,0,1:0:0:0:
391,41,34973,1,4,3:0:0:0:
228,116,35171,6,0,P|180:95|149:32,1,90,4|0,0:2|0:0,0:0:0:0:
319,32,35565,1,0,1:0:0:0:
356,170,35763,1,0,0:0:0:0:
269,251,35960,2,4,L|256:125,1,90
384,90,36355,2,0,L|374:200,1,90,0|0,1:0|0:3,0:3:0:0:
436,270,36750,5,4,0:3:0:0:
360,167,36947,2,0,P|309:170|250:154,1,90,0|0,0:0|1:0,0:0:0:0:
154,73,37342,2,0,P|102:62|13:143,1,180,0|4,0:0|0:3,0:0:0:0:
54,228,37934,1,0,1:0:0:0:
180,242,38131,5,4,0:3:0:0:
272,176,38328,2,0,P|298:223|279:285,1,90,4|0,0:3|0:0,0:0:0:0:
212,340,38723,1,0,1:0:0:0:
88,308,38921,2,0,P|63:260|63:207,1,90,0|4,0:0|0:3,0:0:0:0:
157,73,39315,1,4,0:3:0:0:
136,189,39513,1,0,0:0:0:0:
246,145,39710,1,0,0:0:0:0:
365,49,39907,5,0,1:0:0:0:
433,181,40105,1,0,1:0:0:0:
458,43,40302,1,0,1:0:0:0:
347,168,40500,1,0,1:0:0:0:
286,17,40697,1,0,1:0:0:0:
264,151,40894,1,0,1:0:0:0:
249,166,40992,1,0,1:0:0:0:
232,180,41091,1,0,1:0:0:0:
213,190,41190,1,0,1:0:0:0:
192,197,41288,1,0,1:0:0:0:
171,200,41387,1,0,1:0:0:0:
153,200,41486,6,0,P|102:172|77:105,1,90,4|0,1:2|0:0,0:0:0:0:
202,0,41881,2,0,P|202:56|157:112,1,90,0|0,1:0|0:0,0:0:0:0:
0,64,42276,2,0,P|48:33|118:45,1,90,4|4,0:3|0:3,0:0:0:0:
131,202,42671,1,0,1:0:0:0:
256,74,42868,2,0,P|303:94|331:152,1,90,4|0,0:3|0:0,0:0:0:0:
348,299,43263,5,4,0:3:0:0:
221,207,43460,2,0,P|169:202|115:221,1,90,0|0,1:0|0:0,0:0:0:0:
70,347,43855,1,4,0:3:0:0:
25,215,44052,1,4,0:3:0:0:
197,299,44250,2,0,P|249:304|303:285,1,90,0|4,1:0|0:3,0:0:0:0:
326,160,44644,6,0,P|383:148|440:179,1,90,4|0,0:3|0:0,0:0:0:0:
453,285,45039,1,0,1:0:0:0:
318,255,45236,1,0,0:0:0:0:
412,157,45434,1,4,0:3:0:0:
412,157,45631,1,4,0:3:0:0:
377,315,45828,1,0,1:0:0:0:
273,269,46026,2,0,P|221:258|159:285,1,90,4|0,0:3|0:0,0:0:0:0:
98,334,46421,5,4,0:3:0:0:
0,167,46618,2,0,P|-4:101|17:39,1,90,0|0,1:0|1:0,0:0:0:0:
0,78,46914,1,0,1:0:0:0:
0,78,47013,1,0,1:0:0:0:
130,7,47210,1,4,0:3:0:0:
161,147,47407,1,0,1:0:0:0:
184,168,47505,1,0,1:0:0:0:
211,183,47604,1,0,1:0:0:0:
241,193,47703,1,0,1:0:0:0:
269,197,47802,6,0,P|322:185|360:154,1,90,4|0,1:2|0:0,0:0:0:0:
285,0,48197,2,0,P|267:51|276:100,1,90,0|0,1:0|0:0,0:0:0:0:
456,108,48592,2,4,P|418:66|372:49,1,90,4|4,0:3|0:3,0:3:0:0:
177,92,48986,1,0,1:0:0:0:
267,109,49184,1,4,0:3:0:0:
90,268,49381,5,0,1:0:0:0:
290,182,50960,5,0,1:0:0:0:
163,240,51157,1,4,0:3:0:0:
176,101,51355,1,4,0:3:0:0:
290,300,51552,5,0,1:0:0:0:
163,358,51749,1,4,0:0:0:0:
176,219,51947,1,4,0:3:0:0:
290,300,52144,1,0,1:0:0:0:
320,305,52242,1,0,1:0:0:0:
351,301,52341,1,0,1:0:0:0:
378,286,52440,1,0,1:0:0:0:
399,262,52539,6,0,P|409:203|399:156,1,90,4|0,1:2|0:0,0:0:0:0:
275,78,52934,2,0,P|288:135|333:168,1,90,0|0,1:0|0:0,0:0:0:0:
494,91,53328,2,4,P|455:36|349:18,1,180,4|0,0:3|1:0,0:3:0:0:
344,192,53921,2,0,P|324:241|285:266,1,90,4|0,0:3|0:0,0:0:0:0:
129,270,54315,5,4,0:3:0:0:
236,180,54513,1,0,1:0:0:0:
247,333,54710,1,0,0:0:0:0:
146,178,54907,2,4,P|87:189|47:230,1,90,4|4,0:3|0:3,0:3:0:0:
18,369,55302,2,0,L|11:275,1,90,0|4,1:0|0:3,0:0:0:0:
0,123,55697,5,8,1:3:0:0:
204,292,56092,1,8,1:3:0:0:
204,292,56486,6,0,P|236:236|234:179,1,90
187,98,56881,1,0,0:0:0:0:
107,190,57078,1,0,0:0:0:0:
289,81,57276,5,8,0:3:0:0:
231,239,57473,1,8,0:3:0:0:
165,68,57671,2,0,P|108:30|-15:20,1,180,4|0,0:0|0:0,0:0:0:0:
26,182,58263,5,2,0:3:0:0:
169,55,58460,1,2,1:3:0:0:
179,243,58657,1,2,0:3:0:0:
