osu file format v14

[General]
AudioFilename: rtgjhsrtjktk.mp3
AudioLeadIn: 0
PreviewTime: 28463
Countdown: 0
SampleSet: None
StackLeniency: 0.7
Mode: 0
LetterboxInBreaks: 0
WidescreenStoryboard: 0

[Editor]
DistanceSpacing: 0.8
BeatDivisor: 4
GridSize: 4
TimelineZoom: 1

[Metadata]
Title:Wir sind die Gewinner
TitleUnicode:Wir sind die Gewinner
Artist:Noel Pix
ArtistUnicode:Noel Pix
Creator:Stefan
Version:Hard
Source:Pokémon: Johto League Champions
Tags:4th season german thenutritiousguy tng
BeatmapID:1892137
BeatmapSetID:906719

[Difficulty]
HPDrainRate:5
CircleSize:4
OverallDifficulty:7
ApproachRate:7
SliderMultiplier:1.9
SliderTickRate:2

[Events]
//Background and Video events
0,0,"Ash_and_Pikachu_Wallpaper.jpg",0,0
//Break Periods
//Storyboard Layer 0 (Background)
//Storyboard Layer 1 (Fail)
//Storyboard Layer 2 (Pass)
//Storyboard Layer 3 (Foreground)
//Storyboard Sound Samples

[TimingPoints]
3624,413.793103448276,4,2,0,40,1,0
28451,-100,4,2,0,40,0,1
44382,-100,4,2,0,40,0,0

[Colours]
Combo1 : 253,253,253
Combo2 : 0,128,0
Combo3 : 4,182,240
Combo4 : 221,4,4
Combo5 : 231,219,5

[HitObjects]
80,52,3624,6,0,P|48:88|48:132,1,95,4|0,0:3|0:0,0:0:0:0:
92,196,4037,2,0,P|124:160|124:116,1,95
192,80,4451,1,0,0:0:0:0:
260,112,4658,2,0,B|312:120|344:76|344:76|352:200|468:216,1,285
460,288,5486,5,0,0:0:0:0:
408,344,5692,1,0,0:0:0:0:
340,312,5899,2,0,P|256:276|168:312,1,190
169,311,6520,1,0,0:0:0:0:
112,360,6727,2,0,P|92:316|104:272,1,95,0|4,0:0|3:0,0:0:0:0:
56,128,7348,5,0,0:0:0:0:
180,40,7761,2,0,B|156:24|156:24|120:40|88:12,2,95
287,147,8589,2,0,B|311:163|311:163|347:147|379:175,2,95
232,92,9210,1,0,0:0:0:0:
285,38,9417,2,0,B|309:22|309:22|345:38|371:14,2,95
177,145,10244,5,4,0:3:0:0:
48,224,10658,1,0,0:0:0:0:
80,292,10865,2,0,P|112:336|152:348,1,95
300,360,11486,5,0,0:0:0:0:
356,312,11692,2,0,B|400:280|380:232|380:232|456:152|376:56,1,285
228,88,12727,2,0,B|204:116|176:112|148:136,1,95
83,177,13141,1,0,0:0:0:0:
48,244,13348,1,0,0:0:0:0:
80,312,13555,6,2,P|112:368|228:360,1,190
279,308,14175,2,2,P|392:302|424:358,1,190
280,308,15003,2,0,P|195:232|212:170,2,190
333,254,16037,2,0,L|368:220,8,47.5,0|0|0|0|0|0|0|0|4,0:0|0:0|0:0|0:0|0:0|0:0|0:0|0:0|0:0,0:0:0:0:
440,144,17279,5,0,0:0:0:0:
388,88,17486,1,0,0:0:0:0:
316,68,17692,2,0,L|328:20,2,47.5
240,80,18106,1,0,0:0:0:0:
172,116,18313,1,0,0:0:0:0:
100,92,18520,6,0,P|32:152|56:240,1,190
108,292,19141,2,0,P|184:348|276:344,1,190
376,232,19968,6,0,L|424:260,2,47.5
376,80,20589,1,0,0:0:0:0:
304,60,20796,2,0,B|245:5|186:105|127:50,1,190
80,196,21624,6,0,P|112:304|200:312,2,190
120,132,22658,1,0,0:0:0:0:
192,108,22865,1,0,0:0:0:0:
268,124,23072,1,0,0:0:0:0:
316,184,23279,1,0,0:0:0:0:
328,260,23486,5,4,0:0:0:0:
196,336,23899,1,0,0:0:0:0:
64,260,24313,1,0,0:0:0:0:
56,108,24727,1,0,0:0:0:0:
188,36,25141,6,0,P|276:32|364:104,1,190
392,156,25761,2,0,B|376:200|396:248|396:248|344:264|324:308,1,190
324,306,26589,1,0,0:0:0:0:
256,192,26796,12,4,28451,0:0:0:0:
260,196,31761,6,0,P|188:264|316:328,1,285
