osu file format v14

[General]
AudioFilename: audio.mp3
AudioLeadIn: 0
PreviewTime: -1
Countdown: 1
SampleSet: Normal
StackLeniency: 0.7
Mode: 0
LetterboxInBreaks: 0
WidescreenStoryboard: 1

[Editor]
DistanceSpacing: 1.6
BeatDivisor: 4
GridSize: 8
TimelineZoom: 3.7

[Metadata]
Title:Zdrajca metalu
TitleUnicode:Zdrajca metalu
Artist:Nocny Kochanek
ArtistUnicode:Nocny Kochanek
Creator:Trabanto
Version:George Michael
Source:
Tags:polish heavy hewi metal traitor andzeju zdrajcy
BeatmapID:1532197
BeatmapSetID:725675

[Difficulty]
HPDrainRate:5
CircleSize:4.2
OverallDifficulty:9
ApproachRate:10
SliderMultiplier:2
SliderTickRate:1

[Events]
//Background and Video events
0,0,"518551-anime-anime-girls-artwork-drawings-dress-flowers-gothic-multicolor-roses-sleeping.jpg",0,0
//Break Periods
//Storyboard Layer 0 (Background)
//Storyboard Layer 1 (Fail)
//Storyboard Layer 2 (Pass)
//Storyboard Layer 3 (Foreground)
//Storyboard Sound Samples

[TimingPoints]
-16,250,4,1,0,100,1,0
19234,-100,4,3,0,100,0,0
20984,-200,4,3,0,100,0,0
22734,-133.333333333333,4,3,0,100,0,0
23734,-200,4,3,0,100,0,0
24234,-100,4,1,0,100,0,0
40234,-200,4,1,0,100,0,0
46234,-100,4,1,0,100,0,0
63109,-133.333333333333,4,1,0,100,0,0
65734,-100,4,1,0,100,0,0
66234,-100,4,1,0,100,0,1
66609,-133.333333333333,4,1,0,100,0,1
72984,-83.3333333333333,4,1,0,100,0,1
82234,-100,4,1,0,100,0,0
97234,-200,4,1,0,100,0,0
98234,-100,4,1,0,100,0,0
114234,-200,4,1,0,100,0,0
120734,-100,4,1,0,100,0,0
136984,-133.333333333333,4,1,0,100,0,0
140234,-133.333333333333,4,1,0,100,0,1
148234,-83.3333333333333,4,1,0,100,0,1
156234,-133.333333333333,4,1,0,100,0,0
187234,-200,4,1,0,100,0,0
188234,-83.3333333333333,4,1,0,100,0,1
204234,-200,4,1,0,100,0,0
218234,-100,4,1,0,100,0,0
220609,-133.333333333333,4,1,0,100,0,0
226984,-83.3333333333333,4,1,0,100,0,0
236234,-100,4,1,0,100,0,0
250234,-133.333333333333,4,1,0,100,0,0

[Colours]
Combo1 : 255,255,255
Combo2 : 0,128,64
Combo3 : 128,128,192

[HitObjects]
208,248,234,6,0,P|192:240|160:160,1,100
168,88,484,1,0,0:0:0:0:
120,272,609,1,0,0:0:0:0:
232,176,734,1,0,0:0:0:0:
264,152,796,1,0,0:0:0:0:
304,144,859,1,0,0:0:0:0:
344,152,921,1,0,0:0:0:0:
376,176,984,2,0,P|400:224|384:280,1,100
344,328,1234,5,0,0:0:0:0:
472,200,1359,1,0,0:0:0:0:
328,232,1484,1,0,0:0:0:0:
288,232,1546,1,0,0:0:0:0:
248,216,1609,1,0,0:0:0:0:
224,184,1671,1,0,0:0:0:0:
216,144,1734,2,0,P|229:82|277:58,1,100
432,216,1984,2,0,L|512:272,2,50
288,128,2234,6,0,L|272:256,1,100
168,232,2484,1,0,0:0:0:0:
360,200,2609,1,0,0:0:0:0:
216,144,2734,1,0,0:0:0:0:
176,136,2796,1,0,0:0:0:0:
136,144,2859,1,0,0:0:0:0:
104,168,2921,1,0,0:0:0:0:
80,200,2984,2,0,P|64:256|88:304,1,100
232,184,3234,5,0,0:0:0:0:
136,248,3359,1,0,0:0:0:0:
232,280,3484,1,0,0:0:0:0:
312,224,3609,1,0,0:0:0:0:
224,176,3734,1,0,0:0:0:0:
376,168,3859,1,0,0:0:0:0:
288,48,3984,2,0,P|222:91|208:152,1,100
200,296,4234,5,0,0:0:0:0:
328,184,4359,1,0,0:0:0:0:
160,168,4484,1,0,0:0:0:0:
272,336,4609,2,0,L|368:248,1,100
472,152,4859,1,0,0:0:0:0:
240,48,4984,2,0,L|144:136,1,100
64,248,5234,5,0,0:0:0:0:
216,296,5359,1,0,0:0:0:0:
144,144,5484,1,0,0:0:0:0:
216,296,5609,1,0,0:0:0:0:
304,168,5734,6,0,L|384:144,2,50
40,200,5984,2,0,B|72:144|72:144|128:128,1,100
328,128,6234,2,0,B|296:184|296:184|240:200,1,100
216,40,6484,1,0,0:0:0:0:
120,208,6609,2,0,L|48:336,1,100
296,40,6859,1,0,0:0:0:0:
392,208,6984,2,0,L|464:336,1,100
256,120,7234,5,0,0:0:0:0:
344,272,7359,1,0,0:0:0:0:
200,192,7484,1,0,0:0:0:0:
368,176,7609,1,0,0:0:0:0:
240,272,7734,6,0,P|277:250|290:220,1,50
272,112,7859,1,0,0:0:0:0:
159,271,7984,1,0,0:0:0:0:
160,80,8109,1,0,0:0:0:0:
96,200,8234,6,0,B|128:256|128:256|176:280,1,100
328,304,8484,1,0,0:0:0:0:
416,152,8609,2,0,L|352:40,1,100
184,304,8859,1,0,0:0:0:0:
96,152,8984,2,0,L|160:40,1,100
256,144,9234,1,0,0:0:0:0:
256,312,9359,1,0,0:0:0:0:
104,232,9484,1,0,0:0:0:0:
272,224,9609,1,0,0:0:0:0:
192,72,9734,5,0,0:0:0:0:
192,240,9859,1,0,0:0:0:0:
48,152,9984,1,0,0:0:0:0:
216,152,10109,1,0,0:0:0:0:
128,32,10234,2,0,B|112:72|88:104|160:136|168:176|136:224|104:248,1,200
56,184,10609,2,0,P|64:272|176:296,1,200
221,182,10984,2,0,L|109:230,1,100
128,64,11234,5,0,0:0:0:0:
128,64,11359,1,0,0:0:0:0:
240,176,11484,1,0,0:0:0:0:
96,224,11609,1,0,0:0:0:0:
192,120,11734,1,0,0:0:0:0:
192,120,11859,1,0,0:0:0:0:
352,80,11984,2,0,P|392:72|464:104,1,100
376,296,12234,5,0,0:0:0:0:
256,176,12359,1,0,0:0:0:0:
280,328,12484,1,0,0:0:0:0:
96,136,12609,2,0,B|152:120|152:120|224:152,1,100
344,224,12859,1,0,0:0:0:0:
96,288,12984,2,0,L|160:176,1,100
264,88,13234,5,0,0:0:0:0:
200,240,13359,1,0,0:0:0:0:
328,128,13484,1,0,0:0:0:0:
264,288,13609,1,0,0:0:0:0:
392,176,13734,2,0,L|440:128,2,50
280,280,13984,1,0,0:0:0:0:
464,288,14109,1,0,0:0:0:0:
336,120,14234,6,0,B|296:160|296:160|288:232,1,100
152,344,14484,1,0,0:0:0:0:
160,184,14609,2,0,L|176:64,1,100
360,40,14859,1,0,0:0:0:0:
352,200,14984,2,0,L|336:320,1,100
304,128,15234,5,0,0:0:0:0:
240,288,15359,1,0,0:0:0:0:
376,192,15484,1,0,0:0:0:0:
208,192,15609,5,0,0:0:0:0:
216,216,15671,1,0,0:0:0:0:
224,240,15734,1,0,0:0:0:0:
360,192,15859,1,0,0:0:0:0:
256,328,15984,1,0,0:0:0:0:
416,256,16109,1,0,0:0:0:0:
296,96,16234,6,0,B|304:152|304:152|264:200,1,100
128,272,16484,1,0,0:0:0:0:
152,64,16609,2,0,L|240:144,1,100
160,312,16859,1,0,0:0:0:0:
78,131,16984,2,0,L|151:63,1,100
304,256,17234,5,0,0:0:0:0:
336,88,17359,1,0,0:0:0:0:
376,256,17484,1,0,0:0:0:0:
408,88,17609,1,0,0:0:0:0:
208,256,17734,5,0,0:0:0:0:
176,88,17859,1,0,0:0:0:0:
136,256,17984,1,0,0:0:0:0:
104,88,18109,1,0,0:0:0:0:
80,312,18234,6,0,P|112:328|208:296,1,100
296,200,18484,1,0,0:0:0:0:
200,64,18609,2,0,L|128:176,1,100
264,296,18859,1,0,0:0:0:0:
264,296,18921,1,0,0:0:0:0:
264,296,18984,2,0,B|200:248|200:248|184:200,1,100
176,96,19234,5,0,0:0:0:0:
264,200,19359,1,0,0:0:0:0:
288,176,19421,1,0,0:0:0:0:
312,152,19484,1,0,0:0:0:0:
184,224,19609,1,0,0:0:0:0:
368,224,19734,1,0,0:0:0:0:
224,128,19859,1,0,0:0:0:0:
272,296,19984,1,0,0:0:0:0:
328,184,20109,1,0,0:0:0:0:
152,240,20234,2,0,L|256:208,1,100
368,216,20484,5,0,0:0:0:0:
368,168,20609,1,0,0:0:0:0:
280,128,20734,1,0,0:0:0:0:
280,240,20859,1,0,0:0:0:0:
472,224,20984,2,0,L|414:191,1,50
240,104,21234,5,0,0:0:0:0:
192,160,21359,1,0,0:0:0:0:
280,224,21484,1,0,0:0:0:0:
176,296,21609,1,0,0:0:0:0:
384,288,21734,2,0,L|336:256,1,50
248,200,21984,1,0,0:0:0:0:
264,88,22109,2,0,L|304:64,2,25
416,200,22359,5,0,0:0:0:0:
416,200,22421,1,0,0:0:0:0:
416,200,22484,1,0,0:0:0:0:
256,288,22609,1,0,0:0:0:0:
328,72,22734,2,0,L|240:112,1,75.0000028610231
184,136,22984,1,0,0:0:0:0:
384,232,23109,1,0,0:0:0:0:
240,288,23234,2,0,L|320:256,1,75.0000028610231
336,96,23484,2,0,L|248:128,1,75.0000028610231
384,256,23734,6,0,P|367:299|354:309,1,50
304,256,23984,2,0,L|256:208,1,50
112,56,24234,6,0,P|96:144|112:184,1,100
352,120,24484,1,0,0:0:0:0:
264,296,24609,2,0,P|184:352|56:312,1,200
384,32,24984,2,0,B|419:72|419:72|401:159,1,100
176,222,25234,6,0,L|203:107,1,100
344,216,25484,2,0,L|316:330,1,100
128,195,25734,2,0,L|208:115,1,100
414,145,25984,2,0,L|343:215,1,100
272,96,26234,6,0,P|224:56|168:48,1,100
112,280,26484,1,0,0:0:0:0:
343,215,26609,2,0,P|375:119|335:23,1,200
160,144,26984,1,0,0:0:0:0:
328,224,27109,1,0,0:0:0:0:
409,97,27234,2,0,P|385:57|321:25,1,100
235,136,27484,2,0,P|294:140|339:104,1,100
144,112,27734,5,0,0:0:0:0:
135,140,27796,1,0,0:0:0:0:
137,170,27859,1,0,0:0:0:0:
145,198,27921,1,0,0:0:0:0:
162,222,27984,2,0,P|197:252|267:263,1,100
168,48,28234,6,0,P|143:88|150:181,1,100
376,136,28484,1,0,0:0:0:0:
248,264,28609,2,0,P|184:288|64:240,1,200
72,64,28984,2,0,B|120:104|120:104|136:160,1,100
147,347,29234,6,0,L|107:211,1,100
184,80,29484,2,0,L|212:175,1,100
72,352,29734,2,0,L|32:216,1,100
176,8,29984,2,0,P|224:24|256:72,1,100
296,256,30234,6,0,P|344:288|416:272,1,100
384,48,30484,1,0,0:0:0:0:
216,128,30609,2,0,P|160:216|176:328,1,200
352,240,30984,2,0,B|368:192|368:192|344:136,1,100
256,64,31234,6,0,L|184:8,3,50
348,146,31484,2,0,L|452:234,1,100
296,264,31734,1,0,0:0:0:0:
277,240,31796,1,0,0:0:0:0:
265,212,31859,1,0,0:0:0:0:
261,181,31921,1,0,0:0:0:0:
266,151,31984,2,0,P|282:102|325:64,1,100
136,304,32234,6,0,P|176:344|232:344,1,100
344,144,32484,1,0,0:0:0:0:
136,144,32609,2,0,P|64:208|32:304,1,200
288,280,32984,2,0,B|312:240|312:240|306:166,1,100
248,64,33234,5,0,0:0:0:0:
232,216,33359,1,0,0:0:0:0:
120,72,33484,2,0,L|128:192,1,100
112,336,33734,5,0,0:0:0:0:
128,184,33859,1,0,0:0:0:0:
240,328,33984,2,0,L|232:208,1,100
312,48,34234,6,0,P|356:100|376:152,1,100
144,216,34484,1,0,0:0:0:0:
328,288,34609,2,0,P|432:280|488:184,1,200
88,72,34984,2,0,B|72:120|72:120|96:168,1,100
248,232,35234,2,0,B|264:184|264:184|240:136,1,100
24,176,35484,2,0,L|80:288,1,100
312,248,35734,5,0,0:0:0:0:
322,220,35796,1,0,0:0:0:0:
331,191,35859,1,0,0:0:0:0:
340,162,35921,1,0,0:0:0:0:
349,133,35984,2,0,L|378:26,1,100
248,280,36234,6,0,P|288:320|360:304,1,100
440,104,36484,1,0,0:0:0:0:
248,56,36609,2,0,P|112:168|112:224,1,200
272,336,36984,2,0,B|328:312|328:312|344:256,1,100
194,199,37234,1,0,0:0:0:0:
344,200,37359,1,0,0:0:0:0:
224,104,37484,2,0,L|184:232,1,100
160,336,37734,1,0,0:0:0:0:
160,336,37796,1,0,0:0:0:0:
160,336,37859,1,0,0:0:0:0:
272,249,37984,6,0,P|233:242|192:193,1,100
368,32,38234,6,0,P|407:39|448:88,1,100
264,176,38484,1,0,0:0:0:0:
352,232,38609,2,0,B|352:272|352:272|304:336,1,100
168,336,38859,1,0,0:0:0:0:
168,336,38921,1,0,0:0:0:0:
168,336,38984,1,0,0:0:0:0:
264,280,39109,6,0,L|312:240,2,50
168,336,39359,1,0,0:0:0:0:
190,219,39484,2,0,P|230:235|265:283,1,100
184,144,39734,2,0,P|144:160|109:208,1,100
104,296,39984,1,0,0:0:0:0:
192,344,40109,1,0,0:0:0:0:
232,248,40234,6,0,L|176:216,1,50
192,120,40484,2,0,L|240:144,1,50
320,88,40734,1,0,0:0:0:0:
192,120,40859,1,0,0:0:0:0:
320,88,40984,1,0,0:0:0:0:
192,120,41109,1,0,0:0:0:0:
248,272,41234,6,0,L|176:272,1,50
192,200,41484,2,0,L|264:200,1,50
208,352,41734,1,0,0:0:0:0:
272,200,41859,1,0,0:0:0:0:
208,352,41984,1,0,0:0:0:0:
272,200,42109,1,0,0:0:0:0:
88,200,42234,6,0,P|64:168|64:136,1,50
136,64,42484,2,0,P|176:72|192:96,1,50
224,264,42734,1,0,0:0:0:0:
136,136,42859,1,0,0:0:0:0:
224,264,42984,1,0,0:0:0:0:
136,136,43109,1,0,0:0:0:0:
288,224,43234,6,0,L|336:280,1,50
211,312,43484,2,0,L|227:248,1,50
144,176,43734,2,0,L|96:112,1,75
192,104,43984,2,0,L|240:168,1,75
320,288,44234,5,0,0:0:0:0:
336,184,44359,1,0,0:0:0:0:
224,264,44484,1,0,0:0:0:0:
237,164,44609,1,0,0:0:0:0:
392,296,44734,2,0,P|416:280|416:256,1,50
344,168,44984,2,0,P|328:136|328:120,1,50
408,32,45234,5,0,0:0:0:0:
416,120,45359,1,0,0:0:0:0:
280,152,45484,1,0,0:0:0:0:
312,232,45609,1,0,0:0:0:0:
368,128,45734,2,0,P|336:88|320:80,1,50
216,208,45984,2,0,P|248:168|264:160,1,50
464,160,46234,6,0,P|448:200|392:232,1,100
272,128,46484,1,0,0:0:0:0:
392,160,46609,1,0,0:0:0:0:
288,208,46734,1,0,0:0:0:0:
368,96,46859,1,0,0:0:0:0:
368,232,46984,1,0,0:0:0:0:
256,136,47109,1,0,0:0:0:0:
456,256,47234,2,0,P|432:304|296:304,1,200
240,192,47609,6,0,L|320:224,1,50
360,240,47734,1,0,0:0:0:0:
224,320,47859,1,0,0:0:0:0:
176,144,47984,1,0,0:0:0:0:
304,288,48109,1,0,0:0:0:0:
288,56,48234,2,0,P|360:32|472:112,1,200
328,344,48609,2,0,P|288:320|256:272,1,100
216,112,48859,1,0,0:0:0:0:
432,200,48984,2,0,L|336:272,1,100
384,80,49234,5,0,0:0:0:0:
272,216,49359,1,0,0:0:0:0:
240,72,49484,2,0,L|192:160,1,100
344,240,49734,1,0,0:0:0:0:
256,56,49859,1,0,0:0:0:0:
144,216,49984,2,0,P|184:232|248:216,1,100
400,56,50234,6,0,P|344:40|296:56,1,100
352,264,50484,1,0,0:0:0:0:
192,224,50609,2,0,P|142:181|128:136,1,100
240,64,50859,1,0,0:0:0:0:
400,144,50984,2,0,L|296:176,1,100
147,101,51234,5,0,0:0:0:0:
185,90,51296,1,0,0:0:0:0:
224,80,51359,1,0,0:0:0:0:
262,69,51421,1,0,0:0:0:0:
301,59,51484,2,0,L|416:27,1,100
456,144,51734,2,0,L|523:123,3,50
264,160,51984,2,0,P|208:104|208:48,1,100
328,56,52234,5,0,0:0:0:0:
336,176,52359,1,0,0:0:0:0:
104,112,52484,2,0,L|224:88,1,100
304,72,52734,1,0,0:0:0:0:
232,224,52859,1,0,0:0:0:0:
108,127,52984,2,0,L|236:79,1,100
232,224,53234,5,0,0:0:0:0:
112,192,53359,1,0,0:0:0:0:
248,224,53484,1,0,0:0:0:0:
224,96,53609,1,0,0:0:0:0:
336,232,53734,2,0,P|288:296|256:304,1,100
264,144,53984,1,0,0:0:0:0:
400,112,54109,1,0,0:0:0:0:
328,328,54234,6,0,P|288:296|256:216,1,100
344,24,54484,1,0,0:0:0:0:
184,200,54609,2,0,P|168:256|174:332,1,100
360,272,54859,1,0,0:0:0:0:
256,136,54984,2,0,P|168:112|112:120,1,100
48,184,55234,5,0,0:0:0:0:
48,184,55296,1,0,0:0:0:0:
48,184,55359,1,0,0:0:0:0:
184,240,55484,1,0,0:0:0:0:
96,128,55609,1,0,0:0:0:0:
240,192,55734,2,0,L|288:224,2,50
96,128,55984,6,0,B|120:96|120:96|208:96,1,100
328,296,56234,2,0,B|264:304|264:304|200:264,1,100
296,56,56484,1,0,0:0:0:0:
128,112,56609,2,0,P|80:160|72:216,1,100
168,352,56859,1,0,0:0:0:0:
256,200,56984,2,0,L|144:184,1,100
200,304,57234,5,0,0:0:0:0:
328,216,57359,1,0,0:0:0:0:
240,112,57484,2,0,L|152:96,2,50
392,136,57734,1,0,0:0:0:0:
256,232,57859,1,0,0:0:0:0:
432,224,57984,1,0,0:0:0:0:
432,224,58046,1,0,0:0:0:0:
432,224,58109,1,0,0:0:0:0:
344,328,58234,6,0,P|288:328|240:296,1,100
192,136,58484,2,0,P|256:136|304:168,1,100
280,344,58734,6,0,P|221:322|182:270,1,100
193,84,58984,2,0,P|260:108|298:160,1,100
272,264,59234,5,0,0:0:0:0:
312,256,59296,1,0,0:0:0:0:
352,232,59359,1,0,0:0:0:0:
384,200,59421,1,0,0:0:0:0:
392,152,59484,2,0,P|392:104|360:48,1,100
152,112,59734,5,0,0:0:0:0:
165,126,59796,1,0,0:0:0:0:
181,137,59859,1,0,0:0:0:0:
199,144,59921,1,0,0:0:0:0:
218,148,59984,2,0,P|272:147|325:111,1,100
120,32,60234,6,0,P|68:87|64:128,1,100
192,312,60484,1,0,0:0:0:0:
224,160,60609,2,0,P|168:108|128:104,1,100
64,328,60859,1,0,0:0:0:0:
264,240,60984,2,0,P|304:184|304:120,1,100
248,32,61234,5,0,0:0:0:0:
232,168,61359,1,0,0:0:0:0:
152,48,61484,2,0,L|128:160,1,100
264,32,61734,1,0,0:0:0:0:
280,168,61859,1,0,0:0:0:0:
360,48,61984,2,0,L|384:160,1,100
192,256,62234,6,0,B|176:184|176:184|192:112,1,100
320,48,62484,1,0,0:0:0:0:
328,256,62609,2,0,B|269:211|269:211|235:145,1,100
216,56,62859,6,0,L|200:0,2,50
248,208,63109,1,0,0:0:0:0:
248,208,63171,1,0,0:0:0:0:
248,208,63234,1,0,0:0:0:0:
240,64,63359,2,0,P|200:64|168:88,1,75.0000028610231
112,144,63609,1,0,0:0:0:0:
192,224,63734,2,0,P|200:256|176:312,1,75.0000028610231
271,327,63984,2,0,P|304:312|336:280,1,75.0000028610231
384,154,64234,5,0,0:0:0:0:
251,123,64359,1,0,0:0:0:0:
287,255,64484,1,0,0:0:0:0:
331,76,64609,1,0,0:0:0:0:
159,123,64734,1,0,0:0:0:0:
287,255,64859,1,0,0:0:0:0:
232,53,64984,1,0,0:0:0:0:
82,202,65109,1,0,0:0:0:0:
287,255,65234,1,0,0:0:0:0:
121,99,65359,1,0,0:0:0:0:
73,321,65484,1,0,0:0:0:0:
287,255,65609,1,0,0:0:0:0:
255,73,65734,5,0,0:0:0:0:
368,168,65859,1,0,0:0:0:0:
256,80,65984,1,0,0:0:0:0:
280,224,66109,1,0,0:0:0:0:
140,131,66234,6,0,P|188:219|308:203,1,200
264,32,66609,2,0,B|288:72|288:72|280:104,1,75.0000028610231
232,152,66859,1,0,0:0:0:0:
408,144,66984,2,0,B|375:177|375:177|342:178,1,75.0000028610231
240,168,67234,1,0,0:0:0:0:
168,72,67359,1,0,0:0:0:0:
344,32,67484,2,0,L|344:121,1,75.0000028610231
240,168,67734,1,0,0:0:0:0:
168,72,67859,1,0,0:0:0:0:
64,216,67984,2,0,L|64:312,1,75.0000028610231
296,320,68234,6,0,B|320:280|320:280|312:248,1,75.0000028610231
160,152,68484,2,0,B|136:112|136:112|144:80,1,75.0000028610231
264,88,68734,1,0,0:0:0:0:
224,200,68859,1,0,0:0:0:0:
400,208,68984,2,0,B|446:208|446:208|470:185,1,75.0000028610231
320,80,69234,5,0,0:0:0:0:
298,99,69317,1,0,0:0:0:0:
276,117,69400,1,0,0:0:0:0:
256,136,69484,2,0,B|224:168|224:168|224:208,1,75.0000028610231
408,264,69734,1,0,0:0:0:0:
296,200,69859,1,0,0:0:0:0:
480,304,69984,2,0,L|480:216,1,75.0000028610231
264,64,70234,6,0,B|225:90|225:90|220:123,1,75.0000028610231
288,320,70484,2,0,B|312:280|312:280|304:248,1,75.0000028610231
272,176,70734,1,0,0:0:0:0:
144,152,70859,1,0,0:0:0:0:
384,232,70984,2,0,L|408:320,1,75.0000028610231
240,176,71234,1,0,0:0:0:0:
368,152,71359,1,0,0:0:0:0:
128,232,71484,2,0,L|104:320,1,75.0000028610231
256,272,71734,1,0,0:0:0:0:
144,168,71859,1,0,0:0:0:0:
312,320,71984,2,0,B|336:280|336:280|328:248,1,75.0000028610231
72,232,72234,6,0,B|102:267|102:267|135:269,1,75.0000028610231
320,112,72484,2,0,L|224:104,1,75.0000028610231
248,240,72734,1,0,0:0:0:0:
176,96,72859,1,0,0:0:0:0:
360,40,72984,2,0,P|400:96|392:160,1,119.999996337891
360,224,73171,5,0,0:0:0:0:
360,224,73234,1,0,0:0:0:0:
160,120,73359,1,0,0:0:0:0:
328,112,73484,1,0,0:0:0:0:
152,40,73609,1,0,0:0:0:0:
304,208,73734,2,0,P|360:208|408:152,1,119.999996337891
400,48,73984,1,0,0:0:0:0:
264,104,74109,1,0,0:0:0:0:
400,48,74234,6,0,B|408:120|408:120|384:176,1,119.999996337891
256,224,74484,2,0,L|296:152,1,59.9999981689454
320,96,74609,1,0,0:0:0:0:
160,144,74734,2,0,L|96:248,1,119.999996337891
286,231,74984,6,0,L|284:148,1,59.9999981689454
277,88,75109,1,0,0:0:0:0:
160,144,75234,2,0,L|160:288,1,119.999996337891
315,223,75484,6,0,L|272:152,1,59.9999981689454
236,103,75609,1,0,0:0:0:0:
160,144,75734,2,0,L|240:272,1,119.999996337891
288,272,75984,6,0,L|328:200,1,59.9999981689454
352,144,76109,1,0,0:0:0:0:
224,144,76234,1,0,0:0:0:0:
224,144,76359,1,0,0:0:0:0:
344,40,76484,6,0,L|342:122,1,59.9999981689454
335,182,76609,1,0,0:0:0:0:
224,118,76734,1,0,0:0:0:0:
224,118,76859,1,0,0:0:0:0:
343,99,76984,6,0,L|300:169,1,59.9999981689454
264,217,77109,1,0,0:0:0:0:
200,106,77234,1,0,0:0:0:0:
200,106,77359,1,0,0:0:0:0:
248,312,77484,6,0,P|185:283|176:200,1,119.999996337891
320,80,77734,1,0,0:0:0:0:
320,112,77796,1,0,0:0:0:0:
320,144,77859,1,0,0:0:0:0:
320,176,77921,1,0,0:0:0:0:
320,208,77984,2,0,B|320:304|320:304|312:344,1,119.999996337891
168,128,78234,5,0,0:0:0:0:
248,232,78359,1,0,0:0:0:0:
320,120,78484,2,0,L|320:48,2,59.9999981689454
168,232,78734,1,0,0:0:0:0:
328,232,78859,1,0,0:0:0:0:
256,104,78984,1,0,0:0:0:0:
256,104,79046,1,0,0:0:0:0:
256,104,79109,1,0,0:0:0:0:
248,264,79234,6,0,P|208:312|152:320,1,119.999996337891
120,168,79484,2,0,L|56:104,2,59.9999981689454
288,336,79734,1,0,0:0:0:0:
152,208,79859,1,0,0:0:0:0:
296,208,79984,1,0,0:0:0:0:
296,208,80047,1,0,0:0:0:0:
296,208,80109,1,0,0:0:0:0:
128,128,80234,6,0,B|168:72|168:72|248:64,1,119.999996337891
256,168,80484,1,0,0:0:0:0:
88,192,80609,1,0,0:0:0:0:
293,66,80734,2,0,B|344:72|344:72|384:128,1,119.999996337891
256,192,80984,1,0,0:0:0:0:
224,64,81109,1,0,0:0:0:0:
472,40,81234,6,0,L|392:152,1,119.999996337891
360,200,81421,1,0,0:0:0:0:
360,200,81484,1,0,0:0:0:0:
280,272,81609,1,0,0:0:0:0:
304,136,81734,1,0,0:0:0:0:
216,248,81859,1,0,0:0:0:0:
176,112,81984,1,0,0:0:0:0:
288,208,82109,1,0,0:0:0:0:
136,256,82234,6,0,L|24:304,2,100
208,80,82609,2,0,B|248:128|248:128|264:192,1,100
304,288,82859,1,0,0:0:0:0:
376,80,82984,2,0,B|336:128|336:128|320:192,1,100
408,312,83234,5,0,0:0:0:0:
408,160,83359,1,0,0:0:0:0:
272,240,83484,2,0,L|208:280,2,50
424,240,83734,5,0,0:0:0:0:
348,108,83859,1,0,0:0:0:0:
270,245,83984,2,0,L|234:311,2,50
320,80,84234,5,0,0:0:0:0:
200,168,84359,1,0,0:0:0:0:
376,192,84484,1,0,0:0:0:0:
246,289,84609,2,0,B|190:273|190:273|158:233,1,100
304,128,84859,1,0,0:0:0:0:
410,295,84984,2,0,B|384:328|384:328|328:344,1,100
160,189,85234,6,0,L|264:157,1,100
336,264,85484,2,0,L|240:293,1,100
256,88,85734,1,0,0:0:0:0:
280,96,85796,1,0,0:0:0:0:
296,104,85859,2,0,L|336:152,1,50
416,200,85984,2,0,L|496:240,3,50
368,56,86234,6,0,B|312:32|312:32|232:32,1,100
112,112,86484,1,0,0:0:0:0:
216,184,86609,2,0,B|272:160|272:160|352:160,1,100
472,240,86859,1,0,0:0:0:0:
192,280,86984,2,0,P|136:240|120:192,1,100
176,56,87234,5,0,0:0:0:0:
304,112,87359,1,0,0:0:0:0:
200,200,87484,1,0,0:0:0:0:
328,256,87609,1,0,0:0:0:0:
272,128,87734,1,0,0:0:0:0:
208,256,87859,1,0,0:0:0:0:
352,184,87984,1,0,0:0:0:0:
192,184,88109,1,0,0:0:0:0:
320,285,88234,6,0,P|360:229|368:189,1,100
256,109,88484,2,0,P|216:165|208:205,1,100
369,297,88734,2,0,P|375:228|362:189,1,100
206,96,88984,2,0,P|199:164|212:203,1,100
368,96,89234,6,0,L|424:56,3,50
272,152,89484,1,0,0:0:0:0:
272,152,89609,1,0,0:0:0:0:
392,232,89734,2,0,L|448:272,3,50
272,152,89984,1,0,0:0:0:0:
272,152,90109,1,0,0:0:0:0:
200,296,90234,6,0,B|264:312|264:312|320:296,1,100
336,120,90484,1,0,0:0:0:0:
128,168,90609,2,0,L|128:288,1,100
184,120,90859,1,0,0:0:0:0:
384,168,90984,2,0,L|384:288,1,100
224,208,91234,5,0,0:0:0:0:
336,120,91359,1,0,0:0:0:0:
216,64,91484,1,0,0:0:0:0:
312,208,91609,1,0,0:0:0:0:
160,264,91734,1,0,0:0:0:0:
160,264,91796,1,0,0:0:0:0:
160,264,91859,1,0,0:0:0:0:
176,48,91984,1,0,0:0:0:0:
256,264,92109,1,0,0:0:0:0:
72,184,92234,6,0,B|136:144|136:144|192:144,1,100
304,184,92484,1,0,0:0:0:0:
88,352,92609,2,0,P|40:280|88:176,1,200
248,232,92984,2,0,L|152:264,1,100
248,128,93234,1,0,0:0:0:0:
312,304,93359,1,0,0:0:0:0:
320,112,93484,1,0,0:0:0:0:
384,296,93609,1,0,0:0:0:0:
208,128,93734,5,0,0:0:0:0:
208,144,93796,1,0,0:0:0:0:
208,160,93859,2,0,L|208:232,1,50
288,280,93984,2,0,L|288:224,3,50
160,88,94234,6,0,B|128:120|128:120|128:216,1,100
232,312,94484,1,0,0:0:0:0:
360,176,94609,2,0,L|440:96,2,100
272,248,94984,2,0,L|152:248,1,100
104,184,95234,1,0,0:0:0:0:
272,248,95359,1,0,0:0:0:0:
88,264,95484,1,0,0:0:0:0:
248,328,95609,1,0,0:0:0:0:
288,160,95734,5,0,0:0:0:0:
344,344,95859,1,0,0:0:0:0:
368,176,95984,1,0,0:0:0:0:
416,336,96109,1,0,0:0:0:0:
256,240,96234,2,0,P|208:173|323:237,1,400
224,320,96859,1,0,0:0:0:0:
120,208,96984,2,0,P|120:120|144:80,1,100
232,128,97234,6,0,L|200:168,1,50
104,272,97484,1,0,0:0:0:0:
104,272,97609,1,0,0:0:0:0:
232,128,97734,2,0,L|248:200,1,50
264,256,97984,1,0,0:0:0:0:
264,256,98109,1,0,0:0:0:0:
320,104,98234,6,0,P|256:48|152:96,1,200
229,260,98609,2,0,P|253:148|332:101,1,200
296,312,98984,2,0,P|200:336|168:320,1,100
72,272,99234,1,0,0:0:0:0:
152,144,99359,1,0,0:0:0:0:
232,272,99484,2,0,L|128:216,1,100
80,176,99734,1,0,0:0:0:0:
227,121,99859,1,0,0:0:0:0:
322,230,99984,2,0,L|218:278,1,100
40,168,100234,6,0,P|80:72|168:56,1,200
312,256,100609,2,0,P|248:288|200:264,1,100
128,144,100859,1,0,0:0:0:0:
296,176,100984,1,0,0:0:0:0:
152,272,101109,1,0,0:0:0:0:
232,104,101234,6,0,P|336:96|352:104,1,100
472,200,101484,2,0,P|392:256|392:280,1,100
296,320,101734,2,0,P|248:264|248:208,1,100
272,48,101984,1,0,0:0:0:0:
152,136,102109,1,0,0:0:0:0:
184,288,102234,6,0,P|280:272|328:176,1,200
104,64,102609,2,0,P|136:136|168:160,1,100
232,200,102859,1,0,0:0:0:0:
384,120,102984,2,0,P|320:104|272:128,1,100
224,200,103234,1,0,0:0:0:0:
224,200,103359,1,0,0:0:0:0:
336,176,103484,1,0,0:0:0:0:
216,280,103609,1,0,0:0:0:0:
376,264,103734,1,0,0:0:0:0:
376,264,103859,1,0,0:0:0:0:
208,352,103984,6,0,P|152:304|152:248,1,100
320,176,104234,2,0,P|376:128|376:72,1,100
144,64,104484,1,0,0:0:0:0:
248,232,104609,2,0,P|312:264|432:208,1,200
360,80,104984,2,0,L|320:176,1,100
248,320,105234,5,0,0:0:0:0:
205,293,105296,1,0,0:0:0:0:
175,252,105359,1,0,0:0:0:0:
169,202,105421,1,0,0:0:0:0:
186,154,105484,1,0,0:0:0:0:
312,216,105609,5,0,0:0:0:0:
248,128,105734,1,0,0:0:0:0:
224,104,105796,1,0,0:0:0:0:
192,96,105859,1,0,0:0:0:0:
160,96,105921,1,0,0:0:0:0:
128,104,105984,2,0,P|64:144|48:208,1,100
264,192,106234,6,0,P|360:256|392:360,1,200
200,136,106609,2,0,P|280:112|320:136,1,100
280,304,106859,1,0,0:0:0:0:
96,160,106984,2,0,P|104:104|144:64,1,100
312,112,107234,5,0,0:0:0:0:
168,136,107359,1,0,0:0:0:0:
336,192,107484,2,0,L|400:200,2,50
168,136,107734,1,0,0:0:0:0:
336,192,107859,1,0,0:0:0:0:
160,216,107984,2,0,L|88:224,2,50
392,288,108234,6,0,P|432:208|424:168,1,100
272,160,108484,2,0,P|232:240|240:280,1,100
422,296,108734,2,0,P|432:202|406:160,1,100
242,151,108984,2,0,P|230:243|256:285,1,100
360,344,109234,5,0,0:0:0:0:
240,264,109359,1,0,0:0:0:0:
320,136,109484,2,0,P|304:104|232:64,1,100
88,96,109734,1,0,0:0:0:0:
88,96,109796,1,0,0:0:0:0:
88,96,109859,1,0,0:0:0:0:
136,248,109984,1,0,0:0:0:0:
240,144,110109,1,0,0:0:0:0:
304,336,110234,6,0,P|360:336|408:296,1,100
320,80,110484,1,0,0:0:0:0:
200,200,110609,2,0,P|160:216|16:168,1,200
200,56,110984,2,0,B|248:56|248:56|312:104,1,100
264,256,111234,5,0,0:0:0:0:
136,216,111359,1,0,0:0:0:0:
227,127,111484,2,0,L|304:192,1,100
264,256,111734,1,0,0:0:0:0:
88,224,111859,1,0,0:0:0:0:
227,127,111984,2,0,L|304:192,1,100
304,344,112234,6,0,P|256:344|184:296,1,100
88,112,112484,1,0,0:0:0:0:
256,200,112609,2,0,P|304:200|376:152,1,100
304,40,112859,2,0,P|256:40|184:88,1,100
80,160,113109,1,0,0:0:0:0:
224,288,113234,2,0,L|239:233,1,50
176,136,113359,2,0,L|144:259,1,100
224,288,113609,2,0,L|239:233,1,50
184,136,113734,2,0,L|232:120,1,50
336,152,113859,1,0,0:0:0:0:
232,240,113984,1,0,0:0:0:0:
368,312,114109,1,0,0:0:0:0:
355,197,114234,6,0,L|331:141,1,50
264,88,114484,2,0,L|288:144,1,50
320,216,114734,1,0,0:0:0:0:
192,120,114859,1,0,0:0:0:0:
240,248,114984,1,0,0:0:0:0:
192,120,115109,1,0,0:0:0:0:
152,272,115234,6,0,L|120:208,1,50
96,112,115484,2,0,L|168:112,1,50
240,256,115734,1,0,0:0:0:0:
232,104,115859,1,0,0:0:0:0:
360,184,115984,1,0,0:0:0:0:
240,256,116109,1,0,0:0:0:0:
376,112,116234,6,0,P|408:128|424:144,1,50
344,264,116484,2,0,P|312:248|296:224,1,50
240,104,116734,1,0,0:0:0:0:
368,192,116859,1,0,0:0:0:0:
175,149,116984,1,0,0:0:0:0:
304,240,117109,1,0,0:0:0:0:
352,72,117234,6,0,L|368:136,1,50
304,232,117484,2,0,L|288:160,1,50
216,88,117734,2,0,P|176:120|168:160,1,75
208,224,117984,2,0,P|200:256|168:296,1,75
80,216,118234,5,0,0:0:0:0:
280,160,118359,1,0,0:0:0:0:
248,296,118484,1,0,0:0:0:0:
176,168,118609,1,0,0:0:0:0:
336,224,118734,2,0,P|352:200|360:168,1,50
280,88,118984,2,0,P|264:120|264:136,1,50
368,232,119234,5,0,0:0:0:0:
336,136,119359,1,0,0:0:0:0:
176,144,119484,1,0,0:0:0:0:
225,55,119609,1,0,0:0:0:0:
408,120,119734,2,0,P|408:152|392:184,1,50
248,192,119984,2,0,P|264:240|280:248,1,50
440,56,120234,6,0,P|400:48|376:56,1,50
248,120,120484,1,0,0:0:0:0:
392,160,120609,1,0,0:0:0:0:
264,280,120734,6,0,P|344:288|464:224,1,200
312,72,121109,1,0,0:0:0:0:
312,72,121171,1,0,0:0:0:0:
312,72,121234,1,0,0:0:0:0:
240,200,121359,1,0,0:0:0:0:
312,72,121484,2,0,L|344:184,1,100
376,264,121734,1,0,0:0:0:0:
280,248,121859,1,0,0:0:0:0:
339,168,121984,1,0,0:0:0:0:
240,144,122109,1,0,0:0:0:0:
432,352,122234,6,0,P|464:312|456:152,1,200
264,72,122609,2,0,P|256:120|296:176,1,100
432,104,122859,1,0,0:0:0:0:
336,256,122984,2,0,P|264:272|216:248,1,100
160,88,123234,6,0,L|296:144,1,100
240,264,123484,2,0,L|128:216,1,100
296,144,123734,1,0,0:0:0:0:
296,144,123859,1,0,0:0:0:0:
148,224,123984,2,0,L|28:176,1,100
256,72,124234,6,0,P|320:64|360:88,1,100
328,320,124484,1,0,0:0:0:0:
208,152,124609,2,0,P|136:96|8:104,1,200
96,280,124984,2,0,B|152:280|152:280|208:248,1,100
296,96,125234,1,0,0:0:0:0:
320,208,125359,1,0,0:0:0:0:
214,98,125484,1,0,0:0:0:0:
192,208,125609,1,0,0:0:0:0:
363,49,125734,5,0,0:0:0:0:
378,74,125796,1,0,0:0:0:0:
383,103,125859,1,0,0:0:0:0:
387,132,125921,2,0,P|365:215|315:257,1,150
184,144,126234,2,0,P|120:144|80:168,1,100
176,344,126484,1,0,0:0:0:0:
256,176,126609,2,0,P|248:96|208:72,1,100
64,184,126859,1,0,0:0:0:0:
224,248,126984,2,0,P|304:240|328:200,1,100
336,80,127234,5,0,0:0:0:0:
336,80,127359,1,0,0:0:0:0:
196,151,127484,2,0,L|228:263,1,100
336,80,127734,1,0,0:0:0:0:
336,80,127859,1,0,0:0:0:0:
223,247,127984,2,0,L|291:341,1,100
48,232,128234,6,0,P|48:192|72:128,1,100
304,176,128484,1,0,0:0:0:0:
352,336,128609,2,0,P|392:320|448:160,1,200
312,232,128984,2,0,P|272:240|208:224,1,100
104,80,129234,2,0,P|240:48|296:64,1,200
224,168,129609,5,0,0:0:0:0:
360,112,129734,1,0,0:0:0:0:
366,151,129796,1,0,0:0:0:0:
363,191,129859,1,0,0:0:0:0:
353,229,129921,1,0,0:0:0:0:
332,262,129984,2,0,P|277:314|222:323,1,100
144,160,130234,6,0,P|184:104|248:88,1,100
424,192,130484,1,0,0:0:0:0:
200,216,130609,2,0,P|105:261|48:352,1,200
176,144,130984,2,0,P|256:160|280:192,1,100
360,272,131234,1,0,0:0:0:0:
360,272,131359,1,0,0:0:0:0:
357,144,131484,2,0,P|277:160|253:192,1,100
173,272,131734,1,0,0:0:0:0:
173,272,131859,1,0,0:0:0:0:
208,80,131984,2,0,B|264:64|264:64|328:96,1,100
416,264,132234,6,0,P|368:200|256:152,1,200
136,312,132609,2,0,P|224:320|264:296,1,100
260,152,132859,2,0,P|172:144|132:168,1,100
80,296,133109,1,0,0:0:0:0:
280,248,133234,2,0,P|344:176|328:80,1,200
216,152,133609,5,0,0:0:0:0:
280,48,133734,1,0,0:0:0:0:
312,40,133796,1,0,0:0:0:0:
344,40,133859,1,0,0:0:0:0:
376,56,133921,1,0,0:0:0:0:
408,80,133984,2,0,P|440:152|432:192,1,100
328,288,134234,6,0,B|280:296|280:296|216:280,1,100
48,128,134484,1,0,0:0:0:0:
132,288,134609,2,0,B|180:296|180:296|244:280,1,100
256,104,134859,1,0,0:0:0:0:
312,264,134984,2,0,P|272:344|240:352,1,100
160,192,135234,6,0,L|232:120,1,100
382,193,135484,2,0,L|310:265,1,100
230,121,135734,2,0,L|322:77,1,100
311,263,135984,2,0,L|218:306,1,100
376,136,136234,2,0,P|392:96|368:16,1,100
152,104,136484,1,0,0:0:0:0:
272,232,136609,2,0,P|344:264|464:232,1,200
216,168,136984,5,0,0:0:0:0:
352,104,137108,1,0,0:0:0:0:
352,104,137171,1,0,0:0:0:0:
352,104,137234,2,0,B|392:112|392:112|432:160,1,75.0000028610231
344,304,137484,2,0,L|294:247,1,75.0000028610231
413,138,137734,2,0,L|432:216,1,75.0000028610231
294,247,137984,2,0,L|294:159,1,75.0000028610231
416,216,138234,5,0,0:0:0:0:
296,280,138359,1,0,0:0:0:0:
296,144,138484,1,0,0:0:0:0:
384,304,138609,1,0,0:0:0:0:
208,304,138734,1,0,0:0:0:0:
296,144,138859,1,0,0:0:0:0:
296,352,138984,1,0,0:0:0:0:
112,248,139109,1,0,0:0:0:0:
296,144,139234,1,0,0:0:0:0:
176,336,139359,1,0,0:0:0:0:
72,136,139484,1,0,0:0:0:0:
296,144,139609,1,0,0:0:0:0:
312,328,139734,5,0,0:0:0:0:
376,192,139859,1,0,0:0:0:0:
312,328,139984,1,0,0:0:0:0:
248,192,140109,1,0,0:0:0:0:
104,280,140234,6,0,P|152:304|184:312,1,75.0000028610231
408,280,140484,2,0,P|360:304|328:312,1,75.0000028610231
256,312,140734,1,0,0:0:0:0:
312,144,140859,1,0,0:0:0:0:
331,312,140984,2,0,L|251:312,1,75.0000028610231
160,256,141234,2,0,L|224:232,1,37.5000014305115
280,216,141359,1,0,0:0:0:0:
401,286,141484,2,0,L|313:318,1,75.0000028610231
280,216,141734,1,0,0:0:0:0:
416,176,141859,6,0,L|392:224,1,37.5000014305115
330,311,141984,2,0,L|282:247,1,75.0000028610231
256,144,142234,2,0,P|328:152|352:168,1,75.0000028610231
224,232,142484,2,0,P|184:200|168:160,1,75.0000028610231
192,56,142734,1,0,0:0:0:0:
248,160,142859,1,0,0:0:0:0:
176,288,142984,2,0,P|232:312|280:304,1,75.0000028610231
320,208,143234,5,0,0:0:0:0:
320,176,143317,1,0,0:0:0:0:
320,144,143400,1,0,0:0:0:0:
315,118,143484,2,0,L|265:37,1,75.0000028610231
176,144,143734,1,0,0:0:0:0:
176,168,143817,1,0,0:0:0:0:
176,192,143900,1,0,0:0:0:0:
171,218,143984,2,0,L|121:299,1,75.0000028610231
103,140,144234,6,0,P|160:112|199:108,1,75.0000028610231
171,218,144484,2,0,P|228:246|267:250,1,75.0000028610231
368,208,144734,1,0,0:0:0:0:
232,168,144859,1,0,0:0:0:0:
264,336,144984,2,0,P|312:294|330:260,1,75.0000028610231
208,128,145234,2,0,L|224:184,1,37.5000014305115
240,256,145359,1,0,0:0:0:0:
352,160,145484,2,0,L|320:56,1,75.0000028610231
432,56,145734,1,0,0:0:0:0:
376,232,145859,1,0,0:0:0:0:
256,104,145984,6,0,P|272:40|304:16,1,75.0000028610231
392,304,146234,2,0,P|336:296|312:264,1,75.0000028610231
264,176,146484,1,0,0:0:0:0:
152,256,146609,2,0,P|136:312|144:344,1,75.0000028610231
208,208,146859,1,0,0:0:0:0:
208,208,146921,1,0,0:0:0:0:
208,208,146984,1,0,0:0:0:0:
288,304,147109,1,0,0:0:0:0:
280,152,147234,6,0,P|232:128|184:136,1,75.0000028610231
128,264,147484,1,0,0:0:0:0:
328,208,147609,1,0,0:0:0:0:
200,312,147734,1,0,0:0:0:0:
240,192,147859,1,0,0:0:0:0:
272,344,147984,1,0,0:0:0:0:
336,216,148109,1,0,0:0:0:0:
176,240,148234,2,0,P|200:296|248:328,1,119.999996337891
288,336,148421,5,0,0:0:0:0:
288,336,148484,1,0,0:0:0:0:
368,216,148609,1,0,0:0:0:0:
328,120,148734,1,0,0:0:0:0:
240,232,148859,1,0,0:0:0:0:
248,104,148984,6,0,P|280:64|344:48,1,119.999996337891
408,160,149234,1,0,0:0:0:0:
248,104,149359,1,0,0:0:0:0:
382,51,149484,2,0,B|414:91|414:91|406:171,1,119.999996337891
280,280,149734,5,0,0:0:0:0:
288,256,149796,1,0,0:0:0:0:
296,232,149859,1,0,0:0:0:0:
407,159,149984,2,0,L|391:279,1,119.999996337891
228,233,150234,1,0,0:0:0:0:
309,123,150359,1,0,0:0:0:0:
407,159,150484,2,0,L|333:254,1,119.999996337891
215,133,150734,1,0,0:0:0:0:
340,78,150859,1,0,0:0:0:0:
407,159,150984,2,0,L|295:205,1,119.999996337891
112,264,151234,6,0,L|32:288,2,59.9999981689454
224,232,151484,1,0,0:0:0:0:
224,232,151609,1,0,0:0:0:0:
72,160,151734,2,0,L|208:128,1,119.999996337891
288,112,151984,1,0,0:0:0:0:
288,112,152109,1,0,0:0:0:0:
392,248,152234,6,0,L|276:216,1,119.999996337891
184,230,152484,1,0,0:0:0:0:
352,200,152609,1,0,0:0:0:0:
264,304,152734,2,0,P|201:275|192:192,1,119.999996337891
320,80,152984,1,0,0:0:0:0:
256,208,153109,1,0,0:0:0:0:
176,104,153234,2,0,B|216:48|216:48|288:48,1,119.999996337891
416,48,153484,5,0,0:0:0:0:
416,176,153609,1,0,0:0:0:0:
264,176,153734,2,0,L|264:104,2,59.9999981689454
168,232,153984,5,0,0:0:0:0:
328,232,154109,1,0,0:0:0:0:
272,128,154234,1,0,0:0:0:0:
272,128,154296,1,0,0:0:0:0:
272,128,154359,1,0,0:0:0:0:
248,264,154484,2,0,P|208:312|152:320,1,119.999996337891
120,168,154734,2,0,L|56:104,2,59.9999981689454
288,336,154984,5,0,0:0:0:0:
384,240,155109,1,0,0:0:0:0:
384,240,155171,1,0,0:0:0:0:
384,240,155234,1,0,0:0:0:0:
240,192,155359,1,0,0:0:0:0:
392,320,155484,2,0,B|432:312|432:312|472:232,1,119.999996337891
456,120,155734,1,0,0:0:0:0:
352,64,155859,1,0,0:0:0:0:
280,160,155984,1,0,0:0:0:0:
304,280,156109,1,0,0:0:0:0:
144,160,156234,6,0,P|168:120|232:88,1,112.500004291535
264,80,156484,1,0,0:0:0:0:
336,96,156609,1,0,0:0:0:0:
272,192,156734,1,0,0:0:0:0:
264,80,156859,1,0,0:0:0:0:
208,176,156984,1,0,0:0:0:0:
192,64,157109,1,0,0:0:0:0:
344,144,157234,6,0,P|352:192|328:256,1,112.500004291535
304,280,157484,1,0,0:0:0:0:
232,304,157609,1,0,0:0:0:0:
184,248,157734,2,0,P|232:200|280:192,1,112.500004291535
312,176,157984,2,0,P|328:168|224:96,1,262.500010013581
216,112,158484,5,0,0:0:0:0:
232,184,158609,1,0,0:0:0:0:
336,216,158734,1,0,0:0:0:0:
248,288,158859,1,0,0:0:0:0:
232,176,158984,1,0,0:0:0:0:
336,216,159109,1,0,0:0:0:0:
176,224,159234,6,0,P|160:176|200:104,1,112.500004291535
216,96,159484,1,0,0:0:0:0:
288,72,159609,1,0,0:0:0:0:
240,176,159734,2,0,P|288:192|352:176,1,112.500004291535
400,128,159984,2,0,P|352:104|288:128,1,112.500004291535
240,176,160234,6,0,P|200:144|176:72,1,112.500004291535
184,48,160484,1,0,0:0:0:0:
256,32,160609,1,0,0:0:0:0:
344,112,160734,1,0,0:0:0:0:
248,176,160859,1,0,0:0:0:0:
344,240,160984,1,0,0:0:0:0:
240,304,161109,1,0,0:0:0:0:
408,312,161234,6,0,P|432:280|424:200,1,112.500004291535
408,184,161484,1,0,0:0:0:0:
344,136,161609,1,0,0:0:0:0:
264,264,161734,2,0,P|344:264|368:232,1,112.500004291535
352,208,161984,2,0,P|296:192|272:128,1,112.500004291535
448,176,162234,6,0,P|464:240|448:288,1,112.500004291535
432,312,162484,1,0,0:0:0:0:
360,336,162609,1,0,0:0:0:0:
280,256,162734,1,0,0:0:0:0:
392,232,162859,1,0,0:0:0:0:
360,336,162984,1,0,0:0:0:0:
328,224,163109,1,0,0:0:0:0:
264,344,163234,6,0,P|216:320|192:272,1,75.0000028610231
272,272,163484,5,0,0:0:0:0:
272,240,163567,1,0,0:0:0:0:
264,216,163650,1,0,0:0:0:0:
248,192,163734,2,0,P|208:144|152:128,1,112.500004291535
136,160,163984,2,0,P|64:168|32:144,1,112.500004291535
96,56,164234,6,0,P|149:43|197:69,1,112.500004291535
224,96,164484,1,0,0:0:0:0:
256,160,164609,1,0,0:0:0:0:
144,176,164734,1,0,0:0:0:0:
224,96,164859,1,0,0:0:0:0:
240,208,164984,1,0,0:0:0:0:
320,136,165109,1,0,0:0:0:0:
176,248,165234,6,0,P|248:280|296:264,1,112.500004291535
312,256,165484,1,0,0:0:0:0:
360,192,165609,1,0,0:0:0:0:
232,104,165734,2,0,P|216:160|256:216,1,112.500004291535
272,224,165984,6,0,P|280:304|128:320,1,262.500010013581
112,296,166484,1,0,0:0:0:0:
96,224,166609,1,0,0:0:0:0:
200,192,166734,1,0,0:0:0:0:
104,136,166859,1,0,0:0:0:0:
144,240,166984,1,0,0:0:0:0:
176,128,167109,1,0,0:0:0:0:
216,280,167234,6,0,P|272:240|288:176,1,112.500004291535
288,160,167484,1,0,0:0:0:0:
248,96,167609,1,0,0:0:0:0:
136,176,167734,1,0,0:0:0:0:
376,256,167984,1,0,0:0:0:0:
288,96,168234,6,0,L|156:168,1,150.000005722046
192,232,168734,2,0,L|328:160,1,150.000005722046
264,56,169234,2,0,L|132:128,1,150.000005722046
224,312,169734,2,0,L|360:240,1,150.000005722046
80,168,170234,5,0,0:0:0:0:
88,160,170359,1,0,0:0:0:0:
112,144,170484,1,0,0:0:0:0:
136,136,170609,1,0,0:0:0:0:
160,136,170734,1,0,0:0:0:0:
192,144,170859,1,0,0:0:0:0:
216,160,170984,1,0,0:0:0:0:
240,192,171109,1,0,0:0:0:0:
240,232,171234,6,0,L|184:296,1,75.0000028610231
86,176,171484,2,0,L|142:112,1,75.0000028610231
368,240,171734,2,0,B|336:280|336:280|288:288,1,75.0000028610231
136,120,171984,2,0,L|240:96,1,75.0000028610231
384,304,172234,6,0,P|312:304|264:272,1,112.500004291535
264,128,172484,1,0,0:0:0:0:
336,224,172609,1,0,0:0:0:0:
264,128,172734,2,0,L|256:184,1,37.5000014305115
248,248,172859,1,0,0:0:0:0:
336,224,172984,1,0,0:0:0:0:
352,136,173109,1,0,0:0:0:0:
184,200,173234,6,0,P|232:240|264:248,1,75.0000028610231
296,184,173484,1,0,0:0:0:0:
312,208,173567,1,0,0:0:0:0:
320,232,173650,1,0,0:0:0:0:
320,256,173734,2,0,P|280:312|240:320,1,112.500004291535
232,240,173984,2,0,P|152:208|96:344,1,262.500010013581
128,360,174484,5,0,0:0:0:0:
248,328,174609,1,0,0:0:0:0:
312,208,174734,2,0,L|328:264,1,37.5000014305115
360,344,174859,1,0,0:0:0:0:
432,240,174984,1,0,0:0:0:0:
312,208,175109,1,0,0:0:0:0:
360,344,175234,6,0,P|392:328|416:280,1,75.0000028610231
432,168,175484,1,0,0:0:0:0:
392,200,175567,1,0,0:0:0:0:
344,208,175650,1,0,0:0:0:0:
296,200,175734,2,0,P|264:160|272:88,1,112.500004291535
304,32,175984,2,0,P|336:64|320:152,1,112.500004291535
336,152,176234,6,0,P|376:176|384:128,1,112.500004291535
272,96,176484,1,0,0:0:0:0:
248,200,176609,1,0,0:0:0:0:
352,256,176734,2,0,L|302:226,1,37.5000014305115
248,200,176859,1,0,0:0:0:0:
352,120,176984,1,0,0:0:0:0:
360,256,177109,1,0,0:0:0:0:
280,117,177234,2,0,P|304:109|368:133,1,75.0000028610231
328,232,177484,5,0,0:0:0:0:
274,230,177567,1,0,0:0:0:0:
232,197,177650,1,0,0:0:0:0:
204,157,177734,2,0,P|198:106|248:40,1,112.500004291535
256,56,177984,2,0,P|336:104|376:104,1,112.500004291535
384,56,178234,6,0,P|336:72|304:128,1,112.500004291535
320,224,178484,1,0,0:0:0:0:
408,144,178609,1,0,0:0:0:0:
304,122,178734,2,0,L|312:176,1,37.5000014305115
320,224,178859,1,0,0:0:0:0:
224,120,178984,1,0,0:0:0:0:
240,240,179109,1,0,0:0:0:0:
144,128,179234,2,0,P|160:80|200:56,1,75.0000028610231
304,112,179484,5,0,0:0:0:0:
279,153,179567,1,0,0:0:0:0:
242,185,179650,1,0,0:0:0:0:
193,206,179734,2,0,P|144:216|80:192,1,112.500004291535
80,176,179984,2,0,P|128:128|128:72,1,112.500004291535
128,72,180234,6,0,P|208:128|240:128,1,112.500004291535
328,96,180484,1,0,0:0:0:0:
216,40,180609,1,0,0:0:0:0:
264,192,180734,2,0,L|288:152,1,37.5000014305115
328,96,180859,1,0,0:0:0:0:
264,192,180984,1,0,0:0:0:0:
384,136,181109,1,0,0:0:0:0:
264,192,181234,2,0,L|360:200,1,75.0000028610231
384,312,181484,5,0,0:0:0:0:
336,312,181567,1,0,0:0:0:0:
288,304,181650,1,0,0:0:0:0:
240,280,181734,2,0,P|184:232|176:184,1,112.500004291535
216,184,181984,2,0,P|192:280|48:256,1,262.500010013581
32,184,182484,5,0,0:0:0:0:
112,96,182609,1,0,0:0:0:0:
246,162,182734,2,0,L|211:187,1,37.5000014305115
136,224,182859,1,0,0:0:0:0:
272,296,182984,1,0,0:0:0:0:
215,183,183109,1,0,0:0:0:0:
152,304,183234,2,0,P|80:280|64:256,1,75.0000028610231
120,112,183484,5,0,0:0:0:0:
168,96,183567,1,0,0:0:0:0:
216,104,183650,1,0,0:0:0:0:
256,128,183734,2,0,P|312:152|368:120,1,112.500004291535
392,112,183984,2,0,P|464:136|480:176,1,112.500004291535
480,200,184234,6,0,P|400:272|376:264,1,112.500004291535
312,224,184484,1,0,0:0:0:0:
408,192,184609,1,0,0:0:0:0:
360,296,184734,2,0,L|320:248,1,37.5000014305115
280,200,184859,1,0,0:0:0:0:
248,112,184984,1,0,0:0:0:0:
304,32,185109,1,0,0:0:0:0:
369,138,185234,6,0,B|337:178|337:178|273:202,1,112.500004291535
296,96,185484,1,0,0:0:0:0:
208,208,185609,1,0,0:0:0:0:
248,48,185734,2,0,P|304:32|344:56,1,75.0000028610231
424,176,185984,5,0,0:0:0:0:
409,195,186067,1,0,0:0:0:0:
394,215,186150,1,0,0:0:0:0:
378,235,186234,1,0,0:0:0:0:
96,216,186400,1,0,0:0:0:0:
296,192,186567,1,0,0:0:0:0:
128,80,186734,1,0,0:0:0:0:
184,272,186900,1,0,0:0:0:0:
296,104,187067,1,0,0:0:0:0:
152,264,187234,6,0,P|144:184|256:280,1,350
168,344,188234,6,0,P|104:328|72:256,1,119.999996337891
120,112,188484,1,0,0:0:0:0:
296,112,188609,1,0,0:0:0:0:
168,240,188734,1,0,0:0:0:0:
208,64,188859,1,0,0:0:0:0:
248,240,188984,1,0,0:0:0:0:
72,240,189109,1,0,0:0:0:0:
240,168,189234,1,0,0:0:0:0:
64,168,189359,1,0,0:0:0:0:
184,296,189484,1,0,0:0:0:0:
152,120,189609,1,0,0:0:0:0:
56,304,189734,6,0,B|94:336|161:324|161:324|187:290|187:290|224:305|289:257,1,239.999992675781
216,56,190109,1,0,0:0:0:0:
414,191,190234,6,0,B|294:207|262:191|262:191|182:247|150:207,1,239.999992675781
96,64,190609,1,0,0:0:0:0:
264,120,190734,1,0,0:0:0:0:
104,192,190859,1,0,0:0:0:0:
192,32,190984,1,0,0:0:0:0:
288,184,191109,1,0,0:0:0:0:
56,256,191234,6,0,P|32:168|160:128,1,239.999992675781
200,256,191609,1,0,0:0:0:0:
336,208,191734,1,0,0:0:0:0:
344,160,191796,1,0,0:0:0:0:
336,112,191859,1,0,0:0:0:0:
152,200,191984,1,0,0:0:0:0:
336,112,192109,1,0,0:0:0:0:
200,48,192234,6,0,P|152:96|144:160,1,119.999996337891
344,192,192484,1,0,0:0:0:0:
152,240,192609,2,0,P|96:224|48:152,1,119.999996337891
200,64,192859,1,0,0:0:0:0:
248,248,192984,2,0,P|232:296|168:328,1,119.999996337891
200,64,193234,2,0,P|264:56|328:80,1,119.999996337891
352,240,193484,1,0,0:0:0:0:
168,192,193609,2,0,P|192:147|183:189,1,119.999996337891
248,264,193859,1,0,0:0:0:0:
376,304,193984,6,0,P|448:272|464:208,1,119.999996337891
312,112,194234,2,0,P|248:120|200:160,1,119.999996337891
232,312,194484,1,0,0:0:0:0:
376,176,194609,2,0,P|392:136|376:56,1,119.999996337891
224,120,194859,1,0,0:0:0:0:
280,264,194984,2,0,P|136:224|104:136,1,239.999992675781
104,120,195296,1,0,0:0:0:0:
112,104,195359,1,0,0:0:0:0:
128,88,195421,1,0,0:0:0:0:
144,72,195484,1,0,0:0:0:0:
256,32,195609,5,0,0:0:0:0:
280,160,195734,5,0,0:0:0:0:
304,216,195796,1,0,0:0:0:0:
352,248,195859,1,0,0:0:0:0:
408,256,195921,1,0,0:0:0:0:
464,240,195984,2,0,P|480:216|368:80,1,239.999992675781
200,120,196359,1,0,0:0:0:0:
336,232,196484,2,0,P|408:184|400:136,1,119.999996337891
280,64,196734,5,0,0:0:0:0:
208,216,196859,1,0,0:0:0:0:
280,64,196984,1,0,0:0:0:0:
144,168,197109,1,0,0:0:0:0:
296,232,197234,1,0,0:0:0:0:
200,96,197359,1,0,0:0:0:0:
192,264,197484,1,0,0:0:0:0:
320,152,197609,1,0,0:0:0:0:
160,112,197734,5,0,0:0:0:0:
130,156,197796,1,0,0:0:0:0:
124,210,197859,1,0,0:0:0:0:
130,263,197921,1,0,0:0:0:0:
156,310,197984,2,0,P|234:348|275:333,1,119.999996337891
352,248,198234,1,0,0:0:0:0:
240,184,198359,1,0,0:0:0:0:
408,312,198484,2,0,P|432:248|392:178,1,119.999996337891
224,88,198734,5,0,0:0:0:0:
112,136,198859,1,0,0:0:0:0:
288,192,198984,1,0,0:0:0:0:
224,88,199109,1,0,0:0:0:0:
224,264,199234,1,0,0:0:0:0:
304,176,199359,1,0,0:0:0:0:
128,136,199484,1,0,0:0:0:0:
200,232,199609,1,0,0:0:0:0:
376,144,199734,6,0,B|312:112|312:112|264:128|264:136|192:144,1,179.999994506836
80,200,199984,2,0,B|152:208|152:208|192:240|192:240|208:224|208:224|248:208,1,179.999994506836
408,80,200234,2,0,P|448:128|312:184,1,239.999992675781
232,72,200609,5,0,0:0:0:0:
336,208,200734,2,0,B|280:248|280:248|232:232,1,119.999996337891
160,136,200984,1,0,0:0:0:0:
280,56,201109,1,0,0:0:0:0:
231,231,201234,2,0,B|162:237|162:237|128:199,1,119.999996337891
280,56,201484,1,0,0:0:0:0:
128,199,201609,1,0,0:0:0:0:
177,24,201734,2,0,B|245:17|245:17|279:55,1,119.999996337891
368,304,201984,5,0,0:0:0:0:
120,216,202109,1,0,0:0:0:0:
424,144,202234,1,0,0:0:0:0:
256,328,202359,1,0,0:0:0:0:
240,80,202484,1,0,0:0:0:0:
408,280,202609,1,0,0:0:0:0:
152,208,202734,1,0,0:0:0:0:
408,120,202859,1,0,0:0:0:0:
232,304,202984,1,0,0:0:0:0:
208,72,203109,1,0,0:0:0:0:
400,288,203234,6,0,P|336:304|272:288,1,119.999996337891
240,280,203421,1,0,0:0:0:0:
240,280,203484,1,0,0:0:0:0:
320,136,203609,1,0,0:0:0:0:
176,224,203734,1,0,0:0:0:0:
336,216,203859,1,0,0:0:0:0:
184,152,203984,1,0,0:0:0:0:
320,144,204109,1,0,0:0:0:0:
240,328,204234,6,0,P|208:312|176:256,1,100
176,184,204609,1,0,0:0:0:0:
200,112,204734,1,0,0:0:0:0:
264,80,204859,1,0,0:0:0:0:
304,216,204984,2,0,P|272:232|256:256,1,50
312,336,205234,2,0,P|344:312|352:296,1,50
360,232,205484,1,0,0:0:0:0:
360,232,205609,1,0,0:0:0:0:
232,176,205734,2,0,P|200:152|192:128,1,66.6666666666667
304,56,205984,5,0,0:0:0:0:
304,104,206067,1,0,0:0:0:0:
256,112,206150,1,0,0:0:0:0:
232,64,206234,1,0,0:0:0:0:
312,200,206359,1,0,0:0:0:0:
312,200,206421,1,0,0:0:0:0:
312,200,206484,1,0,0:0:0:0:
232,248,206609,1,0,0:0:0:0:
232,104,206734,5,0,0:0:0:0:
232,104,206859,1,0,0:0:0:0:
345,164,206984,2,0,P|329:188|297:204,1,50
272,208,207234,1,0,0:0:0:0:
240,184,207359,2,0,P|248:152|272:120,1,50
416,160,207609,6,0,L|376:168,1,25
312,176,207734,1,0,0:0:0:0:
384,80,207859,1,0,0:0:0:0:
456,112,207984,1,0,0:0:0:0:
480,184,208109,1,0,0:0:0:0:
312,176,208234,2,0,P|272:192|264:216,1,50
264,272,208484,1,0,0:0:0:0:
312,328,208609,1,0,0:0:0:0:
384,232,208734,5,0,0:0:0:0:
392,184,208817,1,0,0:0:0:0:
368,136,208900,1,0,0:0:0:0:
328,104,208984,2,0,P|264:80|216:96,1,100
176,224,209359,1,0,0:0:0:0:
280,160,209484,1,0,0:0:0:0:
291,208,209567,1,0,0:0:0:0:
277,256,209650,1,0,0:0:0:0:
245,295,209734,2,0,P|197:319|157:319,1,66.6666666666667
144,296,209984,5,0,0:0:0:0:
144,296,210046,1,0,0:0:0:0:
152,280,210109,1,0,0:0:0:0:
152,248,210171,1,0,0:0:0:0:
128,224,210234,1,0,0:0:0:0:
288,240,210400,1,0,0:0:0:0:
160,136,210567,1,0,0:0:0:0:
88,208,210734,1,0,0:0:0:0:
112,304,210900,1,0,0:0:0:0:
160,136,211067,5,0,0:0:0:0:
256,152,211234,1,0,0:0:0:0:
312,232,211400,1,0,0:0:0:0:
272,320,211567,1,0,0:0:0:0:
176,328,211734,1,0,0:0:0:0:
128,240,211900,1,0,0:0:0:0:
224,256,212067,1,0,0:0:0:0:
320,224,212234,1,0,0:0:0:0:
224,104,212359,1,0,0:0:0:0:
224,256,212484,1,0,0:0:0:0:
144,104,212609,1,0,0:0:0:0:
104,192,212734,5,0,0:0:0:0:
110,241,212817,1,0,0:0:0:0:
135,283,212900,1,0,0:0:0:0:
170,318,212984,2,0,P|190:334|224:337,1,50
288,320,213234,1,0,0:0:0:0:
288,320,213359,1,0,0:0:0:0:
352,208,213484,1,0,0:0:0:0:
256,216,213609,5,0,0:0:0:0:
224,208,213671,1,0,0:0:0:0:
192,184,213734,2,0,P|176:152|168:120,1,50
264,64,213984,2,0,P|280:96|288:128,1,50
296,168,214171,5,0,0:0:0:0:
296,168,214234,1,0,0:0:0:0:
136,144,214359,1,0,0:0:0:0:
136,144,214421,1,0,0:0:0:0:
136,144,214484,1,0,0:0:0:0:
248,40,214609,1,0,0:0:0:0:
307,119,214734,6,0,P|299:159|291:175,1,50
192,200,214984,2,0,P|200:240|208:256,1,50
232,288,215171,1,0,0:0:0:0:
232,288,215234,1,0,0:0:0:0:
288,336,215359,1,0,0:0:0:0:
336,160,215484,6,0,L|304:184,1,25
264,208,215609,1,0,0:0:0:0:
192,200,215734,1,0,0:0:0:0:
128,160,215859,1,0,0:0:0:0:
128,88,215984,1,0,0:0:0:0:
184,40,216109,1,0,0:0:0:0:
232,152,216234,2,0,P|272:144|296:128,1,50
231,27,216484,2,0,P|191:35|167:51,1,50
136,128,216734,5,0,0:0:0:0:
240,216,216859,1,0,0:0:0:0:
272,240,216921,1,0,0:0:0:0:
312,248,216984,2,0,P|344:248|376:232,1,50
296,104,217234,2,0,P|320:80|336:72,1,50
424,48,217484,1,0,0:0:0:0:
456,152,217609,5,0,0:0:0:0:
456,152,217671,1,0,0:0:0:0:
456,152,217734,2,0,P|392:160|360:144,1,100
208,72,218234,5,0,0:0:0:0:
136,240,218359,1,0,0:0:0:0:
312,200,218484,1,0,0:0:0:0:
164,55,218609,1,0,0:0:0:0:
108,295,218734,1,0,0:0:0:0:
332,201,218859,1,0,0:0:0:0:
127,62,218984,1,0,0:0:0:0:
111,345,219109,1,0,0:0:0:0:
347,193,219234,1,0,0:0:0:0:
122,94,219359,5,0,0:0:0:0:
152,339,219484,1,0,0:0:0:0:
330,174,219609,1,0,0:0:0:0:
154,112,219734,5,0,0:0:0:0:
176,272,219859,1,0,0:0:0:0:
304,176,219984,1,0,0:0:0:0:
320,336,220109,1,0,0:0:0:0:
144,176,220234,6,0,P|192:88|312:104,1,200
320,272,220609,2,0,B|296:296|296:296|248:296,1,75.0000028610231
232,152,220859,1,0,0:0:0:0:
376,96,220984,2,0,B|409:96|409:96|443:129,1,75.0000028610231
344,240,221234,1,0,0:0:0:0:
256,152,221359,1,0,0:0:0:0:
438,125,221484,2,0,L|504:208,1,75.0000028610231
377,264,221734,1,0,0:0:0:0:
320,144,221859,1,0,0:0:0:0:
248,264,221984,2,0,L|328:264,1,75.0000028610231
416,96,222234,6,0,B|392:64|392:64|344:40,1,75.0000028610231
184,152,222484,2,0,B|224:176|224:176|256:168,1,75.0000028610231
240,32,222734,1,0,0:0:0:0:
120,120,222859,1,0,0:0:0:0:
251,169,222984,2,0,B|297:169|297:169|321:146,1,75.0000028610231
232,40,223234,5,0,0:0:0:0:
208,64,223317,1,0,0:0:0:0:
184,88,223400,1,0,0:0:0:0:
160,112,223484,2,0,B|128:144|128:144|128:184,1,75.0000028610231
312,240,223734,1,0,0:0:0:0:
200,176,223859,1,0,0:0:0:0:
384,280,223984,2,0,L|384:192,1,75.0000028610231
264,64,224234,6,0,B|225:90|225:90|220:123,1,75.0000028610231
288,320,224484,2,0,B|312:280|312:280|304:248,1,75.0000028610231
272,176,224734,1,0,0:0:0:0:
144,152,224859,1,0,0:0:0:0:
384,232,224984,2,0,L|408:320,1,75.0000028610231
240,176,225234,1,0,0:0:0:0:
368,152,225359,1,0,0:0:0:0:
128,232,225484,2,0,L|104:320,1,75.0000028610231
256,272,225734,1,0,0:0:0:0:
144,168,225859,1,0,0:0:0:0:
312,320,225984,2,0,B|336:280|336:280|328:248,1,75.0000028610231
118,97,226234,6,0,L|150:185,1,75.0000028610231
329,252,226484,2,0,L|303:181,1,75.0000028610231
176,160,226734,1,0,0:0:0:0:
192,288,226859,1,0,0:0:0:0:
312,328,226984,2,0,P|392:296|408:240,1,119.999996337891
408,224,227171,5,0,0:0:0:0:
408,224,227234,1,0,0:0:0:0:
272,136,227359,1,0,0:0:0:0:
248,296,227484,1,0,0:0:0:0:
272,136,227609,1,0,0:0:0:0:
312,328,227734,2,0,P|392:296|408:240,1,119.999996337891
408,144,227984,1,0,0:0:0:0:
288,96,228109,1,0,0:0:0:0:
232,272,228234,6,0,B|176:296|176:296|88:288,1,119.999996337891
168,128,228484,2,0,L|240:88,1,59.9999981689454
280,64,228609,1,0,0:0:0:0:
270,189,228734,2,0,L|123:101,1,119.999996337891
288,72,228984,1,0,0:0:0:0:
288,72,229046,1,0,0:0:0:0:
288,72,229109,1,0,0:0:0:0:
270,189,229234,2,0,L|112:192,1,119.999996337891
160,72,229484,6,0,L|240:72,1,59.9999981689454
288,72,229609,1,0,0:0:0:0:
270,189,229734,2,0,L|166:93,1,119.999996337891
328,88,229984,1,0,0:0:0:0:
328,88,230046,1,0,0:0:0:0:
328,88,230109,1,0,0:0:0:0:
272,192,230234,5,0,0:0:0:0:
272,192,230359,1,0,0:0:0:0:
400,192,230484,2,0,L|472:192,2,59.9999981689454
280,200,230734,5,0,0:0:0:0:
280,200,230859,1,0,0:0:0:0:
392,264,230984,2,0,L|456:304,2,59.9999981689454
272,184,231234,1,0,0:0:0:0:
320,320,231359,1,0,0:0:0:0:
152,248,231484,6,0,P|129:211|152:120,1,119.999996337891
320,80,231734,1,0,0:0:0:0:
320,112,231796,1,0,0:0:0:0:
320,144,231859,1,0,0:0:0:0:
320,176,231921,1,0,0:0:0:0:
320,208,231984,2,0,B|320:304|320:304|312:344,1,119.999996337891
168,128,232234,5,0,0:0:0:0:
248,232,232359,1,0,0:0:0:0:
320,120,232484,2,0,L|320:48,2,59.9999981689454
168,232,232734,1,0,0:0:0:0:
328,232,232859,1,0,0:0:0:0:
256,104,232984,1,0,0:0:0:0:
256,104,233046,1,0,0:0:0:0:
256,104,233109,1,0,0:0:0:0:
248,264,233234,6,0,P|208:312|152:320,1,119.999996337891
120,168,233484,2,0,L|56:104,2,59.9999981689454
288,336,233734,1,0,0:0:0:0:
152,208,233859,1,0,0:0:0:0:
296,208,233984,1,0,0:0:0:0:
296,208,234047,1,0,0:0:0:0:
296,208,234109,1,0,0:0:0:0:
128,128,234234,6,0,B|168:72|168:72|248:64,1,119.999996337891
256,168,234484,1,0,0:0:0:0:
88,192,234609,1,0,0:0:0:0:
293,66,234734,2,0,B|344:72|344:72|384:128,1,119.999996337891
256,192,234984,1,0,0:0:0:0:
224,64,235109,1,0,0:0:0:0:
472,40,235234,6,0,L|392:152,1,119.999996337891
360,200,235421,1,0,0:0:0:0:
360,200,235484,1,0,0:0:0:0:
280,272,235609,1,0,0:0:0:0:
304,136,235734,1,0,0:0:0:0:
216,248,235859,5,0,0:0:0:0:
176,112,235984,1,0,0:0:0:0:
288,208,236109,1,0,0:0:0:0:
136,256,236234,6,0,L|24:304,2,100
440,240,236609,2,0,P|432:144|328:80,1,200
224,240,236984,2,0,P|216:288|160:336,1,100
72,224,237234,5,0,0:0:0:0:
224,152,237359,1,0,0:0:0:0:
152,256,237484,2,0,L|152:168,1,50
152,128,237609,1,0,0:0:0:0:
376,224,237734,5,0,0:0:0:0:
224,152,237859,1,0,0:0:0:0:
296,256,237984,2,0,L|296:168,1,50
296,128,238109,1,0,0:0:0:0:
208,288,238234,1,0,0:0:0:0:
400,288,238359,1,0,0:0:0:0:
208,216,238484,1,0,0:0:0:0:
360,120,238609,6,0,P|376:160|376:248,1,100
144,240,238859,1,0,0:0:0:0:
368,312,238984,2,0,P|440:288|464:256,1,100
240,96,239234,2,0,L|256:208,1,100
384,232,239484,2,0,L|368:104,1,100
287,278,239734,5,0,0:0:0:0:
319,278,239796,1,0,0:0:0:0:
351,270,239859,2,0,L|391:222,1,50
376,160,239984,1,0,0:0:0:0:
408,160,240046,1,0,0:0:0:0:
440,176,240109,1,0,0:0:0:0:
296,56,240234,6,0,P|240:120|240:176,1,100
392,312,240484,1,0,0:0:0:0:
224,256,240609,2,0,P|176:240|128:184,1,100
312,40,240859,1,0,0:0:0:0:
400,216,240984,2,0,P|408:264|368:328,1,100
200,240,241234,5,0,0:0:0:0:
336,256,241359,1,0,0:0:0:0:
184,168,241484,1,0,0:0:0:0:
336,256,241609,1,0,0:0:0:0:
184,168,241734,5,0,0:0:0:0:
320,152,241859,1,0,0:0:0:0:
168,240,241984,1,0,0:0:0:0:
320,152,242109,1,0,0:0:0:0:
176,320,242234,2,0,P|120:312|88:248,1,100
184,160,242484,2,0,P|240:168|272:232,1,100
157,345,242734,2,0,P|107:318|98:247,1,100
202,134,242984,2,0,P|251:160|260:231,1,100
128,128,243234,5,0,0:0:0:0:
280,80,243359,1,0,0:0:0:0:
280,80,243421,1,0,0:0:0:0:
280,80,243484,2,0,L|336:128,1,50
328,208,243609,2,0,L|280:168,1,50
248,144,243734,1,0,0:0:0:0:
384,248,243859,1,0,0:0:0:0:
384,64,243984,2,0,P|392:136|368:176,1,100
152,152,244234,6,0,L|280:120,1,100
320,104,244484,1,0,0:0:0:0:
320,272,244609,2,0,L|192:240,1,100
152,224,244859,1,0,0:0:0:0:
144,40,244984,2,0,L|241:64,1,100
336,208,245234,5,0,0:0:0:0:
168,232,245359,1,0,0:0:0:0:
288,112,245484,1,0,0:0:0:0:
120,144,245609,1,0,0:0:0:0:
248,256,245734,1,0,0:0:0:0:
248,256,245796,1,0,0:0:0:0:
248,256,245859,1,0,0:0:0:0:
304,96,245984,1,0,0:0:0:0:
168,200,246109,1,0,0:0:0:0:
368,224,246234,6,0,P|432:184|440:128,1,100
280,40,246484,1,0,0:0:0:0:
208,192,246609,2,0,P|224:288|312:344,1,200
464,168,246984,2,0,B|400:168|400:168|352:200,1,100
288,248,247234,1,0,0:0:0:0:
424,248,247359,1,0,0:0:0:0:
296,176,247484,1,0,0:0:0:0:
376,312,247609,1,0,0:0:0:0:
368,168,247734,5,0,0:0:0:0:
352,136,247796,1,0,0:0:0:0:
320,112,247859,2,0,P|280:104|248:112,1,50
168,144,247984,2,0,L|104:184,3,50
277,172,248234,2,0,L|264:272,1,100
152,224,248484,1,0,0:0:0:0:
280,168,248609,2,0,L|376:96,2,100
144,304,248984,2,0,P|112:248|112:200,1,100
152,64,249234,5,0,0:0:0:0:
192,208,249359,1,0,0:0:0:0:
232,64,249484,1,0,0:0:0:0:
264,208,249609,1,0,0:0:0:0:
376,64,249734,5,0,0:0:0:0:
336,208,249859,1,0,0:0:0:0:
296,64,249984,1,0,0:0:0:0:
264,208,250109,1,0,0:0:0:0:
176,72,250234,6,0,L|208:120,1,37.5000014305115
272,216,250359,1,0,0:0:0:0:
272,216,250421,1,0,0:0:0:0:
272,216,250484,1,0,0:0:0:0:
120,200,250609,2,0,L|80:144,1,37.5000014305115
72,128,250734,1,0,0:0:0:0:
104,40,250859,1,0,0:0:0:0:
192,40,250984,1,0,0:0:0:0:
248,112,251109,1,0,0:0:0:0:
208,192,251234,6,0,L|144:104,1,75.0000028610231
320,64,251484,2,0,L|320:112,1,37.5000014305115
320,184,251609,1,0,0:0:0:0:
424,192,251734,5,0,0:0:0:0:
368,296,251859,1,0,0:0:0:0:
264,312,251984,1,0,0:0:0:0:
200,256,252109,1,0,0:0:0:0:
232,184,252234,2,0,P|296:160|208:224,1,487.50001859665
288,248,253171,5,0,0:0:0:0:
304,232,253234,1,0,0:0:0:0:
312,216,253296,1,0,0:0:0:0:
320,200,253359,1,0,0:0:0:0:
328,184,253421,2,0,L|336:112,1,37.5000014305115
240,176,253546,5,0,0:0:0:0:
240,176,253608,1,0,0:0:0:0:
240,176,253671,1,0,0:0:0:0:
240,176,253733,2,0,L|232:240,1,37.5000014305115
312,264,253858,5,0,0:0:0:0:
336,248,253921,1,0,0:0:0:0:
352,224,253984,2,0,L|360:160,1,37.5000014305115
328,64,254109,2,0,L|296:96,1,37.5000014305115
232,160,254234,5,0,0:0:0:0:
240,160,254296,2,0,L|296:136,1,37.5000014305115
312,176,254421,1,0,0:0:0:0:
304,184,254484,2,0,L|248:184,1,37.5000014305115
184,208,254609,2,0,L|136:224,3,37.5000014305115
192,120,254859,2,0,L|240:104,3,37.5000014305115
176,128,255109,5,0,0:0:0:0:
152,144,255171,1,0,0:0:0:0:
136,168,255234,1,0,0:0:0:0:
128,200,255296,1,0,0:0:0:0:
128,232,255359,1,0,0:0:0:0:
144,256,255421,1,0,0:0:0:0:
168,272,255484,2,0,L|216:280,1,37.5000014305115
200,248,255609,5,0,0:0:0:0:
192,216,255671,1,0,0:0:0:0:
200,184,255734,1,0,0:0:0:0:
216,160,255796,1,0,0:0:0:0:
240,144,255859,1,0,0:0:0:0:
272,144,255921,1,0,0:0:0:0:
296,160,255984,2,0,L|352:192,7,37.5000014305115
240,224,256484,2,0,L|184:184,9,37.5000014305115
312,304,257109,2,0,L|280:240,1,37.5000014305115
304,152,257234,2,0,L|344:192,1,37.5000014305115
368,232,257359,5,0,0:0:0:0:
392,224,257421,1,0,0:0:0:0:
408,200,257484,1,0,0:0:0:0:
416,168,257546,1,0,0:0:0:0:
416,136,257609,2,0,L|392:80,1,37.5000014305115
304,88,257734,5,0,0:0:0:0:
296,116,257796,1,0,0:0:0:0:
275,138,257859,1,0,0:0:0:0:
247,149,257921,1,0,0:0:0:0:
216,150,257984,2,0,L|175:126,1,37.5000014305115
112,88,258109,2,0,L|152:112,1,37.5000014305115
128,176,258234,1,0,0:0:0:0:
136,192,258296,2,0,L|168:248,1,37.5000014305115
241,179,258421,1,0,0:0:0:0:
241,179,258484,1,0,0:0:0:0:
241,179,258546,2,0,L|289:227,3,37.5000014305115
256,96,258796,2,0,L|208:56,3,37.5000014305115
328,104,259046,2,0,L|360:144,3,37.5000014305115
280,168,259296,2,0,L|288:216,3,37.5000014305115
232,112,259567,5,0,0:0:0:0:
184,176,259650,2,0,P|192:216|224:256,1,50.0000019073487
248,288,259817,1,0,0:0:0:0:
328,296,259900,2,0,P|360:256|360:232,1,50.0000019073487
336,184,260067,1,0,0:0:0:0:
304,112,260150,2,0,P|336:64|368:56,1,50.0000019073487
400,24,260317,1,0,0:0:0:0:
456,80,260400,2,0,P|464:128|440:160,1,50.0000019073487
368,208,260608,5,0,0:0:0:0:
368,80,260775,1,0,0:0:0:0:
336,200,260900,1,0,0:0:0:0:
184,248,261067,1,0,0:0:0:0:
336,304,261233,1,0,0:0:0:0:
240,176,261400,1,0,0:0:0:0:
240,296,261525,1,0,0:0:0:0:
352,176,261692,1,0,0:0:0:0:
168,88,261900,5,0,0:0:0:0:
296,240,262108,1,0,0:0:0:0:
352,48,262317,1,0,0:0:0:0:
176,208,262567,1,0,0:0:0:0:
400,304,262817,1,0,0:0:0:0:
160,296,263108,5,0,0:0:0:0:
184,280,263171,1,0,0:0:0:0:
208,264,263234,2,0,L|248:232,1,50.0000019073487
264,216,263359,2,0,P|296:160|120:216,1,500.000019073487
248,216,264234,2,0,B|336:256|336:256|320:280|256:320|240:360|232:336|232:312|144:312|144:312|208:112,1,525.000020027161
216,96,265172,1,0,0:0:0:0:
216,96,265234,1,0,0:0:0:0:
