osu file format v14

[General]
AudioFilename: audio.mp3
AudioLeadIn: 0
PreviewTime: -1
Countdown: 1
SampleSet: None
StackLeniency: 0.7
Mode: 0
LetterboxInBreaks: 0
WidescreenStoryboard: 0

[Editor]
DistanceSpacing: 1
BeatDivisor: 4
GridSize: 4
TimelineZoom: 1

[Metadata]
Title:Zdrajca Metalu
TitleUnicode:Zdrajca Metalu
Artist:Nocny Kochanek
ArtistUnicode:Nocny Kochanek
Creator:[ Sekki ]
Version:Tricky
Source:
Tags:
BeatmapID:1908971
BeatmapSetID:913908

[Difficulty]
HPDrainRate:10
CircleSize:4
OverallDifficulty:10
ApproachRate:9.6
SliderMultiplier:1.4
SliderTickRate:1

[Events]
//Background and Video events
0,0,"maxresdefault.jpg",0,0
//Break Periods
//Storyboard Layer 0 (Background)
//Storyboard Layer 1 (Fail)
//Storyboard Layer 2 (Pass)
//Storyboard Layer 3 (Foreground)
//Storyboard Sound Samples

[TimingPoints]
0.127853099124888,250,4,1,0,100,1,0

[Colours]
Combo1 : 192,192,192
Combo2 : 0,0,0
Combo3 : 255,0,0

[HitObjects]
166,276,375,5,0,0:0:0:0:
305,238,562,1,0,0:0:0:0:
170,178,687,1,0,0:0:0:0:
263,129,937,1,0,0:0:0:0:
213,118,1062,1,0,0:0:0:0:
151,156,1312,5,0,0:0:0:0:
184,186,1500,1,0,0:0:0:0:
247,176,1625,1,0,0:0:0:0:
228,246,1812,1,0,0:0:0:0:
261,230,2000,1,0,0:0:0:0:
309,228,2125,1,0,0:0:0:0:
299,285,2312,1,0,0:0:0:0:
328,284,2375,1,0,0:0:0:0:
361,263,2500,1,0,0:0:0:0:
221,171,2750,5,0,0:0:0:0:
211,132,2875,1,0,0:0:0:0:
245,108,3000,1,0,0:0:0:0:
273,90,3187,1,0,0:0:0:0:
294,282,3500,5,0,0:0:0:0:
311,240,3625,1,0,0:0:0:0:
317,202,3750,1,0,0:0:0:0:
322,163,3875,1,0,0:0:0:0:
332,118,4000,1,0,0:0:0:0:
303,78,4125,1,0,0:0:0:0:
229,81,4312,5,0,0:0:0:0:
193,89,4437,1,0,0:0:0:0:
213,116,4562,1,0,0:0:0:0:
133,156,4750,5,0,0:0:0:0:
164,190,4875,1,0,0:0:0:0:
242,223,5125,5,0,0:0:0:0:
338,169,5312,1,0,0:0:0:0:
347,112,5437,1,0,0:0:0:0:
310,92,5500,1,0,0:0:0:0:
267,86,5562,1,0,0:0:0:0:
225,80,5625,1,0,0:0:0:0:
191,71,5750,1,0,0:0:0:0:
151,81,5812,1,0,0:0:0:0:
121,95,5937,1,0,0:0:0:0:
104,126,6000,1,0,0:0:0:0:
97,163,6062,1,0,0:0:0:0:
109,198,6187,1,0,0:0:0:0:
132,227,6250,1,0,0:0:0:0:
166,242,6375,1,0,0:0:0:0:
204,246,6500,1,0,0:0:0:0:
237,236,6625,1,0,0:0:0:0:
268,217,6750,1,0,0:0:0:0:
299,195,6812,1,0,0:0:0:0:
323,162,6937,1,0,0:0:0:0:
321,127,7000,1,0,0:0:0:0:
293,95,7125,5,0,0:0:0:0:
260,82,7187,1,0,0:0:0:0:
223,84,7312,1,0,0:0:0:0:
192,95,7375,1,0,0:0:0:0:
163,115,7500,1,0,0:0:0:0:
136,139,7562,1,0,0:0:0:0:
126,176,7625,1,0,0:0:0:0:
139,210,7687,1,0,0:0:0:0:
153,244,7812,1,0,0:0:0:0:
180,273,7875,1,0,0:0:0:0:
222,282,8000,1,0,0:0:0:0:
263,274,8062,1,0,0:0:0:0:
283,250,8187,1,0,0:0:0:0:
294,211,8250,1,0,0:0:0:0:
310,152,8437,5,0,0:0:0:0:
221,94,8625,1,0,0:0:0:0:
129,150,8750,1,0,0:0:0:0:
150,230,8875,5,0,0:0:0:0:
191,264,8937,1,0,0:0:0:0:
277,326,9125,5,0,0:0:0:0:
327,283,9250,1,0,0:0:0:0:
337,225,9312,1,0,0:0:0:0:
275,96,9562,5,0,0:0:0:0:
220,107,9687,1,0,0:0:0:0:
176,135,9812,1,0,0:0:0:0:
130,164,9875,1,0,0:0:0:0:
111,218,10000,1,0,0:0:0:0:
121,265,10125,1,0,0:0:0:0:
165,298,10250,1,0,0:0:0:0:
216,318,10375,1,0,0:0:0:0:
264,300,10437,1,0,0:0:0:0:
297,261,10562,1,0,0:0:0:0:
347,249,10687,1,0,0:0:0:0:
396,266,10812,1,0,0:0:0:0:
440,242,10937,1,0,0:0:0:0:
396,155,11125,5,0,0:0:0:0:
360,117,11187,1,0,0:0:0:0:
319,95,11312,1,0,0:0:0:0:
272,90,11375,1,0,0:0:0:0:
223,101,11500,1,0,0:0:0:0:
177,82,11562,1,0,0:0:0:0:
101,106,11687,5,0,0:0:0:0:
59,170,11875,1,0,0:0:0:0:
85,213,12000,1,0,0:0:0:0:
122,237,12062,1,0,0:0:0:0:
172,246,12187,1,0,0:0:0:0:
218,250,12312,1,0,0:0:0:0:
237,294,12437,1,0,0:0:0:0:
280,299,12562,1,0,0:0:0:0:
348,258,12750,5,0,0:0:0:0:
388,230,12812,1,0,0:0:0:0:
429,207,13000,1,0,0:0:0:0:
413,148,13125,1,0,0:0:0:0:
367,118,13250,1,0,0:0:0:0:
325,91,13437,1,0,0:0:0:0:
285,79,13500,1,0,0:0:0:0:
240,71,13625,1,0,0:0:0:0:
191,68,13750,1,0,0:0:0:0:
145,72,13875,1,0,0:0:0:0:
118,115,13937,1,0,0:0:0:0:
97,161,14062,1,0,0:0:0:0:
123,205,14187,1,0,0:0:0:0:
228,248,14437,5,0,0:0:0:0:
239,196,14562,1,0,0:0:0:0:
278,192,14625,1,0,0:0:0:0:
308,235,14750,1,0,0:0:0:0:
346,257,14812,1,0,0:0:0:0:
383,227,15000,1,0,0:0:0:0:
421,202,15125,1,0,0:0:0:0:
452,165,15187,1,0,0:0:0:0:
432,123,15250,1,0,0:0:0:0:
402,82,15312,1,0,0:0:0:0:
358,69,15437,1,0,0:0:0:0:
311,64,15500,1,0,0:0:0:0:
260,72,15625,1,0,0:0:0:0:
210,68,15687,1,0,0:0:0:0:
80,174,16000,5,0,0:0:0:0:
108,219,16125,1,0,0:0:0:0:
93,267,16187,1,0,0:0:0:0:
123,312,16312,1,0,0:0:0:0:
164,283,16437,1,0,0:0:0:0:
199,318,16500,1,0,0:0:0:0:
235,282,16625,1,0,0:0:0:0:
275,310,16687,1,0,0:0:0:0:
322,330,16750,1,0,0:0:0:0:
355,293,16875,1,0,0:0:0:0:
401,319,16937,1,0,0:0:0:0:
428,276,17062,1,0,0:0:0:0:
414,229,17125,1,0,0:0:0:0:
437,149,17312,5,0,0:0:0:0:
425,100,17437,1,0,0:0:0:0:
458,62,17500,1,0,0:0:0:0:
412,40,17625,1,0,0:0:0:0:
366,56,17687,1,0,0:0:0:0:
315,51,17812,1,0,0:0:0:0:
264,52,17875,1,0,0:0:0:0:
218,71,17937,1,0,0:0:0:0:
173,55,18062,1,0,0:0:0:0:
125,64,18125,1,0,0:0:0:0:
84,91,18312,1,0,0:0:0:0:
92,140,18437,1,0,0:0:0:0:
114,185,18562,1,0,0:0:0:0:
88,228,18687,1,0,0:0:0:0:
166,267,18937,1,0,0:0:0:0:
446,231,19250,5,0,0:0:0:0:
446,172,19375,1,0,0:0:0:0:
427,124,19562,1,0,0:0:0:0:
387,89,19687,1,0,0:0:0:0:
347,64,19812,1,0,0:0:0:0:
294,49,20000,1,0,0:0:0:0:
246,52,20125,1,0,0:0:0:0:
200,67,20187,1,0,0:0:0:0:
152,79,20375,1,0,0:0:0:0:
99,76,20500,1,0,0:0:0:0:
81,123,20625,1,0,0:0:0:0:
56,166,20750,1,0,0:0:0:0:
347,325,21250,5,0,0:0:0:0:
384,288,21375,1,0,0:0:0:0:
428,261,21500,1,0,0:0:0:0:
460,220,21687,1,0,0:0:0:0:
445,174,21750,1,0,0:0:0:0:
433,123,22000,1,0,0:0:0:0:
414,79,22125,1,0,0:0:0:0:
375,52,22312,1,0,0:0:0:0:
327,49,22437,1,0,0:0:0:0:
279,50,22625,1,0,0:0:0:0:
228,53,22812,1,0,0:0:0:0:
47,213,23187,5,0,0:0:0:0:
110,224,23312,1,0,0:0:0:0:
54,286,23562,1,0,0:0:0:0:
101,300,23687,1,0,0:0:0:0:
300,277,24000,5,0,0:0:0:0:
338,239,24125,1,0,0:0:0:0:
369,197,24312,1,0,0:0:0:0:
395,156,24437,1,0,0:0:0:0:
418,112,24562,1,0,0:0:0:0:
392,71,24750,1,0,0:0:0:0:
198,80,25000,5,0,0:0:0:0:
159,110,25125,1,0,0:0:0:0:
109,112,25250,1,0,0:0:0:0:
77,147,25437,1,0,0:0:0:0:
86,196,25562,1,0,0:0:0:0:
132,224,25687,1,0,0:0:0:0:
180,253,25812,1,0,0:0:0:0:
235,247,25937,1,0,0:0:0:0:
282,265,26062,1,0,0:0:0:0:
319,227,26250,1,0,0:0:0:0:
358,188,26375,1,0,0:0:0:0:
387,150,26500,1,0,0:0:0:0:
374,100,26625,1,0,0:0:0:0:
330,75,26812,5,0,0:0:0:0:
275,77,26937,1,0,0:0:0:0:
242,99,27062,1,0,0:0:0:0:
228,140,27187,1,0,0:0:0:0:
199,174,27312,1,0,0:0:0:0:
174,211,27500,1,0,0:0:0:0:
123,228,27625,1,0,0:0:0:0:
90,262,27750,1,0,0:0:0:0:
94,311,27875,1,0,0:0:0:0:
180,338,28062,5,0,0:0:0:0:
216,312,28125,1,0,0:0:0:0:
266,304,28250,1,0,0:0:0:0:
314,312,28312,1,0,0:0:0:0:
361,308,28437,1,0,0:0:0:0:
389,268,28562,1,0,0:0:0:0:
387,225,28687,1,0,0:0:0:0:
423,195,28875,1,0,0:0:0:0:
233,208,29187,5,0,0:0:0:0:
199,167,29312,1,0,0:0:0:0:
223,130,29437,1,0,0:0:0:0:
279,89,29625,5,0,0:0:0:0:
324,62,29750,1,0,0:0:0:0:
373,77,29937,1,0,0:0:0:0:
413,103,30062,1,0,0:0:0:0:
422,147,30187,1,0,0:0:0:0:
411,191,30375,1,0,0:0:0:0:
378,224,30500,1,0,0:0:0:0:
338,236,30625,1,0,0:0:0:0:
297,252,30687,1,0,0:0:0:0:
253,251,30875,5,0,0:0:0:0:
227,212,31062,1,0,0:0:0:0:
216,163,31187,1,0,0:0:0:0:
202,124,31312,1,0,0:0:0:0:
167,98,31500,1,0,0:0:0:0:
118,88,31625,1,0,0:0:0:0:
70,139,31812,5,0,0:0:0:0:
69,187,31937,1,0,0:0:0:0:
112,203,32062,1,0,0:0:0:0:
159,191,32250,1,0,0:0:0:0:
204,176,32437,1,0,0:0:0:0:
254,169,32625,1,0,0:0:0:0:
302,173,32750,1,0,0:0:0:0:
347,191,32937,1,0,0:0:0:0:
388,207,33062,1,0,0:0:0:0:
405,246,33187,1,0,0:0:0:0:
396,287,33312,1,0,0:0:0:0:
358,299,33500,1,0,0:0:0:0:
312,293,33687,1,0,0:0:0:0:
290,254,33812,1,0,0:0:0:0:
292,214,33937,1,0,0:0:0:0:
317,178,34000,1,0,0:0:0:0:
355,158,34125,1,0,0:0:0:0:
380,132,34312,1,0,0:0:0:0:
371,90,34500,1,0,0:0:0:0:
336,64,34562,1,0,0:0:0:0:
247,66,34750,5,0,0:0:0:0:
214,82,34875,1,0,0:0:0:0:
179,106,35062,1,0,0:0:0:0:
154,141,35187,1,0,0:0:0:0:
126,174,35312,1,0,0:0:0:0:
126,216,35500,1,0,0:0:0:0:
146,255,35625,1,0,0:0:0:0:
177,282,35812,1,0,0:0:0:0:
219,282,35937,1,0,0:0:0:0:
256,262,36125,1,0,0:0:0:0:
288,228,36312,1,0,0:0:0:0:
319,199,36437,1,0,0:0:0:0:
345,161,36625,1,0,0:0:0:0:
363,122,36750,1,0,0:0:0:0:
350,81,36875,1,0,0:0:0:0:
315,65,37062,1,0,0:0:0:0:
272,55,37250,1,0,0:0:0:0:
227,40,37437,1,0,0:0:0:0:
184,42,37562,1,0,0:0:0:0:
142,57,37687,1,0,0:0:0:0:
91,130,37875,5,0,0:0:0:0:
100,168,38000,1,0,0:0:0:0:
90,207,38187,1,0,0:0:0:0:
89,251,38312,1,0,0:0:0:0:
90,291,38500,1,0,0:0:0:0:
119,327,38625,1,0,0:0:0:0:
164,342,38812,1,0,0:0:0:0:
201,320,39000,1,0,0:0:0:0:
249,325,39125,1,0,0:0:0:0:
305,277,39312,5,0,0:0:0:0:
347,259,39437,1,0,0:0:0:0:
384,236,39625,1,0,0:0:0:0:
378,185,39812,1,0,0:0:0:0:
368,143,40000,1,0,0:0:0:0:
340,109,40125,1,0,0:0:0:0:
296,76,40312,1,0,0:0:0:0:
256,58,40500,1,0,0:0:0:0:
209,52,40687,1,0,0:0:0:0:
174,90,40875,5,0,0:0:0:0:
129,111,41125,1,0,0:0:0:0:
127,156,41312,1,0,0:0:0:0:
135,201,41500,1,0,0:0:0:0:
122,243,41687,1,0,0:0:0:0:
186,302,41937,5,0,0:0:0:0:
261,300,42125,1,0,0:0:0:0:
218,232,42312,1,0,0:0:0:0:
260,175,42500,1,0,0:0:0:0:
300,118,42687,1,0,0:0:0:0:
364,72,42937,5,0,0:0:0:0:
433,111,43125,1,0,0:0:0:0:
372,156,43312,1,0,0:0:0:0:
434,230,43562,5,0,0:0:0:0:
354,239,43750,1,0,0:0:0:0:
311,303,43937,1,0,0:0:0:0:
235,245,44187,5,0,0:0:0:0:
257,177,44375,1,0,0:0:0:0:
186,187,44625,1,0,0:0:0:0:
210,105,44812,1,0,0:0:0:0:
141,110,45000,1,0,0:0:0:0:
170,37,45187,1,0,0:0:0:0:
294,48,45437,5,0,0:0:0:0:
338,73,45625,1,0,0:0:0:0:
288,137,45812,1,0,0:0:0:0:
368,151,46062,1,0,0:0:0:0:
416,84,46312,1,0,0:0:0:0:
372,66,46500,1,0,0:0:0:0:
321,67,46687,1,0,0:0:0:0:
273,76,46875,1,0,0:0:0:0:
224,84,47062,1,0,0:0:0:0:
174,88,47250,5,0,0:0:0:0:
126,93,47375,1,0,0:0:0:0:
77,92,47562,1,0,0:0:0:0:
64,139,47687,1,0,0:0:0:0:
71,188,47875,1,0,0:0:0:0:
98,225,48000,1,0,0:0:0:0:
146,236,48187,1,0,0:0:0:0:
178,272,48312,1,0,0:0:0:0:
208,312,48500,1,0,0:0:0:0:
254,297,48625,1,0,0:0:0:0:
300,209,48875,5,0,0:0:0:0:
336,241,49000,1,0,0:0:0:0:
348,190,49062,1,0,0:0:0:0:
317,142,49250,1,0,0:0:0:0:
378,144,49312,1,0,0:0:0:0:
