osu file format v14

[General]
AudioFilename: audio.mp3
AudioLeadIn: 0
PreviewTime: 101306
Countdown: 1
SampleSet: Normal
StackLeniency: 0.7
Mode: 0
LetterboxInBreaks: 0
WidescreenStoryboard: 0

[Editor]
DistanceSpacing: 2
BeatDivisor: 4
GridSize: 32
TimelineZoom: 2.350001

[Metadata]
Title:Andzeju
TitleUnicode:Andżeju
Artist:Nocny Kochanek
ArtistUnicode:Nocny Kochanek
Creator:Trabanto
Version:Krzysztof
Source:
Tags:polish hewi metal heavy night mistress andrzej wojownik imie
BeatmapID:1199871
BeatmapSetID:566422

[Difficulty]
HPDrainRate:6
CircleSize:4.2
OverallDifficulty:8
ApproachRate:9.6
SliderMultiplier:1.5
SliderTickRate:1

[Events]
//Background and Video events
0,0,"backgroundandzej.jpg",0,0
//Break Periods
//Storyboard Layer 0 (Background)
//Storyboard Layer 1 (Fail)
//Storyboard Layer 2 (Pass)
//Storyboard Layer 3 (Foreground)
//Storyboard Sound Samples

[TimingPoints]
0,300,4,1,0,100,1,0
5006,300,4,1,0,100,1,0
72506,-66.6666666666667,4,1,0,100,0,0
72806,-100,4,1,0,100,0,0

[HitObjects]
135,129,5006,6,0,P|180:100|231:89,1,75
448,96,5456,5,0,0:0:0:0:
409,201,5606,2,0,P|345:233|313:233,1,75
310,125,5906,1,0,0:0:0:0:
271,270,6056,2,0,P|327:309|363:312,2,75
243,121,6506,2,0,P|177:74|95:96,1,150
35,213,6956,1,0,0:0:0:0:
154,303,7106,1,0,0:0:0:0:
162,153,7256,1,0,0:0:0:0:
279,246,7406,1,0,0:0:0:0:
334,71,7556,2,0,P|285:77|238:105,1,75
174,158,7856,5,0,0:0:0:0:
174,158,8006,1,0,0:0:0:0:
268,219,8156,2,0,P|291:256|295:313,1,75
184,295,8456,2,0,P|146:320|105:313,2,75
222,150,8906,2,0,P|197:106|77:80,1,150
95,221,9356,5,0,0:0:0:0:
231,284,9506,1,0,0:0:0:0:
339,180,9656,2,0,L|381:93,1,75
129,115,9956,2,0,L|171:202,1,75
257,70,10256,5,0,0:0:0:0:
256,219,10406,1,0,0:0:0:0:
358,265,10556,2,0,P|414:245|436:205,1,75
303,143,10856,2,0,P|265:118|242:75,2,75
446,162,11306,2,0,P|436:217|340:265,1,150
232,188,11756,2,0,P|294:175|333:192,1,75
477,294,12056,1,0,0:0:0:0:
276,291,12206,1,0,0:0:0:0:
349,116,12356,2,0,P|377:151|385:192,1,75
383,292,12656,5,0,0:0:0:0:
383,292,12806,1,0,0:0:0:0:
286,234,12956,2,0,P|225:200|190:201,1,75
110,221,13256,2,0,P|73:232|30:218,2,75
256,107,13706,6,0,B|330:131|330:131|362:195,1,150
169,182,14306,6,0,B|137:118|137:118|169:22,1,150
324,205,14906,6,0,L|370:281,1,75
222,288,15206,2,0,L|208:352,2,37.5
243,178,15506,1,0,0:0:0:0:
243,178,15656,1,0,0:0:0:0:
144,269,15806,2,0,L|82:353,1,75
46,171,16106,2,0,L|99:98,1,75
217,92,16406,1,0,0:0:0:0:
148,199,16556,1,0,0:0:0:0:
273,176,16706,1,0,0:0:0:0:
291,302,16856,6,0,P|228:287|202:267,1,75
132,188,17156,1,0,0:0:0:0:
283,83,17306,2,0,B|316:135|277:230,1,150
226,308,17756,5,0,0:0:0:0:
370,302,17906,2,0,L|420:318,2,37.5
226,225,18206,1,0,0:0:0:0:
125,132,18356,2,0,P|124:92|148:42,1,75
237,94,18656,1,0,0:0:0:0:
147,215,18806,1,0,0:0:0:0:
301,204,18956,2,0,P|352:231|375:263,1,75
209,284,19256,6,0,L|137:225,1,75
295,285,19556,1,0,0:0:0:0:
164,151,19706,2,0,P|84:180|62:250,1,150
217,277,20156,5,0,0:0:0:0:
282,179,20306,2,0,L|330:188,2,37.5
158,126,20606,2,0,L|124:108,2,37.5
251,241,20906,2,0,L|286:275,2,37.5
120,196,21206,2,0,L|79:190,2,37.5
242,325,21506,1,0,0:0:0:0:
82,190,21656,2,0,P|109:147|148:127,1,75
62,279,21956,1,0,0:0:0:0:
173,50,22106,6,0,P|212:106|201:208,1,150
134,134,22556,5,0,0:0:0:0:
300,208,22706,1,0,0:0:0:0:
132,236,22856,1,0,0:0:0:0:
249,278,23006,1,0,0:0:0:0:
161,328,23156,1,0,0:0:0:0:
348,281,23306,6,0,P|319:212|257:173,1,150
151,159,23756,1,0,0:0:0:0:
216,297,23906,1,0,0:0:0:0:
346,126,24056,2,0,L|379:76,2,37.5
216,297,24356,1,0,0:0:0:0:
280,82,24506,6,0,P|374:23|433:40,1,150
370,176,24956,1,0,0:0:0:0:
370,176,25106,2,0,L|434:240,1,75
272,262,25406,5,0,0:0:0:0:
272,262,25556,2,0,L|208:326,1,75
245,149,25856,5,0,0:0:0:0:
245,149,26006,2,0,L|181:85,1,75
99,185,26306,1,0,0:0:0:0:
192,96,26456,2,0,P|256:64|288:64,1,75
99,185,26756,1,0,0:0:0:0:
358,45,26906,6,0,B|358:156|261:165,1,150
148,118,27356,5,0,0:0:0:0:
182,280,27506,2,0,L|192:329,2,37.5
268,105,27806,1,0,0:0:0:0:
318,251,27956,2,0,L|414:283,1,75
340,123,28256,2,0,L|253:101,1,75
132,276,28556,2,0,L|222:300,1,75
63,251,28856,5,0,0:0:0:0:
342,196,29006,2,0,L|252:164,1,75
70,112,29306,6,0,P|42:188|87:276,1,150
288,256,29756,1,0,0:0:0:0:
256,160,29906,1,0,0:0:0:0:
160,160,30056,2,0,L|128:256,1,75
288,320,30356,2,0,L|352:256,1,75
320,160,30656,1,0,0:0:0:0:
224,224,30806,1,0,0:0:0:0:
320,288,30956,2,0,L|416:256,1,75
242,119,31256,5,0,0:0:0:0:
180,344,31406,2,0,L|267:311,1,75
416,190,31706,2,0,L|320:190,1,75
188,189,32006,1,0,0:0:0:0:
288,59,32156,1,0,0:0:0:0:
469,136,32306,2,0,L|405:200,1,75
288,59,32606,1,0,0:0:0:0:
317,265,32756,1,0,0:0:0:0:
452,50,32906,6,0,P|457:91|405:198,1,150
256,320,33356,1,0,0:0:0:0:
256,320,33506,1,0,0:0:0:0:
256,224,33656,2,0,B|256:160|256:160|224:128,1,75
160,96,33956,1,0,0:0:0:0:
288,288,34106,6,0,P|330:256|334:218,1,75
257,220,34406,1,0,0:0:0:0:
259,70,34556,1,0,0:0:0:0:
144,196,34706,1,0,0:0:0:0:
283,140,34856,1,0,0:0:0:0:
134,116,35006,1,0,0:0:0:0:
240,221,35156,1,0,0:0:0:0:
212,73,35306,1,0,0:0:0:0:
160,213,35456,1,0,0:0:0:0:
306,94,35606,1,0,0:0:0:0:
346,266,35756,1,0,0:0:0:0:
142,131,35906,1,0,0:0:0:0:
446,142,36056,6,0,P|435:177|413:208,1,75
103,155,36356,1,0,0:0:0:0:
245,142,36506,2,0,P|301:160|341:257,1,150
160,192,36956,1,0,0:0:0:0:
256,256,37106,6,0,L|320:256,2,37.5
89,259,37406,2,0,L|51:259,2,37.5
259,128,37706,2,0,L|323:128,2,37.5
74,94,38006,2,0,L|10:94,2,37.5
241,71,38306,1,0,0:0:0:0:
332,239,38456,6,0,P|320:281|279:325,1,75
241,71,38756,5,0,0:0:0:0:
360,138,38906,1,0,0:0:0:0:
236,251,39056,1,0,0:0:0:0:
126,143,39206,1,0,0:0:0:0:
324,59,39356,5,0,0:0:0:0:
147,228,39506,1,0,0:0:0:0:
413,227,39656,1,0,0:0:0:0:
132,67,39806,1,0,0:0:0:0:
335,319,39956,1,0,0:0:0:0:
235,136,40106,1,0,0:0:0:0:
249,308,40256,1,0,0:0:0:0:
61,150,40406,1,0,0:0:0:0:
372,262,40556,1,0,0:0:0:0:
91,278,40706,1,0,0:0:0:0:
392,144,40856,6,0,B|438:152|474:199,1,75
376,40,41156,1,0,0:0:0:0:
287,322,41306,6,0,P|239:269|230:171,1,150
277,91,41756,1,0,0:0:0:0:
158,294,41906,1,0,0:0:0:0:
399,177,42056,2,0,L|446:148,4,37.5
146,269,42506,6,0,B|97:207|97:207|86:108,1,150
257,64,42956,1,0,0:0:0:0:
146,269,43106,6,0,B|215:284|215:284|289:258,1,150
