osu file format v14

[General]
AudioFilename: audio.mp3
AudioLeadIn: 0
PreviewTime: 101306
Countdown: 0
SampleSet: Normal
StackLeniency: 0.7
Mode: 0
LetterboxInBreaks: 0
WidescreenStoryboard: 0

[Editor]
Bookmarks: 5456,14906,15431,34106,39206,43706,63056,72506,91706,101306,120656,122906,129806,139856,149456,158456,178256
DistanceSpacing: 0.9
BeatDivisor: 4
GridSize: 8
TimelineZoom: 1.750002

[Metadata]
Title:Andzeju
TitleUnicode:Andżeju
Artist:Nocny Kochanek
ArtistUnicode:Nocny Kochanek
Creator:Trabanto
Version:Klejnoooty
Source:
Tags:polish hewi metal heavy night mistress andrzej wojownik imie
BeatmapID:1358956
BeatmapSetID:566422

[Difficulty]
HPDrainRate:6
CircleSize:4.2
OverallDifficulty:8
ApproachRate:9.6
SliderMultiplier:2
SliderTickRate:1

[Events]
//Background and Video events
0,0,"andzejumiera.jpg",0,0
//Break Periods
//Storyboard Layer 0 (Background)
//Storyboard Layer 1 (Fail)
//Storyboard Layer 2 (Pass)
//Storyboard Layer 3 (Foreground)
//Storyboard Sound Samples

[TimingPoints]
0,300,4,1,0,100,1,0
5006,300,4,1,0,100,1,0
14906,-100,4,1,0,100,0,0
18506,-66.6666666666667,4,1,0,100,0,0
18806,-100,4,1,0,100,0,0
36506,-66.6666666666667,4,1,0,100,0,0
36806,-100,4,1,0,100,0,0
43706,-100,4,1,0,100,0,1
60656,-80,4,1,0,100,0,0
61256,-100,4,1,0,100,0,0
76106,-66.6666666666667,4,1,0,100,0,0
76406,-100,4,1,0,100,0,0
101306,-100,4,1,0,100,0,1
118256,-80,4,1,0,100,0,1
118856,-100,4,1,0,100,0,1
120506,-66.6666666666667,4,1,0,100,0,0
137456,-80,4,1,0,100,0,0
137906,-100,4,1,0,100,0,0
138206,-133.333333333333,4,1,0,100,0,0
138506,-80,4,1,0,100,0,0
139906,-100,4,1,0,100,0,0
145856,-133.333333333333,4,1,0,100,0,0
147056,-200,4,1,0,100,0,0
147156,-100,4,1,0,100,0,0
148856,-133.333333333333,4,1,0,100,0,0
149056,-100,4,1,0,100,0,0
149256,-80,4,1,0,100,0,0
149456,-66.6666666666667,4,1,0,100,0,0
149606,-100,4,1,0,100,0,0
158306,-200,4,1,0,100,0,0
175556,-100,4,1,0,100,0,0
177956,-200,4,1,0,100,0,0
178031,-66.6666666666667,4,1,0,100,0,1
195056,-80,4,1,0,100,0,0
197156,-100,4,1,0,100,0,0

[Colours]
Combo1 : 192,192,192
Combo2 : 255,0,0
Combo3 : 255,128,64
Combo4 : 248,200,7
Combo5 : 255,255,255

[HitObjects]
77,129,5006,53,0,0:0:0:0:
77,129,5081,1,0,0:0:0:0:
77,129,5156,1,0,0:0:0:0:
278,172,5456,5,8,0:0:0:0:
184,48,5606,1,0,0:0:0:0:
278,172,5756,2,0,P|278:196|230:260,1,100,0|0,0:0|0:0,0:0:0:0:
77,129,6056,1,0,0:0:0:0:
165,321,6206,2,0,B|221:369|285:337,1,100,0|0,0:0|0:0,0:0:0:0:
442,74,6506,54,0,P|343:32|259:92,1,200,0|0,0:0|0:0,0:0:0:0:
152,232,6956,5,8,0:0:0:0:
269,74,7106,1,0,0:0:0:0:
248,256,7256,5,8,0:0:0:0:
152,40,7406,1,0,0:0:0:0:
165,321,7556,6,0,B|107:329|66:272,1,100,8|0,0:0|0:0,0:0:0:0:
93,161,7856,1,0,0:0:0:0:
32,344,8006,1,0,0:0:0:0:
93,161,8156,2,0,P|149:145|205:161,1,100,0|0,0:0|0:0,0:0:0:0:
285,337,8456,1,0,0:0:0:0:
269,105,8606,2,0,P|221:65|149:65,1,100,0|0,0:0|0:0,0:0:0:0:
357,273,8906,2,0,P|453:225|477:97,1,200,0|0,0:0|0:0,0:0:0:0:
333,41,9356,37,8,0:0:0:0:
381,169,9506,1,2,0:0:0:0:
469,65,9656,5,8,0:0:0:0:
288,200,9806,1,2,0:0:0:0:
200,32,9956,5,8,0:0:0:0:
357,273,10106,1,2,0:0:0:0:
269,105,10256,5,0,0:0:0:0:
136,200,10406,1,0,0:0:0:0:
269,105,10556,2,0,P|325:113|373:153,1,100,0|0,0:0|0:0,0:0:0:0:
480,288,10856,1,0,0:0:0:0:
453,105,11006,2,0,B|432:48|368:32,1,100,0|0,0:0|0:0,0:0:0:0:
91,213,11306,6,0,P|189:264|280:198,1,200,0|0,0:0|0:0,0:0:0:0:
174,64,11756,2,0,B|153:112|180:160,1,100,0|0,0:0|0:0,0:0:0:0:
357,241,12056,1,0,0:0:0:0:
269,105,12206,1,0,0:0:0:0:
309,321,12356,2,0,B|354:347|404:323,1,100,0|0,0:0|0:0,0:0:0:0:
360,137,12656,5,0,0:0:0:0:
480,240,12806,1,0,0:0:0:0:
360,137,12956,2,0,P|318:110|269:105,1,100,0|0,0:0|0:0,0:0:0:0:
221,313,13256,1,0,0:0:0:0:
174,64,13406,2,0,P|216:18|277:9,1,100,0|0,0:0|0:0,0:0:0:0:
472,136,13706,5,0,0:0:0:0:
465,167,13781,1,0,0:0:0:0:
450,195,13856,1,0,0:0:0:0:
429,219,13931,1,0,0:0:0:0:
402,236,14006,1,0,0:0:0:0:
372,247,14081,1,0,0:0:0:0:
340,249,14156,1,0,0:0:0:0:
309,243,14231,1,0,0:0:0:0:
272,224,14306,6,0,L|248:136,7,50,0|0|0|0|0|0|0|0,0:0|0:0|0:0|0:0|0:0|0:0|0:0|0:0,0:0:0:0:
264,304,14906,2,0,B|236:335|208:327|208:327|169:340|144:315|144:315|108:309|102:271,1,200,0|0,0:0|0:0,0:0:0:0:
88,232,15281,5,0,0:0:0:0:
88,208,15356,1,0,0:0:0:0:
184,184,15506,5,0,0:0:0:0:
184,200,15581,1,0,0:0:0:0:
184,216,15656,1,0,0:0:0:0:
280,232,15806,5,0,0:0:0:0:
280,200,15881,1,0,0:0:0:0:
280,168,15956,1,0,0:0:0:0:
376,144,16106,5,0,0:0:0:0:
376,192,16181,1,0,0:0:0:0:
376,240,16256,1,0,0:0:0:0:
464,264,16406,5,0,0:0:0:0:
463,204,16481,1,0,0:0:0:0:
462,144,16556,1,0,0:0:0:0:
238,140,16706,6,0,P|270:164|310:172,1,50,0|0,0:0|0:0,0:0:0:0:
358,108,16856,2,0,P|326:84|286:76,1,50,0|0,0:0|0:0,0:0:0:0:
262,260,17006,2,0,P|309:252|366:204,1,100,0|0,0:0|0:0,0:0:0:0:
365,11,17306,2,0,B|406:4|421:30|421:30|456:45|462:80|462:80|484:107|463:140,1,200,0|0,0:0|0:0,0:0:0:0:
432,176,17681,5,0,0:0:0:0:
400,200,17756,1,0,0:0:0:0:
304,168,17906,2,0,L|341:135,2,50,0|0|0,0:0|0:0|0:0,0:0:0:0:
296,56,18206,1,0,0:0:0:0:
273,78,18281,1,0,0:0:0:0:
250,101,18356,1,0,0:0:0:0:
160,64,18506,2,0,L|232:0,2,75.0000028610231,0|0|0,0:0|0:0|0:0,0:0:0:0:
216,136,18806,1,0,0:0:0:0:
176,181,18881,1,0,0:0:0:0:
136,224,18956,1,0,0:0:0:0:
48,53,19106,5,0,0:0:0:0:
107,46,19181,1,0,0:0:0:0:
160,64,19256,2,0,P|180:88|191:128,1,50,0|0,0:0|0:0,0:0:0:0:
136,224,19406,2,0,P|89:173|76:108,1,100,0|0,0:0|0:0,0:0:0:0:
272,56,19706,2,0,B|304:81|295:109|295:109|307:146|285:173|285:173|280:208|241:215,1,200,0|0,0:0|0:0,0:0:0:0:
192,224,20081,53,0,0:0:0:0:
192,224,20156,1,0,0:0:0:0:
240,312,20306,5,0,0:0:0:0:
240,312,20381,1,0,0:0:0:0:
240,312,20456,1,0,0:0:0:0:
152,152,20606,5,0,0:0:0:0:
152,152,20681,1,0,0:0:0:0:
152,152,20756,1,0,0:0:0:0:
304,232,20906,5,0,0:0:0:0:
304,232,20981,1,0,0:0:0:0:
304,232,21056,1,0,0:0:0:0:
104,224,21206,5,0,0:0:0:0:
104,224,21281,1,0,0:0:0:0:
104,224,21356,1,0,0:0:0:0:
333,326,21506,6,0,P|366:304|387:269,1,50,0|0,0:0|0:0,0:0:0:0:
343,202,21656,2,0,P|309:223|288:258,1,50,0|0,0:0|0:0,0:0:0:0:
453,344,21806,2,0,P|461:297|435:227,1,100,0|0,0:0|0:0,0:0:0:0:
280,136,22106,2,0,B|306:101|339:113|339:113|374:106|400:134|400:134|429:139|437:180,1,200,0|0,0:0|0:0,0:0:0:0:
368,40,22556,37,8,0:0:0:0:
256,224,22706,1,2,0:0:0:0:
272,48,22856,5,8,0:0:0:0:
352,256,23006,1,2,0:0:0:0:
456,56,23156,5,8,0:0:0:0:
448,296,23306,2,0,P|320:350|248:256,1,250,6|0,0:0|0:0,0:0:0:0:
322,140,23756,6,0,P|338:159|344:184,1,50,0|0,0:0|0:0,0:0:0:0:
168,184,23906,2,0,P|176:154|201:134,1,50,0|0,0:0|0:0,0:0:0:0:
253,282,24056,2,0,P|213:314|149:306,1,100,0|0,0:0|0:0,0:0:0:0:
256,72,24356,1,0,0:0:0:0:
166,314,24506,2,0,P|28:330|-8:255,1,200,0|0,0:0|0:0,0:0:0:0:
0,256,24881,5,0,0:0:0:0:
8,224,24956,1,0,0:0:0:0:
112,208,25106,5,0,0:0:0:0:
108,223,25181,1,0,0:0:0:0:
104,238,25256,1,0,0:0:0:0:
192,288,25406,5,0,0:0:0:0:
200,258,25481,1,0,0:0:0:0:
207,227,25556,1,0,0:0:0:0:
312,208,25706,5,0,0:0:0:0:
300,255,25781,1,0,0:0:0:0:
288,301,25856,1,0,0:0:0:0:
376,352,26006,5,0,0:0:0:0:
389,294,26081,1,0,0:0:0:0:
403,236,26156,1,0,0:0:0:0:
274,94,26306,5,0,0:0:0:0:
226,129,26381,1,0,0:0:0:0:
199,178,26456,2,0,P|200:210|220:246,1,50,0|0,0:0|0:0,0:0:0:0:
352,136,26606,2,0,P|351:67|316:10,1,100,0|0,0:0|0:0,0:0:0:0:
100,102,26906,2,0,B|82:139|104:160|104:160|110:197|143:211|143:211|163:240|200:227,1,200,0|0,0:0|0:0,0:0:0:0:
248,216,27281,53,0,0:0:0:0:
280,200,27356,1,0,0:0:0:0:
264,96,27506,2,0,L|192:136,2,50,0|0|0,0:0|0:0|0:0,0:0:0:0:
128,64,27806,1,0,0:0:0:0:
157,45,27881,1,0,0:0:0:0:
187,28,27956,1,0,0:0:0:0:
308,73,28106,2,0,L|244:105,2,50,0|0|0,0:0|0:0|0:0,0:0:0:0:
280,200,28406,1,0,0:0:0:0:
331,177,28481,1,0,0:0:0:0:
383,155,28556,1,0,0:0:0:0:
303,23,28706,6,0,P|304:62|323:98,1,50,0|0,0:0|0:0,0:0:0:0:
384,160,28856,2,0,P|382:119|363:83,1,50,0|0,0:0|0:0,0:0:0:0:
240,120,29006,2,0,P|252:165|306:217,1,100,0|0,0:0|0:0,0:0:0:0:
408,280,29306,2,0,B|399:322|365:326|365:326|337:348|301:335|301:335|272:343|247:311,1,200,0|0,0:0|0:0,0:0:0:0:
208,264,29681,5,0,0:0:0:0:
208,264,29756,1,0,0:0:0:0:
120,112,29906,5,0,0:0:0:0:
120,112,29981,1,0,0:0:0:0:
120,112,30056,1,0,0:0:0:0:
88,224,30206,5,0,0:0:0:0:
88,224,30281,1,0,0:0:0:0:
88,224,30356,1,0,0:0:0:0:
264,72,30506,5,0,0:0:0:0:
264,72,30581,1,0,0:0:0:0:
264,72,30656,1,0,0:0:0:0:
280,240,30806,5,0,0:0:0:0:
280,240,30881,1,0,0:0:0:0:
280,240,30956,1,0,0:0:0:0:
371,111,31106,6,0,P|365:79|333:48,1,50,0|0,0:0|0:0,0:0:0:0:
264,72,31256,2,0,P|269:100|295:130,1,50,0|0,0:0|0:0,0:0:0:0:
386,200,31406,2,0,P|450:144|456:93,1,100,0|0,0:0|0:0,0:0:0:0:
264,72,31706,2,0,B|221:62|204:86|204:86|167:97|158:132|158:132|135:158|152:192,1,200,0|0,0:0|0:0,0:0:0:0:
191,325,32156,5,0,0:0:0:0:
248,168,32306,1,0,0:0:0:0:
248,168,32381,1,0,0:0:0:0:
248,168,32456,1,0,0:0:0:0:
88,288,32606,1,0,0:0:0:0:
368,176,32756,1,0,0:0:0:0:
344,320,32906,6,0,P|289:340|216:331,1,100,0|0,0:0|0:0,0:0:0:0:
191,325,33131,1,0,0:0:0:0:
191,325,33206,1,0,0:0:0:0:
368,176,33356,1,0,0:0:0:0:
136,152,33506,1,0,0:0:0:0:
256,64,33656,6,0,P|320:56|384:80,1,100,0|0,0:0|0:0,0:0:0:0:
304,240,33956,6,0,L|240:256,1,50,0|0,0:0|0:0,0:0:0:0:
176,264,34106,1,0,0:0:0:0:
126,259,34181,1,0,0:0:0:0:
84,232,34256,1,0,0:0:0:0:
58,191,34331,1,0,0:0:0:0:
53,141,34406,1,0,0:0:0:0:
71,95,34481,1,0,0:0:0:0:
102,60,34556,54,0,L|152:15,3,50,0|0|0|0,0:0|0:0|0:0|0:0,0:0:0:0:
217,88,34856,2,0,L|179:120,3,50,0|0|0|0,0:0|0:0|0:0|0:0,0:0:0:0:
251,188,35156,2,0,L|301:143,3,50,0|0|0|0,0:0|0:0|0:0|0:0,0:0:0:0:
363,220,35456,2,0,L|325:252,3,50,0|0|0|0,0:0|0:0|0:0|0:0,0:0:0:0:
402,317,35756,2,0,L|452:272,3,50,0|0|0|0,0:0|0:0|0:0|0:0,0:0:0:0:
402,317,36056,6,0,P|338:341|290:333,1,100,0|0,0:0|0:0,0:0:0:0:
468,201,36356,1,0,0:0:0:0:
324,252,36506,2,0,B|300:244|268:252|268:252|244:228|212:220|212:220|212:188|188:172|188:172|196:140|188:108|188:108|212:84|220:52|220:52|252:44|268:20|268:20,1,300.000011444092,0|0,0:0|0:0,0:0:0:0:
448,87,36956,6,0,P|408:93|370:77,1,50,0|0,0:0|0:0,0:0:0:0:
300,46,37106,1,0,0:0:0:0:
320,62,37181,1,0,0:0:0:0:
334,82,37256,2,0,P|340:146|331:161,1,50,0|0,0:0|0:0,0:0:0:0:
327,218,37406,5,0,0:0:0:0:
338,197,37481,1,0,0:0:0:0:
355,179,37556,2,0,P|417:162|433:168,1,50,0|0,0:0|0:0,0:0:0:0:
480,179,37706,1,0,0:0:0:0:
468,201,37781,1,0,0:0:0:0:
450,217,37856,2,0,P|386:234|370:229,1,50,0|0,0:0|0:0,0:0:0:0:
262,159,38006,1,0,0:0:0:0:
238,155,38081,1,0,0:0:0:0:
213,159,38156,2,0,P|160:198|155:213,1,50,0|0,0:0|0:0,0:0:0:0:
279,310,38306,1,0,0:0:0:0:
303,314,38381,1,0,0:0:0:0:
327,310,38456,2,0,P|379:270|384:255,1,50,0|0,0:0|0:0,0:0:0:0:
355,179,38606,2,0,P|318:234|319:250,1,50,0|0,0:0|0:0,0:0:0:0:
180,328,38756,2,0,P|123:302|89:251,1,100,0|0,0:0|0:0,0:0:0:0:
104,64,39056,5,8,0:0:0:0:
176,248,39206,1,0,0:0:0:0:
215,109,39356,6,0,L|172:177,1,50,8|0,0:0|0:0,0:0:0:0:
100,275,39506,1,0,0:0:0:0:
181,35,39656,5,8,0:0:0:0:
160,325,39806,1,0,0:0:0:0:
44,133,39956,6,0,L|107:194,1,50,8|0,0:0|0:0,0:0:0:0:
240,302,40106,1,0,0:0:0:0:
269,43,40256,5,8,0:0:0:0:
240,302,40406,1,2,0:0:0:0:
80,168,40556,5,8,0:0:0:0:
240,302,40706,1,2,0:0:0:0:
80,168,40856,5,0,0:0:0:0:
93,130,40931,1,0,0:0:0:0:
113,95,41006,1,0,0:0:0:0:
142,67,41081,1,0,0:0:0:0:
177,48,41156,1,0,0:0:0:0:
38,49,41306,5,8,0:0:0:0:
214,31,41456,1,2,0:0:0:0:
93,130,41606,5,8,0:0:0:0:
294,85,41756,1,2,0:0:0:0:
142,67,41906,5,8,0:0:0:0:
319,180,42056,1,2,0:0:0:0:
178,140,42206,5,8,0:0:0:0:
386,117,42356,5,2,0:0:0:0:
311,277,42506,2,0,B|212:317|212:317|115:292,1,200,4|0,0:0|0:0,0:0:0:0:
402,232,42956,37,8,0:0:0:0:
154,228,43106,2,0,B|69:162|69:162|43:65,1,200,4|0,0:0|0:0,0:0:0:0:
319,90,43556,6,0,P|276:96|252:87,1,50,4|0,0:0|0:0,0:0:0:0:
159,40,43706,1,0,0:0:0:0:
159,40,43781,1,0,0:0:0:0:
159,40,43856,2,0,P|193:47|223:73,1,50,8|0,0:0|0:0,0:0:0:0:
215,178,44006,2,0,P|200:146|204:106,1,50,8|0,0:0|0:0,0:0:0:0:
319,90,44156,21,4,0:0:0:0:
319,90,44231,1,0,0:0:0:0:
319,90,44306,2,0,P|340:117|345:156,1,50,8|0,0:0|0:0,0:0:0:0:
286,242,44456,2,0,P|308:215|345:200,1,50,8|0,0:0|0:0,0:0:0:0:
447,195,44606,21,0,0:0:0:0:
447,195,44681,1,0,0:0:0:0:
447,195,44756,2,0,P|412:193|378:172,1,50,12|0,0:0|0:0,0:0:0:0:
408,74,44906,2,0,P|442:75|476:96,1,50,8|0,0:0|0:0,0:0:0:0:
328,157,45056,5,0,0:0:0:0:
328,157,45131,1,0,0:0:0:0:
328,157,45206,6,0,L|264:141,1,50,8|0,0:0|0:0,0:0:0:0:
208,84,45356,2,0,L|272:68,1,50,12|0,0:0|0:0,0:0:0:0:
303,234,45506,38,0,L|239:218,1,50,8|0,0:0|0:0,0:0:0:0:
154,173,45656,2,0,L|218:157,1,50,8|0,0:0|0:0,0:0:0:0:
286,315,45806,38,0,L|222:299,1,50,8|0,0:0|0:0,0:0:0:0:
135,256,45956,2,0,L|199:240,1,50,12|0,0:0|0:0,0:0:0:0:
303,234,46106,21,8,0:0:0:0:
303,234,46181,1,0,0:0:0:0:
303,234,46256,2,0,P|269:227|239:201,1,50,8|0,0:0|0:0,0:0:0:0:
247,96,46406,2,0,P|261:127|257:167,1,50,8|0,0:0|0:0,0:0:0:0:
143,184,46556,21,4,0:0:0:0:
143,184,46631,1,0,0:0:0:0:
143,184,46706,2,0,P|121:156|116:117,1,50,8|0,0:0|0:0,0:0:0:0:
176,32,46856,2,0,P|153:58|116:73,1,50,8|0,0:0|0:0,0:0:0:0:
15,79,47006,21,0,0:0:0:0:
15,79,47081,1,0,0:0:0:0:
15,79,47156,2,0,P|49:80|83:101,1,50,12|0,0:0|0:0,0:0:0:0:
54,200,47306,2,0,P|19:198|-14:177,1,50,8|0,0:0|0:0,0:0:0:0:
134,117,47456,5,0,0:0:0:0:
134,117,47531,1,0,0:0:0:0:
134,117,47606,38,0,L|198:133,1,50,8|0,0:0|0:0,0:0:0:0:
299,119,47756,2,0,L|235:135,1,50,12|0,0:0|0:0,0:0:0:0:
134,117,47906,38,0,L|198:133,1,50,8|0,0:0|0:0,0:0:0:0:
320,189,48056,2,0,L|228:211,1,50,8|0,0:0|0:0,0:0:0:0:
150,44,48206,38,0,L|241:66,1,50,8|0,0:0|0:0,0:0:0:0:
299,119,48356,2,0,L|235:135,1,50,12|0,0:0|0:0,0:0:0:0:
134,117,48506,38,0,L|198:133,1,50,8|0,0:0|0:0,0:0:0:0:
354,264,48656,5,0,0:0:0:0:
354,264,48731,1,0,0:0:0:0:
354,264,48806,2,0,P|294:257|268:243,1,50,6|0,0:0|0:0,0:0:0:0:
434,170,48956,5,0,0:0:0:0:
434,170,49031,1,0,0:0:0:0:
434,170,49106,2,0,P|387:207|358:215,1,50,6|0,0:0|0:0,0:0:0:0:
368,82,49256,5,0,0:0:0:0:
368,82,49331,1,0,0:0:0:0:
368,82,49406,2,0,P|361:141|347:167,1,50,6|0,0:0|0:0,0:0:0:0:
261,60,49556,5,0,0:0:0:0:
261,60,49631,1,0,0:0:0:0:
261,60,49706,2,0,P|298:106|306:135,1,50,6|0,0:0|0:0,0:0:0:0:
305,189,49856,53,0,0:0:0:0:
305,189,49931,1,0,0:0:0:0:
305,189,50006,1,6,0:0:0:0:
292,232,50081,1,0,0:0:0:0:
272,264,50156,1,0,0:0:0:0:
244,287,50231,1,0,0:0:0:0:
208,314,50306,6,0,P|179:329|126:338,1,50,12|0,0:0|0:0,0:0:0:0:
40,304,50456,2,0,P|72:307|121:328,1,50,8|0,0:0|0:0,0:0:0:0:
162,252,50606,6,0,P|132:237|93:200,1,50,8|0,0:0|0:0,0:0:0:0:
68,111,50756,2,0,P|84:138|97:191,1,50,8|0,0:0|0:0,0:0:0:0:
221,196,50906,6,0,P|191:157|186:111,1,50,8|0,0:0|0:0,0:0:0:0:
283,65,51056,2,0,P|272:113|240:146,1,50,8|0,0:0|0:0,0:0:0:0:
256,192,51131,12,0,53006,0:0:0:0:
159,40,53306,5,0,0:0:0:0:
159,40,53381,1,0,0:0:0:0:
159,40,53456,2,0,P|193:47|223:73,1,50,8|0,0:0|0:0,0:0:0:0:
215,178,53606,2,0,P|200:146|204:106,1,50,8|0,0:0|0:0,0:0:0:0:
319,90,53756,21,4,0:0:0:0:
319,90,53831,1,0,0:0:0:0:
319,90,53906,2,0,P|340:117|345:156,1,50,8|0,0:0|0:0,0:0:0:0:
286,242,54056,2,0,P|308:215|345:200,1,50,8|0,0:0|0:0,0:0:0:0:
447,195,54206,21,0,0:0:0:0:
447,195,54281,1,0,0:0:0:0:
447,195,54356,2,0,P|412:193|378:172,1,50,12|0,0:0|0:0,0:0:0:0:
408,74,54506,2,0,P|442:75|476:96,1,50,8|0,0:0|0:0,0:0:0:0:
328,157,54656,5,0,0:0:0:0:
328,157,54731,1,0,0:0:0:0:
328,157,54806,6,0,L|264:141,1,50,8|0,0:0|0:0,0:0:0:0:
208,84,54956,2,0,L|272:68,1,50,12|0,0:0|0:0,0:0:0:0:
303,234,55106,38,0,L|239:218,1,50,8|0,0:0|0:0,0:0:0:0:
154,173,55256,2,0,L|218:157,1,50,8|0,0:0|0:0,0:0:0:0:
286,315,55406,38,0,L|222:299,1,50,8|0,0:0|0:0,0:0:0:0:
135,256,55556,2,0,L|199:240,1,50,12|0,0:0|0:0,0:0:0:0:
303,234,55706,21,8,0:0:0:0:
303,234,55781,1,0,0:0:0:0:
303,234,55856,2,0,P|269:227|239:201,1,50,8|0,0:0|0:0,0:0:0:0:
247,96,56006,2,0,P|261:127|257:167,1,50,8|0,0:0|0:0,0:0:0:0:
143,184,56156,21,4,0:0:0:0:
143,184,56231,1,0,0:0:0:0:
143,184,56306,2,0,P|121:156|116:117,1,50,8|0,0:0|0:0,0:0:0:0:
176,32,56456,2,0,P|153:58|116:73,1,50,8|0,0:0|0:0,0:0:0:0:
15,79,56606,21,0,0:0:0:0:
15,79,56681,1,0,0:0:0:0:
15,79,56756,2,0,P|49:80|83:101,1,50,12|0,0:0|0:0,0:0:0:0:
54,200,56906,2,0,P|19:198|-14:177,1,50,8|0,0:0|0:0,0:0:0:0:
134,117,57056,5,0,0:0:0:0:
134,117,57131,1,0,0:0:0:0:
134,117,57206,38,0,L|198:133,1,50,8|0,0:0|0:0,0:0:0:0:
299,119,57356,2,0,L|235:135,1,50,12|0,0:0|0:0,0:0:0:0:
134,117,57506,38,0,L|198:133,1,50,8|0,0:0|0:0,0:0:0:0:
320,189,57656,2,0,L|228:211,1,50,8|0,0:0|0:0,0:0:0:0:
150,44,57806,38,0,L|241:66,1,50,8|0,0:0|0:0,0:0:0:0:
299,119,57956,2,0,L|235:135,1,50,12|0,0:0|0:0,0:0:0:0:
134,117,58106,38,0,L|198:133,1,50,8|0,0:0|0:0,0:0:0:0:
354,264,58256,5,0,0:0:0:0:
354,264,58331,1,0,0:0:0:0:
354,264,58406,2,0,P|294:257|268:243,1,50,6|0,0:0|0:0,0:0:0:0:
434,170,58556,5,0,0:0:0:0:
434,170,58631,1,0,0:0:0:0:
434,170,58706,2,0,P|387:207|358:215,1,50,6|0,0:0|0:0,0:0:0:0:
368,82,58856,5,0,0:0:0:0:
368,82,58931,1,0,0:0:0:0:
368,82,59006,2,0,P|361:141|347:167,1,50,6|0,0:0|0:0,0:0:0:0:
261,60,59156,5,0,0:0:0:0:
261,60,59231,1,0,0:0:0:0:
261,60,59306,2,0,P|298:106|306:135,1,50,6|0,0:0|0:0,0:0:0:0:
305,189,59456,53,0,0:0:0:0:
305,189,59531,1,0,0:0:0:0:
305,189,59606,1,6,0:0:0:0:
292,232,59681,1,0,0:0:0:0:
272,264,59756,1,0,0:0:0:0:
244,287,59831,1,0,0:0:0:0:
208,314,59906,6,0,P|179:329|126:338,1,50,12|0,0:0|0:0,0:0:0:0:
40,304,60056,2,0,P|72:307|121:328,1,50,8|0,0:0|0:0,0:0:0:0:
162,252,60206,6,0,P|132:237|93:200,1,50,8|0,0:0|0:0,0:0:0:0:
68,111,60356,6,0,P|84:138|97:191,1,50,8|0,0:0|0:0,0:0:0:0:
221,196,60506,6,0,P|191:157|186:111,1,50,8|0,0:0|0:0,0:0:0:0:
228,36,60656,6,0,P|355:47|183:130,1,500,0|0,0:0|0:0,0:0:0:0:
71,26,61406,6,0,P|116:45|147:83,1,100,0|0,0:0|0:0,0:0:0:0:
280,123,61706,6,0,P|230:128|189:155,1,100,0|0,0:0|0:0,0:0:0:0:
130,250,62006,1,0,0:0:0:0:
130,250,62081,1,0,0:0:0:0:
130,250,62156,1,0,0:0:0:0:
415,258,62306,5,0,0:0:0:0:
421,224,62381,1,0,0:0:0:0:
418,188,62456,1,0,0:0:0:0:
408,154,62531,1,0,0:0:0:0:
390,124,62606,1,0,0:0:0:0:
366,98,62681,1,0,0:0:0:0:
337,77,62756,2,0,P|272:40|212:35,1,100,0|0,0:0|0:0,0:0:0:0:
304,280,63056,5,0,0:0:0:0:
257,130,63206,1,0,0:0:0:0:
304,280,63356,2,0,P|323:294|403:292,1,100,0|0,0:0|0:0,0:0:0:0:
360,80,63656,1,0,0:0:0:0:
480,304,63806,2,0,B|460:375|389:384,1,100,0|0,0:0|0:0,0:0:0:0:
176,56,64106,54,0,P|286:37|370:97,1,200,0|0,0:0|0:0,0:0:0:0:
216,240,64556,5,8,0:0:0:0:
257,130,64706,1,0,0:0:0:0:
320,216,64856,5,8,0:0:0:0:
160,152,65006,1,0,0:0:0:0:
208,336,65156,6,0,B|266:344|307:287,1,100,8|0,0:0|0:0,0:0:0:0:
360,112,65456,1,0,0:0:0:0:
216,240,65606,1,0,0:0:0:0:
200,48,65756,2,0,P|256:32|312:48,1,100,0|0,0:0|0:0,0:0:0:0:
406,191,66056,1,0,0:0:0:0:
448,64,66206,2,0,P|400:24|328:16,1,100,0|0,0:0|0:0,0:0:0:0:
128,192,66506,2,0,P|234:202|323:106,1,200,0|0,0:0|0:0,0:0:0:0:
248,24,66956,37,8,0:0:0:0:
304,148,67106,1,2,0:0:0:0:
328,32,67256,5,8,0:0:0:0:
192,120,67406,1,2,0:0:0:0:
168,32,67556,5,8,0:0:0:0:
240,240,67706,1,2,0:0:0:0:
304,148,67856,5,0,0:0:0:0:
136,184,68006,1,0,0:0:0:0:
304,148,68156,2,0,P|360:156|408:196,1,100,0|0,0:0|0:0,0:0:0:0:
404,351,68456,1,0,0:0:0:0:
480,192,68606,2,0,B|477:131|421:96,1,100,0|0,0:0|0:0,0:0:0:0:
91,213,68906,6,0,P|189:264|280:198,1,200,0|0,0:0|0:0,0:0:0:0:
174,64,69356,6,0,B|153:112|180:160,1,100,0|0,0:0|0:0,0:0:0:0:
338,320,69656,6,0,B|359:272|332:224,1,100,0|0,0:0|0:0,0:0:0:0:
40,296,69956,6,0,B|87:317|136:291,1,100,0|0,0:0|0:0,0:0:0:0:
208,168,70256,2,0,L|168:224,1,50,0|0,0:0|0:0,0:0:0:0:
240,264,70406,2,0,L|269:223,1,50,0|0,0:0|0:0,0:0:0:0:
208,168,70556,2,0,L|168:224,1,50,0|0,0:0|0:0,0:0:0:0:
224,288,70706,1,0,0:0:0:0:
224,288,70781,1,0,0:0:0:0:
224,288,70856,2,0,L|272:264,1,50,0|0,0:0|0:0,0:0:0:0:
282,195,71006,2,0,L|226:227,1,50
314,271,71156,1,0,0:0:0:0:
314,271,71231,1,0,0:0:0:0:
314,271,71306,2,0,L|370:239,1,50,0|0,0:0|0:0,0:0:0:0:
353,202,71456,1,0,0:0:0:0:
353,202,71531,1,0,0:0:0:0:
353,202,71606,6,0,L|353:274,1,50,0|0,0:0|0:0,0:0:0:0:
417,251,71756,2,0,L|417:187,1,50
345,139,71906,6,0,L|345:235,1,50
412,187,72056,2,0,L|412:137,1,50
341,77,72206,6,0,L|341:157,1,50
403,117,72356,2,0,L|403:67,1,50,0|0,0:0|0:0,0:0:0:0:
424,88,72506,2,0,P|424:200|368:280,1,200,0|0,0:0|0:0,0:0:0:0:
328,280,72881,21,0,0:0:0:0:
288,256,72956,1,0,0:0:0:0:
184,184,73106,5,0,0:0:0:0:
184,200,73181,1,0,0:0:0:0:
184,216,73256,1,0,0:0:0:0:
280,232,73406,5,0,0:0:0:0:
280,200,73481,1,0,0:0:0:0:
280,168,73556,1,0,0:0:0:0:
376,144,73706,5,0,0:0:0:0:
376,192,73781,1,0,0:0:0:0:
376,240,73856,1,0,0:0:0:0:
464,264,74006,5,0,0:0:0:0:
463,204,74081,1,0,0:0:0:0:
462,144,74156,1,0,0:0:0:0:
238,140,74306,6,0,P|270:164|310:172,1,50,0|0,0:0|0:0,0:0:0:0:
358,108,74456,2,0,P|326:84|286:76,1,50,0|0,0:0|0:0,0:0:0:0:
262,260,74606,2,0,P|309:252|366:204,1,100,0|0,0:0|0:0,0:0:0:0:
365,11,74906,2,0,B|406:4|421:30|421:30|456:45|462:80|462:80|484:107|463:140,1,200,0|0,0:0|0:0,0:0:0:0:
432,176,75281,5,0,0:0:0:0:
400,200,75356,1,0,0:0:0:0:
304,168,75506,2,0,L|341:135,2,50,0|0|0,0:0|0:0|0:0,0:0:0:0:
296,56,75806,1,0,0:0:0:0:
273,78,75881,1,0,0:0:0:0:
250,101,75956,1,0,0:0:0:0:
160,64,76106,2,0,L|232:0,2,75.0000028610231,0|0|0,0:0|0:0|0:0,0:0:0:0:
216,136,76406,1,0,0:0:0:0:
176,181,76481,1,0,0:0:0:0:
136,224,76556,1,0,0:0:0:0:
48,53,76706,5,0,0:0:0:0:
107,46,76781,1,0,0:0:0:0:
160,64,76856,2,0,P|180:88|191:128,1,50,0|0,0:0|0:0,0:0:0:0:
136,224,77006,2,0,P|89:173|76:108,1,100,0|0,0:0|0:0,0:0:0:0:
272,56,77306,2,0,B|304:81|295:109|295:109|307:146|285:173|285:173|280:208|232:224,1,200,0|0,0:0|0:0,0:0:0:0:
192,224,77681,53,0,0:0:0:0:
192,224,77756,1,0,0:0:0:0:
240,312,77906,5,0,0:0:0:0:
240,312,77981,1,0,0:0:0:0:
240,312,78056,1,0,0:0:0:0:
152,152,78206,5,0,0:0:0:0:
152,152,78281,1,0,0:0:0:0:
152,152,78356,1,0,0:0:0:0:
304,232,78506,5,0,0:0:0:0:
304,232,78581,1,0,0:0:0:0:
304,232,78656,1,0,0:0:0:0:
104,224,78806,5,0,0:0:0:0:
104,224,78881,1,0,0:0:0:0:
104,224,78956,1,0,0:0:0:0:
333,326,79106,6,0,P|366:304|387:269,1,50,0|0,0:0|0:0,0:0:0:0:
343,202,79256,2,0,P|309:223|288:258,1,50,0|0,0:0|0:0,0:0:0:0:
453,344,79406,2,0,P|461:297|435:227,1,100,0|0,0:0|0:0,0:0:0:0:
280,136,79706,2,0,B|306:101|339:113|339:113|374:106|400:134|400:134|429:139|437:180,1,200,0|0,0:0|0:0,0:0:0:0:
368,40,80156,37,8,0:0:0:0:
256,224,80306,1,0,0:0:0:0:
272,48,80456,5,8,0:0:0:0:
352,256,80606,1,0,0:0:0:0:
456,56,80756,5,8,0:0:0:0:
448,296,80906,2,0,P|320:350|248:256,1,250,0|0,0:0|0:0,0:0:0:0:
322,140,81356,6,0,P|338:159|344:184,1,50,0|0,0:0|0:0,0:0:0:0:
168,184,81506,2,0,P|176:154|201:134,1,50,0|0,0:0|0:0,0:0:0:0:
253,282,81656,2,0,P|213:314|149:306,1,100,0|0,0:0|0:0,0:0:0:0:
256,72,81956,1,0,0:0:0:0:
166,314,82106,2,0,P|28:330|-8:255,1,200,0|0,0:0|0:0,0:0:0:0:
0,256,82481,5,0,0:0:0:0:
8,224,82556,1,0,0:0:0:0:
112,208,82706,5,0,0:0:0:0:
108,223,82781,1,0,0:0:0:0:
104,238,82856,1,0,0:0:0:0:
192,288,83006,5,0,0:0:0:0:
200,258,83081,1,0,0:0:0:0:
207,227,83156,1,0,0:0:0:0:
312,208,83306,5,0,0:0:0:0:
300,255,83381,1,0,0:0:0:0:
288,301,83456,1,0,0:0:0:0:
376,352,83606,5,0,0:0:0:0:
389,294,83681,1,0,0:0:0:0:
403,236,83756,1,0,0:0:0:0:
274,94,83906,5,0,0:0:0:0:
226,129,83981,1,0,0:0:0:0:
199,178,84056,2,0,P|200:210|220:246,1,50,0|0,0:0|0:0,0:0:0:0:
352,136,84206,2,0,P|351:67|316:10,1,100,0|0,0:0|0:0,0:0:0:0:
100,102,84506,2,0,B|82:139|104:160|104:160|110:197|143:211|143:211|163:240|200:227,1,200,0|0,0:0|0:0,0:0:0:0:
248,216,84881,53,0,0:0:0:0:
280,200,84956,1,0,0:0:0:0:
264,96,85106,2,0,L|192:136,2,50,0|0|0,0:0|0:0|0:0,0:0:0:0:
128,64,85406,1,0,0:0:0:0:
157,45,85481,1,0,0:0:0:0:
187,28,85556,1,0,0:0:0:0:
308,73,85706,2,0,L|244:105,2,50,0|0|0,0:0|0:0|0:0,0:0:0:0:
280,200,86006,1,0,0:0:0:0:
331,177,86081,1,0,0:0:0:0:
383,155,86156,1,0,0:0:0:0:
303,23,86306,6,0,P|304:62|323:98,1,50,0|0,0:0|0:0,0:0:0:0:
384,160,86456,2,0,P|382:119|363:83,1,50,0|0,0:0|0:0,0:0:0:0:
240,120,86606,2,0,P|252:165|306:217,1,100,0|0,0:0|0:0,0:0:0:0:
408,280,86906,2,0,B|399:322|365:326|365:326|337:348|301:335|301:335|272:343|247:311,1,200,0|0,0:0|0:0,0:0:0:0:
208,264,87281,5,0,0:0:0:0:
208,264,87356,1,0,0:0:0:0:
120,112,87506,5,0,0:0:0:0:
120,112,87581,1,0,0:0:0:0:
120,112,87656,1,0,0:0:0:0:
88,224,87806,5,0,0:0:0:0:
88,224,87881,1,0,0:0:0:0:
88,224,87956,1,0,0:0:0:0:
264,72,88106,5,0,0:0:0:0:
264,72,88181,1,0,0:0:0:0:
264,72,88256,1,0,0:0:0:0:
280,240,88406,5,0,0:0:0:0:
280,240,88481,1,0,0:0:0:0:
280,240,88556,1,0,0:0:0:0:
371,111,88706,6,0,P|365:79|333:48,1,50,0|0,0:0|0:0,0:0:0:0:
264,72,88856,2,0,P|269:100|295:130,1,50,0|0,0:0|0:0,0:0:0:0:
386,200,89006,2,0,P|450:144|456:93,1,100,0|0,0:0|0:0,0:0:0:0:
264,72,89306,2,0,B|221:62|204:86|204:86|167:97|158:132|158:132|135:158|152:192,1,200,0|0,0:0|0:0,0:0:0:0:
191,325,89756,5,0,0:0:0:0:
248,168,89906,1,0,0:0:0:0:
248,168,89981,1,0,0:0:0:0:
248,168,90056,1,0,0:0:0:0:
88,288,90206,1,0,0:0:0:0:
368,176,90356,1,0,0:0:0:0:
366,344,90506,6,0,B|348:367|316:365|316:365|284:379|260:362|260:362|228:368|206:335|206:335|182:326|176:294,1,200,0|0,0:0|0:0,0:0:0:0:
456,256,90956,1,0,0:0:0:0:
296,248,91106,1,0,0:0:0:0:
320,96,91256,6,0,P|384:88|448:112,1,100,0|0,0:0|0:0,0:0:0:0:
240,48,91556,2,0,P|208:56|160:48,1,50,0|0,0:0|0:0,0:0:0:0:
116,56,91706,21,0,0:0:0:0:
86,82,91781,1,0,0:0:0:0:
62,114,91856,1,0,0:0:0:0:
50,152,91931,1,0,0:0:0:0:
49,191,92006,1,0,0:0:0:0:
57,230,92081,1,0,0:0:0:0:
72,266,92156,6,0,L|109:330,3,50,0|0|0|0,0:0|0:0|0:0|0:0,0:0:0:0:
192,272,92456,2,0,L|155:208,3,50,0|0|0|0,0:0|0:0|0:0|0:0,0:0:0:0:
216,136,92756,2,0,L|253:200,3,50,0|0|0|0,0:0|0:0|0:0|0:0,0:0:0:0:
352,152,93056,2,0,L|315:88,3,50,0|0|0|0,0:0|0:0|0:0|0:0,0:0:0:0:
400,32,93356,2,0,L|437:96,3,50,0|0|0|0,0:0|0:0|0:0|0:0,0:0:0:0:
420,201,93656,54,0,P|351:233|303:221,1,100,0|0,0:0|0:0,0:0:0:0:
248,72,93956,1,0,0:0:0:0:
176,224,94106,2,0,P|209:291|341:352,1,200,0|0,0:0|0:0,0:0:0:0:
464,286,94556,6,0,P|424:285|389:306,1,50,0|0,0:0|0:0,0:0:0:0:
325,345,94706,1,0,0:0:0:0:
342,327,94781,1,0,0:0:0:0:
353,305,94856,2,0,P|350:240|340:227,1,50,0|0,0:0|0:0,0:0:0:0:
326,171,95006,5,8,0:0:0:0:
340,190,95081,1,8,0:0:0:0:
360,205,95156,2,8,P|424:213|439:205,1,50,8|8,0:0|0:0,0:0:0:0:
483,188,95306,1,8,0:0:0:0:
469,168,95381,1,8,0:0:0:0:
449,154,95456,2,8,P|384:145|369:153,1,50,8|8,0:0|0:0,0:0:0:0:
270,239,95606,1,8,0:0:0:0:
247,246,95681,1,8,0:0:0:0:
222,246,95756,2,8,P|164:214|157:200,1,50,8|8,0:0|0:0,0:0:0:0:
224,72,95906,5,0,0:0:0:0:
274,69,95981,1,0,0:0:0:0:
322,84,96056,1,0,0:0:0:0:
363,113,96131,1,0,0:0:0:0:
391,154,96206,1,0,0:0:0:0:
402,202,96281,1,0,0:0:0:0:
398,251,96356,2,0,P|357:301|311:310,1,100,0|0,0:0|0:0,0:0:0:0:
454,88,96656,5,8,0:0:0:0:
316,226,96806,1,0,0:0:0:0:
274,69,96956,6,0,L|319:146,1,50,8|0,0:0|0:0,0:0:0:0:
399,252,97106,1,0,0:0:0:0:
370,37,97256,5,8,0:0:0:0:
338,311,97406,1,0,0:0:0:0:
218,143,97556,54,0,L|198:221,1,50,8|0,0:0|0:0,0:0:0:0:
167,309,97706,1,0,0:0:0:0:
293,203,97856,5,8,0:0:0:0:
424,334,98006,1,0,0:0:0:0:
233,292,98156,6,0,L|315:286,1,50,8|0,0:0|0:0,0:0:0:0:
483,277,98306,1,0,0:0:0:0:
194,260,98456,1,0,0:0:0:0:
163,225,98531,1,0,0:0:0:0:
147,182,98606,1,0,0:0:0:0:
141,137,98681,1,0,0:0:0:0:
155,94,98756,1,0,0:0:0:0:
347,35,98906,5,8,0:0:0:0:
327,108,99056,1,2,0:0:0:0:
388,210,99206,5,8,0:0:0:0:
408,137,99356,1,2,0:0:0:0:
246,82,99506,5,8,0:0:0:0:
180,238,99656,1,2,0:0:0:0:
335,307,99806,5,8,0:0:0:0:
408,137,99956,1,2,0:0:0:0:
157,134,100106,2,0,B|264:169|264:169|337:97,1,200,4|0,0:0|0:0,0:0:0:0:
80,205,100556,53,8,0:0:0:0:
314,280,100706,2,0,B|411:223|411:223|406:121,1,200,4|0,0:0|0:0,0:0:0:0:
319,90,101156,6,0,P|276:96|252:87,1,50,4|0,0:0|0:0,0:0:0:0:
159,40,101306,1,0,0:0:0:0:
159,40,101381,1,0,0:0:0:0:
159,40,101456,2,0,P|193:47|223:73,1,50,8|0,0:0|0:0,0:0:0:0:
215,178,101606,2,0,P|200:146|204:106,1,50,8|0,0:0|0:0,0:0:0:0:
319,90,101756,21,4,0:0:0:0:
319,90,101831,1,0,0:0:0:0:
319,90,101906,2,0,P|340:117|345:156,1,50,8|0,0:0|0:0,0:0:0:0:
286,242,102056,2,0,P|308:215|345:200,1,50,8|0,0:0|0:0,0:0:0:0:
447,195,102206,21,0,0:0:0:0:
447,195,102281,1,0,0:0:0:0:
447,195,102356,2,0,P|412:193|378:172,1,50,12|0,0:0|0:0,0:0:0:0:
408,74,102506,2,0,P|442:75|476:96,1,50,8|0,0:0|0:0,0:0:0:0:
328,157,102656,5,0,0:0:0:0:
328,157,102731,1,0,0:0:0:0:
328,157,102806,6,0,L|264:141,1,50,8|0,0:0|0:0,0:0:0:0:
208,84,102956,2,0,L|272:68,1,50,12|0,0:0|0:0,0:0:0:0:
303,234,103106,38,0,L|239:218,1,50,8|0,0:0|0:0,0:0:0:0:
154,173,103256,2,0,L|218:157,1,50,8|0,0:0|0:0,0:0:0:0:
286,315,103406,38,0,L|222:299,1,50,8|0,0:0|0:0,0:0:0:0:
135,256,103556,2,0,L|199:240,1,50,12|0,0:0|0:0,0:0:0:0:
303,234,103706,21,8,0:0:0:0:
303,234,103781,1,0,0:0:0:0:
303,234,103856,2,0,P|269:227|239:201,1,50,8|0,0:0|0:0,0:0:0:0:
247,96,104006,2,0,P|261:127|257:167,1,50,8|0,0:0|0:0,0:0:0:0:
143,184,104156,21,4,0:0:0:0:
143,184,104231,1,0,0:0:0:0:
143,184,104306,2,0,P|121:156|116:117,1,50,8|0,0:0|0:0,0:0:0:0:
176,32,104456,2,0,P|153:58|116:73,1,50,8|0,0:0|0:0,0:0:0:0:
15,79,104606,21,0,0:0:0:0:
15,79,104681,1,0,0:0:0:0:
15,79,104756,2,0,P|49:80|83:101,1,50,12|0,0:0|0:0,0:0:0:0:
54,200,104906,2,0,P|19:198|-14:177,1,50,8|0,0:0|0:0,0:0:0:0:
134,117,105056,5,0,0:0:0:0:
134,117,105131,1,0,0:0:0:0:
134,117,105206,38,0,L|198:133,1,50,8|0,0:0|0:0,0:0:0:0:
299,119,105356,2,0,L|235:135,1,50,12|0,0:0|0:0,0:0:0:0:
134,117,105506,38,0,L|198:133,1,50,8|0,0:0|0:0,0:0:0:0:
320,189,105656,2,0,L|228:211,1,50,8|0,0:0|0:0,0:0:0:0:
150,44,105806,38,0,L|241:66,1,50,8|0,0:0|0:0,0:0:0:0:
299,119,105956,2,0,L|235:135,1,50,12|0,0:0|0:0,0:0:0:0:
134,117,106106,38,0,L|198:133,1,50,8|0,0:0|0:0,0:0:0:0:
354,264,106256,5,0,0:0:0:0:
354,264,106331,1,0,0:0:0:0:
354,264,106406,2,0,P|294:257|268:243,1,50,6|0,0:0|0:0,0:0:0:0:
434,170,106556,5,0,0:0:0:0:
434,170,106631,1,0,0:0:0:0:
434,170,106706,2,0,P|387:207|358:215,1,50,6|0,0:0|0:0,0:0:0:0:
368,82,106856,5,0,0:0:0:0:
368,82,106931,1,0,0:0:0:0:
368,82,107006,2,0,P|361:141|347:167,1,50,6|0,0:0|0:0,0:0:0:0:
261,60,107156,5,0,0:0:0:0:
261,60,107231,1,0,0:0:0:0:
261,60,107306,2,0,P|298:106|306:135,1,50,6|0,0:0|0:0,0:0:0:0:
305,189,107456,53,0,0:0:0:0:
305,189,107531,1,0,0:0:0:0:
305,189,107606,1,6,0:0:0:0:
292,232,107681,1,0,0:0:0:0:
272,264,107756,1,0,0:0:0:0:
244,287,107831,1,0,0:0:0:0:
208,314,107906,6,0,P|179:329|126:338,1,50,12|0,0:0|0:0,0:0:0:0:
40,304,108056,2,0,P|72:307|121:328,1,50,8|0,0:0|0:0,0:0:0:0:
162,252,108206,6,0,P|132:237|93:200,1,50,8|0,0:0|0:0,0:0:0:0:
68,111,108356,2,0,P|84:138|97:191,1,50,8|0,0:0|0:0,0:0:0:0:
221,196,108506,6,0,P|191:157|186:111,1,50,8|0,0:0|0:0,0:0:0:0:
283,65,108656,2,0,P|272:113|240:146,1,50,8|0,0:0|0:0,0:0:0:0:
256,192,108731,12,0,110606,0:0:0:0:
159,40,110906,5,0,0:0:0:0:
159,40,110981,1,0,0:0:0:0:
159,40,111056,2,0,P|193:47|223:73,1,50,8|0,0:0|0:0,0:0:0:0:
215,178,111206,2,0,P|200:146|204:106,1,50,8|0,0:0|0:0,0:0:0:0:
319,90,111356,21,4,0:0:0:0:
319,90,111431,1,0,0:0:0:0:
319,90,111506,2,0,P|340:117|345:156,1,50,8|0,0:0|0:0,0:0:0:0:
286,242,111656,2,0,P|308:215|345:200,1,50,8|0,0:0|0:0,0:0:0:0:
447,195,111806,21,0,0:0:0:0:
447,195,111881,1,0,0:0:0:0:
447,195,111956,2,0,P|412:193|378:172,1,50,12|0,0:0|0:0,0:0:0:0:
408,74,112106,2,0,P|442:75|476:96,1,50,8|0,0:0|0:0,0:0:0:0:
328,157,112256,5,0,0:0:0:0:
328,157,112331,1,0,0:0:0:0:
328,157,112406,6,0,L|264:141,1,50,8|0,0:0|0:0,0:0:0:0:
208,84,112556,2,0,L|272:68,1,50,12|0,0:0|0:0,0:0:0:0:
303,234,112706,38,0,L|239:218,1,50,8|0,0:0|0:0,0:0:0:0:
154,173,112856,2,0,L|218:157,1,50,8|0,0:0|0:0,0:0:0:0:
286,315,113006,38,0,L|222:299,1,50,8|0,0:0|0:0,0:0:0:0:
135,256,113156,2,0,L|199:240,1,50,12|0,0:0|0:0,0:0:0:0:
303,234,113306,21,8,0:0:0:0:
303,234,113381,1,0,0:0:0:0:
303,234,113456,2,0,P|269:227|239:201,1,50,8|0,0:0|0:0,0:0:0:0:
247,96,113606,2,0,P|261:127|257:167,1,50,8|0,0:0|0:0,0:0:0:0:
143,184,113756,21,4,0:0:0:0:
143,184,113831,1,0,0:0:0:0:
143,184,113906,2,0,P|121:156|116:117,1,50,8|0,0:0|0:0,0:0:0:0:
176,32,114056,2,0,P|153:58|116:73,1,50,8|0,0:0|0:0,0:0:0:0:
15,79,114206,21,0,0:0:0:0:
15,79,114281,1,0,0:0:0:0:
15,79,114356,2,0,P|49:80|83:101,1,50,12|0,0:0|0:0,0:0:0:0:
54,200,114506,2,0,P|19:198|-14:177,1,50,8|0,0:0|0:0,0:0:0:0:
134,117,114656,5,0,0:0:0:0:
134,117,114731,1,0,0:0:0:0:
134,117,114806,38,0,L|198:133,1,50,8|0,0:0|0:0,0:0:0:0:
299,119,114956,2,0,L|235:135,1,50,12|0,0:0|0:0,0:0:0:0:
134,117,115106,38,0,L|198:133,1,50,8|0,0:0|0:0,0:0:0:0:
320,189,115256,2,0,L|228:211,1,50,8|0,0:0|0:0,0:0:0:0:
150,44,115406,38,0,L|241:66,1,50,8|0,0:0|0:0,0:0:0:0:
299,119,115556,2,0,L|235:135,1,50,12|0,0:0|0:0,0:0:0:0:
134,117,115706,38,0,L|198:133,1,50,8|0,0:0|0:0,0:0:0:0:
354,264,115856,5,0,0:0:0:0:
354,264,115931,1,0,0:0:0:0:
354,264,116006,2,0,P|294:257|268:243,1,50,6|0,0:0|0:0,0:0:0:0:
434,170,116156,5,0,0:0:0:0:
434,170,116231,1,0,0:0:0:0:
434,170,116306,2,0,P|387:207|358:215,1,50,6|0,0:0|0:0,0:0:0:0:
368,82,116456,5,0,0:0:0:0:
368,82,116531,1,0,0:0:0:0:
368,82,116606,2,0,P|361:141|347:167,1,50,6|0,0:0|0:0,0:0:0:0:
261,60,116756,5,0,0:0:0:0:
261,60,116831,1,0,0:0:0:0:
261,60,116906,2,0,P|298:106|306:135,1,50,6|0,0:0|0:0,0:0:0:0:
305,189,117056,53,0,0:0:0:0:
305,189,117131,1,0,0:0:0:0:
305,189,117206,1,6,0:0:0:0:
292,232,117281,1,0,0:0:0:0:
272,264,117356,1,0,0:0:0:0:
244,287,117431,1,0,0:0:0:0:
208,314,117506,6,0,P|179:329|126:338,1,50,12|0,0:0|0:0,0:0:0:0:
40,304,117656,2,0,P|72:307|121:328,1,50,8|0,0:0|0:0,0:0:0:0:
162,252,117806,6,0,P|132:237|93:200,1,50,8|0,0:0|0:0,0:0:0:0:
68,111,117956,6,0,P|84:138|97:191,1,50,8|0,0:0|0:0,0:0:0:0:
221,196,118106,6,0,P|191:157|186:111,1,50,8|0,0:0|0:0,0:0:0:0:
228,36,118256,6,0,P|355:47|183:130,1,500,0|0,0:0|0:0,0:0:0:0:
465,46,119006,5,0,0:0:0:0:
286,120,119156,1,0,0:0:0:0:
150,41,119306,2,0,P|110:69|95:116,1,100
125,305,119606,2,0,P|163:310|195:333,1,50
256,320,119756,5,0,0:0:0:0:
280,302,119831,1,0,0:0:0:0:
301,280,119906,1,0,0:0:0:0:
320,256,119981,1,0,0:0:0:0:
337,231,120056,1,0,0:0:0:0:
351,204,120131,1,0,0:0:0:0:
362,176,120206,6,0,P|368:147|362:111,1,50,0|0,0:0|0:0,0:0:0:0:
244,60,120356,2,0,P|238:89|244:125,1,50,0|0,0:0|0:0,0:0:0:0:
399,162,120506,2,0,P|395:128|371:73,1,75.0000028610231,0|0,0:0|0:0,0:0:0:0:
222,48,120656,2,0,P|105:139|303:288,1,450.000017166138,0|0,0:0|0:0,0:0:0:0:
400,132,121256,6,0,P|363:132|331:150,1,75.0000028610231,0|0,0:0|0:0,0:0:0:0:
211,226,121406,2,0,P|248:226|280:208,1,75.0000028610231,0|0,0:0|0:0,0:0:0:0:
421,259,121556,2,0,P|395:232|360:221,1,75.0000028610231,0|0,0:0|0:0,0:0:0:0:
226,324,121706,2,0,P|331:293|103:232,1,750.000028610231,0|0,0:0|0:0,0:0:0:0:
260,112,122606,6,0,P|291:133|309:166,1,75.0000028610231
216,250,122756,2,0,P|229:216|228:179,1,75.0000028610231
98,144,122906,2,0,P|90:181|98:218,1,75.0000028610231
307,49,123056,2,0,P|272:35|235:36,1,75.0000028610231
137,297,123206,6,0,P|179:333|275:316,1,150.000005722046,0|0,0:0|0:0,0:0:0:0:
336,99,123506,6,0,P|280:103|224:182,1,150.000005722046,0|0,0:0|0:0,0:0:0:0:
392,350,123806,6,0,P|430:290|449:195,1,150.000005722046,0|0,0:0|0:0,0:0:0:0:
36,133,124106,2,0,P|49:270|226:19,1,750.000028610231,0|0,0:0|0:0,0:0:0:0:
107,210,125006,6,0,P|120:244|155:266,1,75.0000028610231,0|0,0:0|0:0,0:0:0:0:
293,213,125156,6,0,P|257:204|221:216,1,75.0000028610231,0|0,0:0|0:0,0:0:0:0:
104,83,125306,6,0,P|137:98|173:89,1,75.0000028610231,0|0,0:0|0:0,0:0:0:0:
457,145,125456,2,0,P|449:339|260:286,1,450.000017166138,0|0,0:0|0:0,0:0:0:0:
31,49,126056,2,0,L|37:143,1,75.0000028610231,0|0,0:0|0:0,0:0:0:0:
78,269,126206,2,0,L|97:175,1,75.0000028610231,0|0,0:0|0:0,0:0:0:0:
163,68,126356,2,0,L|190:164,1,75.0000028610231,0|0,0:0|0:0,0:0:0:0:
250,291,126506,2,0,P|353:343|218:185,1,750.000028610231,0|0,0:0|0:0,0:0:0:0:
404,341,127406,54,0,P|379:271|357:251,1,75.0000028610231,0|0,0:0|0:0,0:0:0:0:
261,155,127556,2,0,B|296:159|363:208,1,75.0000028610231,0|0,0:0|0:0,0:0:0:0:
482,139,127706,2,0,P|413:179|393:208,1,75.0000028610231,0|0,0:0|0:0,0:0:0:0:
252,253,127856,2,0,P|163:290|81:259,2,150.000005722046,0|0|0,0:0|0:0|0:0,0:0:0:0:
313,110,128306,2,0,P|396:81|455:114,1,150.000005722046,0|0,0:0|0:0,0:0:0:0:
462,292,128606,2,0,P|390:311|299:267,1,150.000005722046,0|0,0:0|0:0,0:0:0:0:
62,135,128906,2,0,P|281:282|118:92,1,750.000028610231,0|0,0:0|0:0,0:0:0:0:
484,241,129806,6,0,P|436:183|431:165,1,75.0000028610231,0|0,0:0|0:0,0:0:0:0:
361,137,129956,2,0,P|343:170|346:207,1,75.0000028610231,0|0,0:0|0:0,0:0:0:0:
300,58,130106,2,0,P|386:71|395:85,1,75.0000028610231,0|0,0:0|0:0,0:0:0:0:
484,241,130256,2,0,P|330:300|437:175,1,450.000017166138,0|0,0:0|0:0,0:0:0:0:
458,91,130856,2,0,L|372:109,1,75.0000028610231,0|0,0:0|0:0,0:0:0:0:
198,153,131006,2,0,L|288:127,1,75.0000028610231,0|0,0:0|0:0,0:0:0:0:
384,27,131156,2,0,L|295:45,1,75.0000028610231,0|0,0:0|0:0,0:0:0:0:
115,85,131306,2,0,P|80:260|256:58,1,750.000028610231,0|0,0:0|0:0,0:0:0:0:
402,71,132206,54,0,L|363:167,1,75.0000028610231,0|0,0:0|0:0,0:0:0:0:
299,239,132356,2,0,L|262:151,1,75.0000028610231,0|0,0:0|0:0,0:0:0:0:
178,51,132506,2,0,L|143:131,1,75.0000028610231,0|0,0:0|0:0,0:0:0:0:
158,290,132656,2,0,L|225:148,1,150.000005722046,0|0,0:0|0:0,0:0:0:0:
395,149,132956,1,0,0:0:0:0:
288,269,133106,2,0,L|267:87,1,150.000005722046,0|0,0:0|0:0,0:0:0:0:
97,106,133406,2,0,L|154:244,1,150.000005722046,0|0,0:0|0:0,0:0:0:0:
340,55,133706,2,0,P|139:233|394:148,1,750.000028610231,0|0,0:0|0:0,0:0:0:0:
180,48,134606,6,0,L|167:137,1,75.0000028610231,0|0,0:0|0:0,0:0:0:0:
166,286,134756,2,0,L|200:200,1,75.0000028610231,0|0,0:0|0:0,0:0:0:0:
250,53,134906,2,0,L|273:147,1,75.0000028610231,0|0,0:0|0:0,0:0:0:0:
334,291,135056,2,0,P|437:207|220:75,1,450.000017166138,0|0,0:0|0:0,0:0:0:0:
38,179,135656,2,0,L|142:182,1,75.0000028610231,0|0,0:0|0:0,0:0:0:0:
344,206,135806,2,0,L|244:223,1,75.0000028610231,0|0,0:0|0:0,0:0:0:0:
80,304,135956,2,0,L|195:288,1,75.0000028610231,0|0,0:0|0:0,0:0:0:0:
335,64,136106,2,0,P|218:51|416:215,1,750.000028610231,0|0,0:0|0:0,0:0:0:0:
128,111,137006,54,0,P|208:79|244:88,1,75.0000028610231,0|0,0:0|0:0,0:0:0:0:
325,169,137156,2,0,P|254:202|225:200,1,75.0000028610231,0|0,0:0|0:0,0:0:0:0:
187,58,137306,2,0,P|264:69|285:88,1,75.0000028610231,0|0,0:0|0:0,0:0:0:0:
395,141,137456,5,0,0:0:0:0:
366,279,137606,1,0,0:0:0:0:
366,279,137681,1,0,0:0:0:0:
366,279,137756,1,0,0:0:0:0:
277,251,137906,1,0,0:0:0:0:
277,251,137981,1,0,0:0:0:0:
277,251,138056,1,0,0:0:0:0:
191,284,138206,1,0,0:0:0:0:
191,284,138281,1,0,0:0:0:0:
191,284,138356,1,0,0:0:0:0:
87,151,138506,53,0,0:0:0:0:
87,151,138581,1,0,0:0:0:0:
87,151,138656,1,0,0:0:0:0:
214,65,138806,1,0,0:0:0:0:
214,65,138881,1,0,0:0:0:0:
214,65,138956,1,0,0:0:0:0:
341,159,139106,1,0,0:0:0:0:
341,159,139181,1,0,0:0:0:0:
341,159,139256,1,0,0:0:0:0:
258,291,139406,2,0,B|190:232|216:144|216:144|103:94,1,250,0|0,0:0|0:0,0:0:0:0:
112,112,139856,53,0,0:0:0:0:
112,112,139956,2,0,L|128:208,1,66.6666666666667,0|0,0:0|0:0,0:0:0:0:
256,112,140156,1,0,0:0:0:0:
256,112,140256,2,0,L|240:208,1,66.6666666666667,0|0,0:0|0:0,0:0:0:0:
384,160,140456,1,0,0:0:0:0:
384,160,140556,2,0,L|336:224,1,66.6666666666667,0|0,0:0|0:0,0:0:0:0:
416,288,140756,53,0,0:0:0:0:
365,305,140856,1,0,0:0:0:0:
311,304,140956,1,0,0:0:0:0:
262,282,141056,1,0,0:0:0:0:
227,241,141156,1,0,0:0:0:0:
218,188,141256,1,0,0:0:0:0:
235,137,141356,1,0,0:0:0:0:
268,95,141456,1,0,0:0:0:0:
319,81,141556,1,0,0:0:0:0:
371,87,141656,1,0,0:0:0:0:
420,106,141756,6,0,L|500:150,4,66.6666666666667,0|0|0|0|0,0:0|0:0|0:0|0:0|0:0,0:0:0:0:
417,242,142256,54,0,L|352:256,5,66.6666666666667,0|0|0|0|0|0,0:0|0:0|0:0|0:0|0:0|0:0,0:0:0:0:
304,160,142856,5,0,0:0:0:0:
257,122,142956,1,0,0:0:0:0:
200,101,143056,1,0,0:0:0:0:
140,109,143156,1,0,0:0:0:0:
88,139,143256,1,0,0:0:0:0:
63,193,143356,1,0,0:0:0:0:
61,252,143456,1,0,0:0:0:0:
89,305,143556,1,0,0:0:0:0:
141,333,143656,1,0,0:0:0:0:
178,294,143756,37,0,0:0:0:0:
221,234,143856,1,0,0:0:0:0:
287,203,143956,1,0,0:0:0:0:
359,191,144056,1,0,0:0:0:0:
430,208,144156,1,0,0:0:0:0:
470,146,144256,1,0,0:0:0:0:
432,83,144356,1,0,0:0:0:0:
365,115,144456,1,0,0:0:0:0:
359,191,144556,1,0,0:0:0:0:
430,208,144656,2,0,L|474:139,1,66.6666666666667,0|0,0:0|0:0,0:0:0:0:
327,153,144856,5,0,0:0:0:0:
306,187,144956,1,0,0:0:0:0:
274,215,145056,1,0,0:0:0:0:
244,234,145156,1,0,0:0:0:0:
208,240,145256,1,0,0:0:0:0:
173,237,145356,1,0,0:0:0:0:
141,221,145456,1,0,0:0:0:0:
110,192,145556,1,0,0:0:0:0:
94,156,145656,1,0,0:0:0:0:
95,116,145756,1,0,0:0:0:0:
120,79,145856,2,0,L|177:37,1,50.0000019073487,0|0,0:0|0:0,0:0:0:0:
208,144,146056,5,0,0:0:0:0:
240,144,146156,1,0,0:0:0:0:
272,160,146256,1,0,0:0:0:0:
292,179,146356,1,0,0:0:0:0:
304,208,146456,1,0,0:0:0:0:
304,240,146556,1,0,0:0:0:0:
288,272,146656,1,0,0:0:0:0:
256,288,146756,1,0,0:0:0:0:
224,288,146856,1,0,0:0:0:0:
192,272,146956,1,0,0:0:0:0:
167,240,147056,2,0,L|144:208,1,33.3333333333333,0|0,0:0|0:0,0:0:0:0:
300,202,147256,5,0,0:0:0:0:
300,202,147356,1,0,0:0:0:0:
300,202,147456,1,0,0:0:0:0:
300,202,147556,1,0,0:0:0:0:
300,202,147656,1,0,0:0:0:0:
300,202,147756,1,0,0:0:0:0:
300,202,147856,1,0,0:0:0:0:
300,202,147956,1,0,0:0:0:0:
300,202,148056,1,0,0:0:0:0:
300,219,148156,5,0,0:0:0:0:
300,235,148256,1,0,0:0:0:0:
316,251,148356,1,0,0:0:0:0:
348,267,148456,1,0,0:0:0:0:
396,267,148556,1,0,0:0:0:0:
444,235,148656,1,0,0:0:0:0:
477,185,148756,1,0,0:0:0:0:
477,127,148856,2,0,L|477:54,1,50.0000019073487,0|0,0:0|0:0,0:0:0:0:
473,47,149056,6,0,L|473:143,1,66.6666666666667,0|0,0:0|0:0,0:0:0:0:
460,140,149256,2,0,L|460:44,1,83.3333333333333,0|0,0:0|0:0,0:0:0:0:
438,34,149456,2,0,L|438:178,1,100.000003814697,0|0,0:0|0:0,0:0:0:0:
256,192,150056,53,0,0:0:0:0:
256,192,150656,1,0,0:0:0:0:
256,192,151256,1,0,0:0:0:0:
126,88,151556,1,0,0:0:0:0:
126,88,151631,1,0,0:0:0:0:
126,88,151706,1,0,0:0:0:0:
126,88,151781,1,0,0:0:0:0:
126,88,151856,53,0,0:0:0:0:
256,192,152456,1,0,0:0:0:0:
256,192,153056,1,0,0:0:0:0:
256,192,153656,1,0,0:0:0:0:
400,96,153956,1,0,0:0:0:0:
400,96,154031,1,0,0:0:0:0:
400,96,154106,1,0,0:0:0:0:
400,96,154181,1,0,0:0:0:0:
400,96,154256,5,0,0:0:0:0:
256,192,154856,1,0,0:0:0:0:
256,192,155456,1,0,0:0:0:0:
256,192,156056,1,0,0:0:0:0:
128,304,156356,53,0,0:0:0:0:
128,304,156431,1,0,0:0:0:0:
128,304,156506,1,0,0:0:0:0:
128,304,156581,1,0,0:0:0:0:
128,304,156656,5,0,0:0:0:0:
256,192,157256,1,0,0:0:0:0:
256,192,157856,1,0,0:0:0:0:
256,200,158456,2,0,P|368:184|384:104,1,200,0|0,0:0|0:0,0:0:0:0:
280,80,159356,53,0,0:0:0:0:
280,80,159431,1,0,0:0:0:0:
280,80,159506,1,0,0:0:0:0:
280,80,159581,1,0,0:0:0:0:
280,80,159656,1,0,0:0:0:0:
174,186,159956,5,0,0:0:0:0:
243,214,160106,1,0,0:0:0:0:
316,199,160256,1,0,0:0:0:0:
374,151,160406,1,0,0:0:0:0:
405,56,160556,1,0,0:0:0:0:
405,56,160631,1,0,0:0:0:0:
405,56,160706,1,0,0:0:0:0:
405,56,160781,1,0,0:0:0:0:
405,56,160856,37,0,0:0:0:0:
374,151,161156,1,0,0:0:0:0:
284,271,161456,5,0,0:0:0:0:
209,274,161606,1,0,0:0:0:0:
118,315,161756,1,0,0:0:0:0:
118,315,161831,1,0,0:0:0:0:
118,315,161906,1,0,0:0:0:0:
118,315,161981,1,0,0:0:0:0:
118,315,162056,1,0,0:0:0:0:
125,209,162356,5,0,0:0:0:0:
130,134,162506,1,0,0:0:0:0:
181,79,162656,1,0,0:0:0:0:
252,55,162806,1,0,0:0:0:0:
349,75,162956,1,0,0:0:0:0:
349,75,163031,1,0,0:0:0:0:
349,75,163106,1,0,0:0:0:0:
349,75,163181,1,0,0:0:0:0:
349,75,163256,37,0,0:0:0:0:
252,55,163556,1,0,0:0:0:0:
386,122,163856,5,0,0:0:0:0:
401,195,164006,1,0,0:0:0:0:
371,290,164156,1,0,0:0:0:0:
371,290,164231,1,0,0:0:0:0:
371,290,164306,1,0,0:0:0:0:
371,290,164381,1,0,0:0:0:0:
371,290,164456,1,0,0:0:0:0:
201,275,164756,5,0,0:0:0:0:
241,212,164906,1,0,0:0:0:0:
248,137,165056,1,0,0:0:0:0:
210,71,165206,1,0,0:0:0:0:
116,34,165356,1,0,0:0:0:0:
116,34,165431,1,0,0:0:0:0:
116,34,165506,1,0,0:0:0:0:
116,34,165581,1,0,0:0:0:0:
116,34,165656,37,0,0:0:0:0:
210,71,165956,1,0,0:0:0:0:
340,145,166256,5,0,0:0:0:0:
282,193,166406,1,0,0:0:0:0:
200,250,166556,1,0,0:0:0:0:
200,250,166631,1,0,0:0:0:0:
200,250,166706,1,0,0:0:0:0:
200,250,166781,1,0,0:0:0:0:
200,250,166856,1,0,0:0:0:0:
271,205,167156,5,0,0:0:0:0:
339,173,167306,1,0,0:0:0:0:
381,111,167456,1,0,0:0:0:0:
306,105,167606,1,0,0:0:0:0:
421,178,167756,1,0,0:0:0:0:
269,203,167906,1,0,0:0:0:0:
461,111,168056,1,0,0:0:0:0:
226,132,168206,1,0,0:0:0:0:
461,111,168356,1,0,0:0:0:0:
365,268,168506,53,0,0:0:0:0:
306,221,168656,1,0,0:0:0:0:
285,148,168806,1,0,0:0:0:0:
316,53,168956,1,0,0:0:0:0:
316,53,169031,1,0,0:0:0:0:
316,53,169106,1,0,0:0:0:0:
316,53,169181,1,0,0:0:0:0:
316,53,169256,1,0,0:0:0:0:
393,231,169556,5,0,0:0:0:0:
322,255,169706,1,0,0:0:0:0:
247,263,169856,1,0,0:0:0:0:
177,233,170006,1,0,0:0:0:0:
121,149,170156,1,0,0:0:0:0:
121,149,170231,1,0,0:0:0:0:
121,149,170306,1,0,0:0:0:0:
121,149,170381,1,0,0:0:0:0:
121,149,170456,37,0,0:0:0:0:
177,233,170756,1,0,0:0:0:0:
311,166,171056,5,0,0:0:0:0:
385,156,171206,1,0,0:0:0:0:
478,221,171356,1,0,0:0:0:0:
478,221,171431,1,0,0:0:0:0:
478,221,171506,1,0,0:0:0:0:
478,221,171581,1,0,0:0:0:0:
478,221,171656,1,0,0:0:0:0:
344,289,171956,5,0,0:0:0:0:
272,265,172106,1,0,0:0:0:0:
199,244,172256,1,0,0:0:0:0:
124,244,172406,1,0,0:0:0:0:
45,305,172556,1,0,0:0:0:0:
45,305,172631,1,0,0:0:0:0:
45,305,172706,1,0,0:0:0:0:
45,305,172781,1,0,0:0:0:0:
45,305,172856,37,0,0:0:0:0:
124,244,173156,1,0,0:0:0:0:
254,170,173456,5,0,0:0:0:0:
284,101,173606,1,0,0:0:0:0:
379,71,173756,1,0,0:0:0:0:
379,71,173831,1,0,0:0:0:0:
379,71,173906,1,0,0:0:0:0:
379,71,173981,1,0,0:0:0:0:
379,71,174056,1,0,0:0:0:0:
161,225,174356,5,0,0:0:0:0:
234,237,174506,1,0,0:0:0:0:
301,204,174656,1,0,0:0:0:0:
340,140,174806,1,0,0:0:0:0:
312,43,174956,1,0,0:0:0:0:
312,43,175031,1,0,0:0:0:0:
312,43,175106,1,0,0:0:0:0:
312,43,175181,1,0,0:0:0:0:
312,43,175256,37,0,0:0:0:0:
198,73,175556,1,0,0:0:0:0:
320,208,175856,5,0,0:0:0:0:
345,184,175931,1,0,0:0:0:0:
355,150,176006,1,0,0:0:0:0:
347,115,176081,1,0,0:0:0:0:
327,87,176156,1,0,0:0:0:0:
298,66,176231,1,0,0:0:0:0:
256,64,176306,2,0,L|176:96,1,50,0|0,0:0|0:0,0:0:0:0:
115,193,176456,1,0,0:0:0:0:
115,193,176531,1,0,0:0:0:0:
115,193,176606,2,0,L|195:161,1,50,0|0,0:0|0:0,0:0:0:0:
300,138,176756,5,0,0:0:0:0:
339,141,176831,1,0,0:0:0:0:
374,158,176906,1,0,0:0:0:0:
400,188,176981,1,0,0:0:0:0:
415,224,177056,1,0,0:0:0:0:
416,263,177131,1,0,0:0:0:0:
399,299,177206,1,0,0:0:0:0:
371,328,177281,1,0,0:0:0:0:
335,347,177356,1,0,0:0:0:0:
295,351,177431,53,0,0:0:0:0:
286,312,177506,1,0,0:0:0:0:
260,280,177581,1,0,0:0:0:0:
228,255,177656,1,0,0:0:0:0:
193,234,177731,1,0,0:0:0:0:
155,219,177806,1,0,0:0:0:0:
115,219,177881,1,0,0:0:0:0:
88,219,177956,2,0,B|46:223|20:209,1,50,0|0,0:0|0:0,0:0:0:0:
240,136,178256,54,0,L|352:136,1,75.0000028610231,0|0,0:0|0:0,0:0:0:0:
464,136,178406,2,0,L|344:136,1,75.0000028610231,0|0,0:0|0:0,0:0:0:0:
248,144,178556,53,0,0:0:0:0:
248,144,178631,1,0,0:0:0:0:
248,144,178706,2,0,L|344:152,1,75.0000028610231,0|0,0:0|0:0,0:0:0:0:
464,136,178856,2,0,L|368:128,1,75.0000028610231,0|0,0:0|0:0,0:0:0:0:
256,152,179006,5,0,0:0:0:0:
256,152,179081,1,0,0:0:0:0:
256,152,179156,2,0,L|352:168,1,75.0000028610231,0|0,0:0|0:0,0:0:0:0:
464,136,179306,2,0,L|360:120,1,75.0000028610231,0|0,0:0|0:0,0:0:0:0:
264,160,179456,53,0,0:0:0:0:
264,160,179531,1,0,0:0:0:0:
264,160,179606,54,0,L|352:184,1,75.0000028610231,0|0,0:0|0:0,0:0:0:0:
464,136,179756,2,0,L|360:112,1,75.0000028610231,0|0,0:0|0:0,0:0:0:0:
248,88,179906,2,0,P|192:144|192:176,1,75.0000028610231,0|0,0:0|0:0,0:0:0:0:
264,160,180056,2,0,P|320:104|320:72,1,75.0000028610231,0|0,0:0|0:0,0:0:0:0:
216,88,180206,2,0,P|192:144|192:168,1,75.0000028610231,0|0,0:0|0:0,0:0:0:0:
280,176,180356,2,0,P|304:120|304:96,1,75.0000028610231,0|0,0:0|0:0,0:0:0:0:
128,96,180506,5,0,0:0:0:0:
120,104,180581,1,0,0:0:0:0:
112,112,180656,2,0,P|112:176|120:208,1,75.0000028610231,0|0,0:0|0:0,0:0:0:0:
224,280,180806,2,0,P|192:256|160:240,1,75.0000028610231,0|0,0:0|0:0,0:0:0:0:
179,78,180956,5,0,0:0:0:0:
169,83,181031,1,0,0:0:0:0:
159,89,181106,2,0,P|142:150|141:183,1,75.0000028610231,0|0,0:0|0:0,0:0:0:0:
224,280,181256,2,0,P|199:248|172:224,1,75.0000028610231,0|0,0:0|0:0,0:0:0:0:
128,96,181406,53,0,0:0:0:0:
120,104,181481,1,0,0:0:0:0:
112,112,181556,2,0,P|112:176|120:208,1,75.0000028610231,0|0,0:0|0:0,0:0:0:0:
224,280,181706,2,0,P|192:256|160:240,1,75.0000028610231,0|0,0:0|0:0,0:0:0:0:
233,73,181856,5,0,0:0:0:0:
222,75,181931,1,0,0:0:0:0:
211,78,182006,38,0,P|179:133|169:165,1,75.0000028610231,0|0,0:0|0:0,0:0:0:0:
224,272,182156,2,0,P|240:235|248:184,1,75.0000028610231,0|0,0:0|0:0,0:0:0:0:
104,176,182306,2,0,P|176:216|200:216,1,75.0000028610231,0|0,0:0|0:0,0:0:0:0:
344,160,182456,2,0,L|264:88,1,75.0000028610231,0|0,0:0|0:0,0:0:0:0:
152,72,182606,2,0,L|232:56,1,75.0000028610231,0|0,0:0|0:0,0:0:0:0:
344,160,182756,2,0,L|256:72,1,75.0000028610231,0|0,0:0|0:0,0:0:0:0:
152,72,182906,2,0,L|240:72,1,75.0000028610231,0|0,0:0|0:0,0:0:0:0:
352,64,183056,5,0,0:0:0:0:
368,80,183131,1,0,0:0:0:0:
384,96,183206,2,0,L|448:160,1,75.0000028610231,0|0,0:0|0:0,0:0:0:0:
416,240,183356,5,0,0:0:0:0:
400,224,183431,1,0,0:0:0:0:
384,208,183506,2,0,L|320:144,1,75.0000028610231,0|0,0:0|0:0,0:0:0:0:
184,120,183656,53,0,0:0:0:0:
200,136,183731,1,0,0:0:0:0:
216,152,183806,2,0,L|280:216,1,75.0000028610231,0|0,0:0|0:0,0:0:0:0:
144,336,183956,5,0,0:0:0:0:
128,320,184031,1,0,0:0:0:0:
112,304,184106,2,0,L|48:240,1,75.0000028610231,0|0,0:0|0:0,0:0:0:0:
104,48,184256,53,0,0:0:0:0:
128,80,184331,1,0,0:0:0:0:
160,112,184406,1,0,0:0:0:0:
200,128,184481,1,0,0:0:0:0:
240,128,184556,1,0,0:0:0:0:
280,112,184631,1,0,0:0:0:0:
312,96,184706,6,0,P|336:72|400:56,1,75.0000028610231,0|0,0:0|0:0,0:0:0:0:
304,176,184856,54,0,P|312:200|304:272,1,75.0000028610231,0|0,0:0|0:0,0:0:0:0:
240,128,185006,6,0,P|184:128|160:112,1,75.0000028610231,0|0,0:0|0:0,0:0:0:0:
80,88,185156,54,0,P|136:88|160:104,1,75.0000028610231,0|0,0:0|0:0,0:0:0:0:
229,150,185306,6,0,P|174:135|155:113,1,75.0000028610231,0|0,0:0|0:0,0:0:0:0:
84,69,185456,54,0,P|138:83|157:105,1,75.0000028610231,0|0,0:0|0:0,0:0:0:0:
256,192,185606,12,0,187406,0:0:0:0:
192,240,187706,5,0,0:0:0:0:
192,240,187781,1,0,0:0:0:0:
192,240,187856,2,0,L|192:144,1,75.0000028610231,0|0,0:0|0:0,0:0:0:0:
264,72,188006,2,0,L|328:152,1,75.0000028610231,0|0,0:0|0:0,0:0:0:0:
328,240,188156,53,0,0:0:0:0:
328,240,188231,1,0,0:0:0:0:
328,240,188306,2,0,L|328:322,1,75.0000028610231,0|0,0:0|0:0,0:0:0:0:
152,288,188456,2,0,L|208:224,1,75.0000028610231,0|0,0:0|0:0,0:0:0:0:
309,160,188606,5,0,0:0:0:0:
309,160,188681,1,0,0:0:0:0:
309,160,188756,2,0,L|389:160,1,75.0000028610231,0|0,0:0|0:0,0:0:0:0:
360,312,188906,2,0,L|280:264,1,75.0000028610231,0|0,0:0|0:0,0:0:0:0:
184,216,189056,37,0,0:0:0:0:
184,216,189131,1,0,0:0:0:0:
184,216,189206,2,0,L|184:128,1,75.0000028610231,0|0,0:0|0:0,0:0:0:0:
304,80,189356,2,0,L|376:176,1,75.0000028610231,0|0,0:0|0:0,0:0:0:0:
384,272,189506,2,0,L|384:168,1,75.0000028610231,0|0,0:0|0:0,0:0:0:0:
264,176,189656,2,0,L|335:169,1,75.0000028610231,0|0,0:0|0:0,0:0:0:0:
472,176,189806,2,0,L|368:176,1,75.0000028610231,0|0,0:0|0:0,0:0:0:0:
264,176,189956,2,0,L|360:176,1,75.0000028610231,0|0,0:0|0:0,0:0:0:0:
392,80,190106,5,0,0:0:0:0:
392,80,190181,1,0,0:0:0:0:
392,80,190256,2,0,P|408:120|400:160,1,75.0000028610231,0|0,0:0|0:0,0:0:0:0:
360,216,190406,2,0,P|328:176|344:112,1,75.0000028610231,0|0,0:0|0:0,0:0:0:0:
310,76,190556,5,0,0:0:0:0:
310,76,190631,1,0,0:0:0:0:
310,76,190706,2,0,P|270:36|230:28,1,75.0000028610231,0|0,0:0|0:0,0:0:0:0:
238,188,190856,2,0,P|225:153|238:118,1,75.0000028610231,0|0,0:0|0:0,0:0:0:0:
171,39,191006,53,0,0:0:0:0:
171,39,191081,1,0,0:0:0:0:
171,39,191156,2,0,P|124:59|104:94,1,75.0000028610231,0|0,0:0|0:0,0:0:0:0:
87,153,191306,2,0,P|153:142|182:97,1,75.0000028610231,0|0,0:0|0:0,0:0:0:0:
252,97,191456,1,0,0:0:0:0:
252,97,191531,1,0,0:0:0:0:
252,97,191606,2,0,P|300:97|340:129,1,75.0000028610231,0|0,0:0|0:0,0:0:0:0:
214,241,191756,2,0,P|246:217|270:161,1,75.0000028610231,0|0,0:0|0:0,0:0:0:0:
181,51,191906,2,0,P|167:110|190:154,1,75.0000028610231,0|0,0:0|0:0,0:0:0:0:
299,258,192056,54,0,L|267:162,1,75.0000028610231,0|0,0:0|0:0,0:0:0:0:
241,119,192206,2,0,L|289:215,1,75.0000028610231,0|0,0:0|0:0,0:0:0:0:
324,242,192356,2,0,L|260:170,1,75.0000028610231,0|0,0:0|0:0,0:0:0:0:
212,144,192506,2,0,L|308:208,1,75.0000028610231,0|0,0:0|0:0,0:0:0:0:
424,144,192656,5,0,0:0:0:0:
416,128,192731,1,0,0:0:0:0:
408,112,192806,2,0,L|336:56,1,75.0000028610231,0|0,0:0|0:0,0:0:0:0:
224,40,192956,5,0,0:0:0:0:
208,48,193031,1,0,0:0:0:0:
192,56,193106,2,0,L|120:112,1,75.0000028610231,0|0,0:0|0:0,0:0:0:0:
208,248,193256,53,0,0:0:0:0:
240,264,193331,1,0,0:0:0:0:
272,272,193406,2,0,L|368:224,1,75.0000028610231,0|0,0:0|0:0,0:0:0:0:
112,48,193556,5,0,0:0:0:0:
104,88,193631,1,0,0:0:0:0:
96,128,193706,2,0,L|144:216,1,75.0000028610231,0|0,0:0|0:0,0:0:0:0:
368,80,193856,53,0,0:0:0:0:
384,112,193931,1,0,0:0:0:0:
384,144,194006,1,0,0:0:0:0:
368,160,194081,1,0,0:0:0:0:
336,176,194156,1,0,0:0:0:0:
304,176,194231,1,0,0:0:0:0:
272,160,194306,54,0,P|240:112|240:80,1,75.0000028610231,0|0,0:0|0:0,0:0:0:0:
408,112,194456,2,0,P|408:200|376:224,1,75.0000028610231,0|0,0:0|0:0,0:0:0:0:
256,272,194606,2,0,P|160:272|136:256,1,75.0000028610231,0|0,0:0|0:0,0:0:0:0:
44,138,194756,1,0,0:0:0:0:
66,98,194831,1,0,0:0:0:0:
100,71,194906,1,0,0:0:0:0:
142,56,194981,1,0,0:0:0:0:
179,54,195056,6,0,B|256:53|319:53|319:53|296:110|219:148|246:220|363:259|397:159|397:159|386:142|386:142|397:147|397:147|387:139|387:139|404:142|404:142|402:120|402:120|410:129|410:130|419:114|419:114|422:128|422:129|439:114|439:114|440:130|439:130|458:119|459:119|458:128|458:128|464:126|470:127|463:134|463:135|475:138|467:140|468:142|480:145|472:146|467:148|472:150|471:151|471:151|476:153|476:153|465:153|465:153|474:157|476:158|466:157|466:157|477:162|476:163|467:163|473:166|477:168|469:172|465:172|472:176|473:177|462:179|463:180|462:301|305:289,1,875,0|0,0:0|0:0,0:0:0:0:
284,295,196256,2,0,P|237:299|214:293,1,62.5,0|0,0:0|0:0,0:0:0:0:
101,237,196406,2,0,P|130:193|173:161,1,62.5,0|0,0:0|0:0,0:0:0:0:
287,81,196556,53,0,0:0:0:0:
337,66,196631,1,0,0:0:0:0:
388,73,196706,1,0,0:0:0:0:
432,100,196781,1,0,0:0:0:0:
458,145,196856,1,0,0:0:0:0:
464,197,196931,1,0,0:0:0:0:
450,247,197006,1,0,0:0:0:0:
411,283,197081,1,0,0:0:0:0:
375,289,197156,1,0,0:0:0:0:
343,268,197231,1,0,0:0:0:0:
306,275,197306,1,0,0:0:0:0:
282,304,197381,1,0,0:0:0:0:
280,341,197456,38,0,P|192:328|184:248,1,150,0|0,0:0|0:0,0:0:0:0:
256,186,198056,1,0,0:0:0:0:
256,186,198656,5,0,0:0:0:0:
256,186,199256,1,0,0:0:0:0:
109,63,199556,1,0,0:0:0:0:
63,85,199631,1,0,0:0:0:0:
66,127,199706,1,0,0:0:0:0:
46,140,199781,1,0,0:0:0:0:
51,146,199856,1,0,0:0:0:0:
