osu file format v14

[General]
AudioFilename: Neko Nation Anthem (S3RL remix) - Noc.V [FREE TRACK].mp3
AudioLeadIn: 0
PreviewTime: 29570
Countdown: 0
SampleSet: Normal
StackLeniency: 0.7
Mode: 0
LetterboxInBreaks: 1
EpilepsyWarning: 1
WidescreenStoryboard: 1

[Editor]
Bookmarks: 118713
DistanceSpacing: 1
BeatDivisor: 2
GridSize: 4
TimelineZoom: 1

[Metadata]
Title:Neko Nation Anthem =^-^= (S3RL remix)
TitleUnicode:Neko Nation Anthem =^-^= (S3RL remix)
Artist:Noc.V
ArtistUnicode:Noc.V
Creator:Ascend
Version:Easy
Source:
Tags:Neko Nation S3rl Anime cute
BeatmapID:3031755
BeatmapSetID:514031

[Difficulty]
HPDrainRate:0.5
CircleSize:2
OverallDifficulty:1
ApproachRate:2
SliderMultiplier:0.500000005960464
SliderTickRate:1

[Events]
//Background and Video events
0,0,"wallpaperflare.com_wallpaper.jpg",0,0
//Break Periods
//Storyboard Layer 0 (Background)
//Storyboard Layer 1 (Fail)
//Storyboard Layer 2 (Pass)
//Storyboard Layer 3 (Foreground)
//Storyboard Layer 4 (Overlay)
//Storyboard Sound Samples

[TimingPoints]
4885,342.857142857143,4,1,0,60,1,0
29570,-71.4285714285714,4,1,0,60,0,1
40548,-86.9565217391304,4,1,0,60,0,1
51342,-80,4,1,0,60,0,0
73456,-111.111111111111,4,1,0,60,0,0
78598,-71.4285714285714,4,1,0,60,0,0
79456,-111.111111111111,4,1,0,60,0,0
94027,-133.333333333333,4,1,0,60,0,0
95398,-100,4,1,0,60,0,0
128313,-71.4285714285714,4,1,0,60,0,1
148884,-111.111111111111,4,1,0,60,0,1
150256,-71.4285714285714,4,1,0,60,0,1
171856,-52.6315789473684,4,1,0,30,0,0
177684,-133.333333333333,4,1,0,15,0,0
179399,-133.333333333333,4,1,0,10,0,0
181627,-133.333333333333,4,1,0,5,0,0

[HitObjects]
21,31,4884,6,0,P|19:66|23:92,1,50.0000005960464
105,152,5570,2,0,P|107:175|104:209,1,50.0000005960464
61,251,6085,2,0,P|56:273|66:325,1,75.0000008940696
199,345,6942,6,0,P|215:320|241:308,1,50.0000005960464
249,308,7456,1,0,0:0:0:0:
377,332,7970,6,0,P|394:304|394:279,1,50.0000005960464
433,197,8656,1,0,0:0:0:0:
387,94,8999,1,0,0:0:0:0:
281,41,9342,1,0,0:0:0:0:
267,172,9685,1,0,0:0:0:0:
166,174,10027,5,0,0:0:0:0:
166,174,10370,1,0,0:0:0:0:
70,79,10713,6,0,P|51:100|44:126,1,50.0000005960464
67,213,11399,2,0,P|61:249|65:275,1,50.0000005960464
142,341,12085,1,0,0:0:0:0:
243,239,12427,6,0,P|274:238|296:251,1,50.0000005960464
339,306,12942,2,0,P|369:290|372:264,1,50.0000005960464
363,222,13456,2,0,P|376:187|392:173,1,50.0000005960464
491,136,14142,5,0,0:0:0:0:
464,74,14485,1,0,0:0:0:0:
396,34,14827,1,0,0:0:0:0:
319,42,15170,2,0,P|301:68|266:83,1,50.0000005960464
205,69,15856,5,0,0:0:0:0:
133,109,16199,1,0,0:0:0:0:
95,184,16542,1,0,0:0:0:0:
78,262,16885,6,0,P|85:297|109:312,1,50.0000005960464
170,334,17570,1,0,0:0:0:0:
255,331,17913,1,0,0:0:0:0:
340,332,18256,2,0,P|362:297|360:278,1,50.0000005960464
342,214,18942,5,0,0:0:0:0:
406,156,19285,1,0,0:0:0:0:
443,82,19627,1,0,0:0:0:0:
364,32,19970,6,0,P|354:65|333:82,1,50.0000005960464
225,76,20656,2,0,P|204:90|186:115,1,50.0000005960464
107,196,21342,5,0,0:0:0:0:
107,196,21685,1,0,0:0:0:0:
34,297,22027,2,0,P|40:333|60:352,1,50.0000005960464
125,330,22542,2,0,P|167:328|187:339,1,50.0000005960464
226,358,23056,2,0,P|261:362|290:357,1,50.0000005960464
359,336,23742,5,0,0:0:0:0:
359,336,24085,1,0,0:0:0:0:
435,333,24427,2,0,P|467:309|477:284,1,50.0000005960464
438,257,24942,2,0,P|426:220|429:195,1,50.0000005960464
477,185,25456,2,0,P|486:159|476:129,1,50.0000005960464
399,122,26142,5,0,0:0:0:0:
314,123,26485,1,0,0:0:0:0:
232,104,26827,2,0,P|195:85|167:84,1,50.0000005960464
111,69,27513,1,0,0:0:0:0:
57,122,27856,1,0,0:0:0:0:
36,193,28199,6,0,P|49:226|66:240,1,50.0000005960464
131,283,28885,2,0,P|153:257|177:251,1,50.0000005960464
227,308,29570,5,0,0:0:0:0:
309,325,29913,1,0,0:0:0:0:
358,264,30256,1,0,0:0:0:0:
365,187,30599,6,0,P|349:127|356:92,1,69.9999986982345
443,41,31285,2,0,P|421:70|379:87,1,69.9999986982345
318,47,31970,1,0,0:0:0:0:
234,31,32313,6,0,P|191:49|172:82,1,69.9999986982345
140,135,32999,1,0,0:0:0:0:
105,209,33342,1,0,0:0:0:0:
147,284,33685,1,0,0:0:0:0:
209,226,34027,5,0,0:0:0:0:
243,303,34370,1,0,0:0:0:0:
324,322,34713,1,0,0:0:0:0:
317,242,35056,6,0,P|321:192|351:171,1,69.9999986982345
412,197,35742,1,0,0:0:0:0:
456,130,36085,1,0,0:0:0:0:
399,71,36427,1,0,0:0:0:0:
326,116,36770,6,0,P|286:71|257:64,1,69.9999986982345
206,86,37456,1,0,0:0:0:0:
129,54,37799,1,0,0:0:0:0:
64,100,38142,1,0,0:0:0:0:
100,158,38485,6,0,P|72:185|62:218,1,69.9999986982345
75,294,39170,2,0,P|114:313|148:315,1,69.9999986982345
196,352,39856,1,0,0:0:0:0:
273,344,40199,1,0,0:0:0:0:
351,331,40542,6,0,P|396:312|412:272,1,69.9999986982345
369,230,41227,2,0,P|349:181|350:161,1,57.5000017821789
399,58,41913,2,0,P|386:93|355:106,1,57.5000017821789
294,73,42599,5,0,0:0:0:0:
212,54,42942,1,0,0:0:0:0:
137,80,43285,1,0,0:0:0:0:
56,47,43627,6,0,P|41:79|42:111,1,57.5000017821789
57,172,44313,2,0,P|68:218|63:244,1,57.5000017821789
40,314,44999,1,0,0:0:0:0:
99,370,45342,1,0,0:0:0:0:
174,376,45685,1,0,0:0:0:0:
250,355,46027,1,0,0:0:0:0:
231,271,46370,6,0,P|265:258|301:261,1,57.5000017821789
344,301,47056,2,0,P|362:332|392:347,1,57.5000017821789
461,322,47742,1,0,0:0:0:0:
483,241,48085,1,0,0:0:0:0:
464,162,48427,1,0,0:0:0:0:
421,97,48770,1,0,0:0:0:0:
311,49,49113,6,0,P|352:45|394:56,2,57.5000017821789
306,138,50142,5,0,0:0:0:0:
243,187,50485,1,0,0:0:0:0:
165,162,50827,1,0,0:0:0:0:
148,87,51170,1,0,0:0:0:0:
53,66,51513,6,0,P|41:105|43:141,1,62.500000745058
106,183,52199,1,0,0:0:0:0:
61,250,52542,1,0,0:0:0:0:
84,335,52885,6,0,B|118:361|141:363|157:351,1,62.500000745058
190,302,53570,2,0,P|224:288|256:297,1,62.500000745058
292,360,54256,2,0,P|329:358|354:338,1,62.500000745058
429,353,54942,5,0,0:0:0:0:
485,290,55285,2,0,P|499:245|487:220,1,62.500000745058
428,203,55799,2,0,P|416:165|410:137,1,62.500000745058
470,91,56313,2,0,P|458:55|422:33,1,62.500000745058
363,34,56999,5,0,0:0:0:0:
290,73,57342,1,0,0:0:0:0:
203,48,57685,1,0,0:0:0:0:
125,90,58027,1,0,0:0:0:0:
45,48,58370,6,0,P|33:94|36:127,1,62.500000745058
81,174,59056,1,0,0:0:0:0:
36,246,59399,2,0,P|35:286|55:324,1,62.500000745058
114,335,60085,2,0,P|154:317|178:312,1,62.500000745058
231,348,60770,5,0,0:0:0:0:
317,369,61113,1,0,0:0:0:0:
397,352,61456,1,0,0:0:0:0:
334,289,61799,5,0,0:0:0:0:
341,209,62142,1,0,0:0:0:0:
418,176,62485,1,0,0:0:0:0:
464,248,62827,6,0,P|485:212|487:180,1,62.500000745058
472,117,63513,2,0,P|454:73|415:60,1,62.500000745058
366,83,64199,2,0,P|332:93|290:87,1,62.500000745058
256,37,64885,6,0,P|216:29|181:41,1,62.500000745058
120,73,65570,1,0,0:0:0:0:
53,121,65913,1,0,0:0:0:0:
42,197,66256,1,0,0:0:0:0:
41,287,66599,6,0,P|74:268|104:268,1,62.500000745058
135,334,67285,2,0,P|169:341|202:338,1,62.500000745058
216,254,67970,1,0,0:0:0:0:
279,308,68313,1,0,0:0:0:0:
347,346,68656,1,0,0:0:0:0:
371,276,68999,6,0,P|382:232|405:213,1,62.500000745058
466,250,69685,2,0,P|486:212|480:186,1,62.500000745058
415,144,70370,2,0,P|404:107|411:78,1,62.500000745058
422,27,71056,2,0,P|398:56|365:64,1,62.500000745058
301,37,71742,5,0,0:0:0:0:
226,62,72085,1,0,0:0:0:0:
146,45,72427,1,0,0:0:0:0:
71,63,72770,1,0,0:0:0:0:
31,131,73113,1,0,0:0:0:0:
127,169,73456,6,0,L|109:214,2,44.9999991631508
159,96,74485,1,0,0:0:0:0:
263,66,74827,1,0,0:0:0:0:
363,113,75170,2,0,P|377:156|376:170,2,44.9999991631508
419,35,76199,5,0,0:0:0:0:
480,112,76542,1,0,0:0:0:0:
455,214,76885,1,0,0:0:0:0:
395,295,77227,1,0,0:0:0:0:
217,300,77570,6,0,L|257:260,1,44.9999991631508
299,168,78256,5,0,0:0:0:0:
401,216,78599,1,0,0:0:0:0:
419,318,78942,2,0,L|470:371,2,69.9999986982345
409,266,79970,5,0,0:0:0:0:
449,195,80313,2,0,L|477:145,1,44.9999991631508
423,91,80999,2,0,L|369:55,1,44.9999991631508
320,55,81685,6,0,L|368:53,3,44.9999991631508
407,52,83056,1,0,0:0:0:0:
407,52,83399,1,0,0:0:0:0:
359,113,83742,6,0,L|309:150,1,44.9999991631508
256,95,84427,2,0,L|199:78,1,44.9999991631508
140,80,85113,1,0,0:0:0:0:
67,45,85456,1,0,0:0:0:0:
47,129,85799,6,0,L|39:187,2,44.9999991631508
65,83,86827,2,0,L|96:129,1,44.9999991631508
103,194,87513,2,0,L|91:247,1,44.9999991631508
96,314,88199,5,0,0:0:0:0:
177,338,88542,2,0,L|225:353,1,44.9999991631508
300,335,89227,2,0,L|348:316,1,44.9999991631508
416,326,89913,5,0,0:0:0:0:
465,286,90256,1,0,0:0:0:0:
479,226,90599,1,0,0:0:0:0:
415,217,90942,6,0,L|372:197,1,44.9999991631508
394,155,91627,2,0,L|421:116,1,44.9999991631508
394,58,92313,2,0,L|337:67,4,44.9999991631508
464,56,94027,6,0,P|461:88|404:161,1,112.500005632639
346,117,95399,5,0,0:0:0:0:
271,146,95742,1,0,0:0:0:0:
194,126,96085,1,0,0:0:0:0:
137,70,96427,6,0,P|107:68|81:74,1,50.0000005960464
40,128,97113,2,0,P|31:160|42:187,1,50.0000005960464
77,238,97799,1,0,0:0:0:0:
68,327,98142,1,0,0:0:0:0:
148,349,98485,6,0,P|181:358|216:353,1,50.0000005960464
234,309,99170,2,0,P|258:285|287:277,1,50.0000005960464
319,335,99856,2,0,P|349:337|375:332,1,50.0000005960464
372,263,100542,2,0,P|366:232|398:157,1,100.000001192093
478,152,101570,5,0,0:0:0:0:
477,70,101913,1,0,0:0:0:0:
410,32,102256,1,0,0:0:0:0:
336,46,102599,6,0,P|315:74|291:85,1,50.0000005960464
255,54,103285,2,0,P|227:58|196:66,1,50.0000005960464
187,112,103970,2,0,P|158:127|136:130,1,50.0000005960464
95,75,104656,5,0,0:0:0:0:
49,127,104999,1,0,0:0:0:0:
40,193,105342,1,0,0:0:0:0:
106,208,105685,6,0,P|91:240|86:264,1,50.0000005960464
129,298,106370,2,0,P|133:328|159:347,1,50.0000005960464
225,326,107056,1,0,0:0:0:0:
304,357,107399,1,0,0:0:0:0:
351,302,107742,6,0,P|382:266|400:259,1,50.0000005960464
456,297,108427,1,0,0:0:0:0:
506,243,108770,1,0,0:0:0:0:
480,167,109113,6,0,P|441:159|421:145,1,50.0000005960464
461,66,109799,2,0,P|442:38|411:32,1,50.0000005960464
366,61,110485,1,0,0:0:0:0:
306,102,110827,1,0,0:0:0:0:
242,53,111170,6,0,P|206:46|180:52,1,50.0000005960464
126,76,111856,1,0,0:0:0:0:
66,130,112199,1,0,0:0:0:0:
141,166,112542,6,0,P|119:193|106:217,1,50.0000005960464
147,265,113227,1,0,0:0:0:0:
92,319,113570,1,0,0:0:0:0:
37,259,113913,6,0,P|39:295|54:320,1,50.0000005960464
116,340,114599,2,0,P|143:329|174:329,1,50.0000005960464
246,353,115285,1,0,0:0:0:0:
295,282,115627,1,0,0:0:0:0:
377,271,115970,1,0,0:0:0:0:
429,340,116313,5,0,0:0:0:0:
490,288,116656,1,0,0:0:0:0:
486,205,116999,1,0,0:0:0:0:
416,157,117342,5,0,0:0:0:0:
384,87,117685,1,0,0:0:0:0:
310,49,118027,5,0,0:0:0:0:
236,86,118370,1,0,0:0:0:0:
159,40,118713,5,0,0:0:0:0:
88,88,119056,1,0,0:0:0:0:
61,167,119399,5,0,0:0:0:0:
63,248,119742,1,0,0:0:0:0:
138,242,120085,5,0,0:0:0:0:
133,324,120427,1,0,0:0:0:0:
205,350,120770,5,0,0:0:0:0:
282,358,121113,1,0,0:0:0:0:
289,286,121456,5,0,0:0:0:0:
365,290,121799,1,0,0:0:0:0:
408,354,122142,5,0,0:0:0:0:
481,318,122485,1,0,0:0:0:0:
433,255,122827,2,0,P|415:220|413:194,1,50.0000005960464
459,141,123513,2,0,P|454:111|425:87,1,50.0000005960464
371,67,124199,6,0,P|346:89|321:95,1,50.0000005960464
256,68,124885,2,0,P|225:62|195:64,1,50.0000005960464
140,67,125570,2,0,P|101:79|87:93,3,50.0000005960464
59,155,126942,5,0,0:0:0:0:
50,234,127285,1,0,0:0:0:0:
124,240,127627,5,0,0:0:0:0:
116,311,127970,1,0,0:0:0:0:
191,353,128313,6,0,P|231:363|280:355,1,69.9999986982345
266,286,128999,1,0,0:0:0:0:
331,328,129342,1,0,0:0:0:0:
406,331,129685,6,0,P|447:315|456:287,1,69.9999986982345
435,240,130370,2,0,P|426:202|435:167,1,69.9999986982345
494,131,131056,2,0,P|491:88|464:64,1,69.9999986982345
402,68,131742,5,0,0:0:0:0:
333,99,132085,1,0,0:0:0:0:
253,77,132427,2,0,P|207:77|159:84,1,69.9999986982345
121,49,133113,2,0,P|88:76|71:117,1,69.9999986982345
108,170,133799,2,0,P|111:222|98:247,1,69.9999986982345
29,270,134485,5,0,0:0:0:0:
48,352,134827,1,0,0:0:0:0:
128,352,135170,2,0,P|170:327|208:335,1,69.9999986982345
255,349,135856,5,0,0:0:0:0:
335,366,136199,1,0,0:0:0:0:
394,334,136542,2,0,P|422:308|422:273,1,69.9999986982345
357,242,137227,5,0,0:0:0:0:
422,183,137570,1,0,0:0:0:0:
366,132,137742,2,0,P|353:89|324:73,1,69.9999986982345
267,97,138256,1,0,0:0:0:0:
202,49,138599,1,0,0:0:0:0:
119,40,138942,1,0,0:0:0:0:
70,109,139285,6,0,P|45:167|49:193,1,69.9999986982345
96,229,139970,2,0,P|94:267|73:299,1,69.9999986982345
35,348,140656,2,0,P|73:323|100:321,1,69.9999986982345
153,362,141342,2,0,P|189:362|222:347,1,69.9999986982345
228,288,142027,6,0,P|265:261|290:260,1,69.9999986982345
332,312,142713,2,0,P|376:311|400:292,1,69.9999986982345
366,232,143399,2,0,P|370:190|391:160,1,69.9999986982345
445,174,144085,2,0,P|469:137|465:107,1,69.9999986982345
408,48,144770,6,0,P|365:38|322:45,1,69.9999986982345
307,96,145456,2,0,P|267:112|221:113,1,69.9999986982345
213,57,146142,2,0,P|170:61|138:81,1,69.9999986982345
66,89,146827,5,0,0:0:0:0:
66,89,147170,1,0,0:0:0:0:
36,166,147513,2,0,P|33:207|51:232,1,69.9999986982345
105,268,148199,1,0,0:0:0:0:
105,268,148542,1,0,0:0:0:0:
152,342,148885,6,0,P|186:356|214:358,1,44.9999991631508
218,307,149570,2,0,P|248:286|275:286,1,44.9999991631508
289,331,150256,2,0,P|329:330|357:310,1,69.9999986982345
350,241,150942,5,0,0:0:0:0:
418,220,151285,1,0,0:0:0:0:
432,148,151627,2,0,P|422:105|375:86,1,69.9999986982345
325,74,152313,5,0,0:0:0:0:
255,107,152656,1,0,0:0:0:0:
189,101,152999,1,0,0:0:0:0:
140,36,153342,6,0,P|112:70|104:98,1,69.9999986982345
119,162,154027,2,0,P|117:202|95:232,1,69.9999986982345
81,298,154713,1,0,0:0:0:0:
160,297,155056,2,0,P|197:280|301:303,1,139.999997396469
337,354,156085,6,0,P|382:343|405:322,1,69.9999986982345
383,256,156770,2,0,P|396:220|420:192,1,69.9999986982345
489,187,157456,2,0,P|493:145|479:108,1,69.9999986982345
436,58,158142,5,0,0:0:0:0:
359,30,158485,1,0,0:0:0:0:
281,52,158827,1,0,0:0:0:0:
196,42,159170,6,0,P|149:48|110:61,1,69.9999986982345
60,94,159856,2,0,P|44:138|47:183,1,69.9999986982345
80,221,160542,1,0,0:0:0:0:
54,292,160885,1,0,0:0:0:0:
118,343,161227,6,0,P|157:358|189:365,1,69.9999986982345
201,311,161913,2,0,P|233:291|264:284,1,69.9999986982345
306,334,162599,2,0,P|343:339|375:333,1,69.9999986982345
408,261,163285,5,0,0:0:0:0:
474,211,163627,1,0,0:0:0:0:
467,134,163970,1,0,0:0:0:0:
410,73,164313,6,0,P|371:57|324:54,1,69.9999986982345
268,52,164999,2,0,P|229:59|191:95,1,69.9999986982345
148,124,165685,2,0,P|103:169|92:194,1,69.9999986982345
80,250,166370,6,0,P|77:289|94:321,1,69.9999986982345
165,336,167056,1,0,0:0:0:0:
241,358,167399,1,0,0:0:0:0:
292,299,167742,6,0,P|336:289|365:288,1,69.9999986982345
407,337,168427,2,0,P|451:323|472:299,1,69.9999986982345
485,223,169113,1,0,0:0:0:0:
472,145,169456,1,0,0:0:0:0:
420,80,169799,5,0,0:0:0:0:
351,48,170142,1,0,0:0:0:0:
270,56,170485,1,0,0:0:0:0:
187,40,170827,6,0,P|142:47|109:64,1,69.9999986982345
57,100,171513,2,0,P|36:141|39:173,1,69.9999986982345
122,182,172199,5,0,0:0:0:0:
122,182,172542,1,0,0:0:0:0:
122,182,172885,1,0,0:0:0:0:
99,270,173227,6,0,P|116:320|152:340,1,94.9999985957145
238,318,173913,5,0,0:0:0:0:
238,318,174256,1,0,0:0:0:0:
238,318,174599,1,0,0:0:0:0:
327,350,174942,6,0,P|383:343|418:313,1,94.9999985957145
457,260,175627,5,0,0:0:0:0:
457,260,175970,2,0,P|485:198|471:164,1,94.9999985957145
425,122,176656,2,0,P|382:80|334:75,1,94.9999985957145
278,60,177342,2,0,P|214:72|193:110,1,94.9999985957145
129,129,178027,5,0,0:0:0:0:
129,129,178370,1,0,0:0:0:0:
129,129,178713,2,0,P|84:159|79:191,1,75.0000037550927
123,236,179742,5,0,0:0:0:0:
123,236,180085,1,0,0:0:0:0:
123,236,180427,2,0,P|124:268|166:294,1,75.0000037550927
172,300,181456,6,0,P|182:325|246:350,1,93.7500046938659
302,325,182999,1,0,0:0:0:0:
