osu file format v14

[General]
AudioFilename: 22,23,24- Players Left, Game Over, Death.mp3
AudioLeadIn: 0
PreviewTime: 0
Countdown: 0
SampleSet: None
StackLeniency: 0.7
Mode: 3
LetterboxInBreaks: 0
SpecialStyle: 0
WidescreenStoryboard: 1

[Editor]
DistanceSpacing: 1.8
BeatDivisor: 4
GridSize: 16
TimelineZoom: 1.990003

[Metadata]
Title:Kickmaster Soundtrack
TitleUnicode:Kickmaster Soundtrack
Artist:Nobuyuki Shioda & Yusuke Takahama
ArtistUnicode:Nobuyuki Shioda & Yusuke Takahama
Creator:Modren
Version:22,23,24 - Players Left, Game Over, Death
Source:WiiGuy's 8-Bit Stereo
Tags:Nes
BeatmapID:935362
BeatmapSetID:394957

[Difficulty]
HPDrainRate:8
CircleSize:9
OverallDifficulty:8
ApproachRate:5
SliderMultiplier:1.4
SliderTickRate:1

[Events]
//Background and Video events
0,0,"maxresdefault3.jpg",0,0
//Break Periods
//Storyboard Layer 0 (Background)
//Storyboard Layer 1 (Fail)
//Storyboard Layer 2 (Pass)
//Storyboard Layer 3 (Foreground)
//Storyboard Sound Samples

[TimingPoints]
130,400,4,2,0,5,1,0
530,400,4,2,0,5,1,0
4840,400,4,2,0,5,1,0
9020,400,4,2,0,5,1,0

[HitObjects]
142,192,130,5,0,0:0:0:0:
199,192,130,1,0,0:0:0:0:
312,192,230,1,0,0:0:0:0:
369,192,230,1,0,0:0:0:0:
142,192,330,1,0,0:0:0:0:
199,192,330,1,0,0:0:0:0:
312,192,430,1,0,0:0:0:0:
369,192,430,1,0,0:0:0:0:
483,192,530,1,0,0:0:0:0:
85,192,530,128,0,730:0:0:0:0:
426,192,730,128,0,830:0:0:0:0:
256,192,930,128,0,1030:0:0:0:0:
28,192,930,1,0,0:0:0:0:
142,192,930,1,0,0:0:0:0:
369,192,1030,1,0,0:0:0:0:
312,192,1230,128,0,1330:0:0:0:0:
256,192,1430,128,0,1530:0:0:0:0:
483,192,1430,1,0,0:0:0:0:
199,192,1630,128,0,1830:0:0:0:0:
483,192,1630,1,0,0:0:0:0:
142,192,1830,128,0,1930:0:0:0:0:
426,192,1830,1,0,0:0:0:0:
85,192,1930,128,0,2030:0:0:0:0:
28,192,2030,128,0,2130:0:0:0:0:
426,192,2030,1,0,0:0:0:0:
85,192,2130,128,0,2330:0:0:0:0:
312,192,2130,1,0,0:0:0:0:
426,192,2330,128,0,2430:0:0:0:0:
256,192,2530,128,0,2630:0:0:0:0:
28,192,2530,1,0,0:0:0:0:
142,192,2530,1,0,0:0:0:0:
369,192,2630,1,0,0:0:0:0:
142,192,2830,128,0,2930:0:0:0:0:
199,192,2930,1,0,0:0:0:0:
483,192,2930,1,0,0:0:0:0:
199,192,3030,1,0,0:0:0:0:
426,192,3030,1,0,0:0:0:0:
199,192,3130,1,0,0:0:0:0:
369,192,3130,1,0,0:0:0:0:
312,192,3230,1,0,0:0:0:0:
28,192,3230,1,0,0:0:0:0:
312,192,3330,1,0,0:0:0:0:
85,192,3330,1,0,0:0:0:0:
312,192,3430,1,0,0:0:0:0:
142,192,3430,1,0,0:0:0:0:
483,192,3530,1,0,0:0:0:0:
369,192,3580,1,0,0:0:0:0:
256,192,3630,1,0,0:0:0:0:
142,192,3680,1,0,0:0:0:0:
28,192,3730,1,0,0:0:0:0:
28,192,4840,128,0,4940:0:0:0:0:
312,192,4840,128,0,4940:0:0:0:0:
85,192,4940,128,0,5040:0:0:0:0:
369,192,4940,128,0,5040:0:0:0:0:
142,192,5040,128,0,5140:0:0:0:0:
426,192,5040,128,0,5140:0:0:0:0:
28,192,5140,128,0,5240:0:0:0:0:
312,192,5140,128,0,5240:0:0:0:0:
85,192,5240,128,0,5340:0:0:0:0:
369,192,5240,128,0,5340:0:0:0:0:
142,192,5340,128,0,5440:0:0:0:0:
426,192,5340,128,0,5440:0:0:0:0:
199,192,5440,128,0,5540:0:0:0:0:
483,192,5440,128,0,5540:0:0:0:0:
85,192,5540,128,0,5640:0:0:0:0:
312,192,5540,128,0,5640:0:0:0:0:
142,192,5640,128,0,5740:0:0:0:0:
369,192,5640,128,0,5740:0:0:0:0:
199,192,5740,128,0,5840:0:0:0:0:
426,192,5740,128,0,5840:0:0:0:0:
256,192,5840,128,0,5940:0:0:0:0:
483,192,5840,128,0,5940:0:0:0:0:
142,192,5940,128,0,6040:0:0:0:0:
312,192,5940,128,0,6040:0:0:0:0:
199,192,6040,128,0,6140:0:0:0:0:
369,192,6040,128,0,6140:0:0:0:0:
256,192,6140,128,0,6240:0:0:0:0:
426,192,6140,128,0,6240:0:0:0:0:
312,192,6240,128,0,6340:0:0:0:0:
483,192,6240,128,0,6340:0:0:0:0:
256,192,6340,128,0,6440:0:0:0:0:
199,192,6440,128,0,6540:0:0:0:0:
312,192,6440,128,0,6540:0:0:0:0:
28,192,6540,128,0,6640:0:0:0:0:
483,192,6540,128,0,6640:0:0:0:0:
199,192,6640,128,0,6740:0:0:0:0:
312,192,6640,128,0,6740:0:0:0:0:
28,192,6740,128,0,6840:0:0:0:0:
483,192,6740,128,0,6840:0:0:0:0:
199,192,6840,128,0,6940:0:0:0:0:
312,192,6840,128,0,6940:0:0:0:0:
28,192,6940,128,0,7040:0:0:0:0:
483,192,6940,128,0,7040:0:0:0:0:
199,192,7040,128,0,7140:0:0:0:0:
312,192,7040,128,0,7140:0:0:0:0:
28,192,7140,128,0,7240:0:0:0:0:
483,192,7140,128,0,7240:0:0:0:0:
142,192,7240,128,0,7340:0:0:0:0:
369,192,7240,128,0,7340:0:0:0:0:
199,192,7340,128,0,7440:0:0:0:0:
312,192,7340,128,0,7440:0:0:0:0:
256,192,7440,128,0,7540:0:0:0:0:
85,192,7540,128,0,7640:0:0:0:0:
426,192,7540,128,0,7640:0:0:0:0:
142,192,7640,128,0,7740:0:0:0:0:
369,192,7640,128,0,7740:0:0:0:0:
199,192,7740,128,0,7840:0:0:0:0:
312,192,7740,128,0,7840:0:0:0:0:
85,192,7840,128,0,8040:0:0:0:0:
256,192,7840,128,0,8040:0:0:0:0:
426,192,7840,128,0,8040:0:0:0:0:
85,192,9020,1,0,0:0:0:0:
199,192,9020,1,0,0:0:0:0:
312,192,9020,1,0,0:0:0:0:
426,192,9020,1,0,0:0:0:0:
85,192,9220,1,0,0:0:0:0:
199,192,9220,1,0,0:0:0:0:
312,192,9220,1,0,0:0:0:0:
426,192,9220,1,0,0:0:0:0:
85,192,9420,1,0,0:0:0:0:
199,192,9420,1,0,0:0:0:0:
312,192,9420,1,0,0:0:0:0:
426,192,9420,1,0,0:0:0:0:
142,192,9620,128,0,10620:0:0:0:0:
256,192,9620,128,0,10820:0:0:0:0:
369,192,9620,128,0,10620:0:0:0:0:
