osu file format v14

[General]
AudioFilename: 20. Final Boss - Part 2.mp3
AudioLeadIn: 0
PreviewTime: 0
Countdown: 0
SampleSet: Soft
StackLeniency: 0.7
Mode: 3
LetterboxInBreaks: 0
SpecialStyle: 0
WidescreenStoryboard: 1

[Editor]
DistanceSpacing: 1.8
BeatDivisor: 8
GridSize: 16
TimelineZoom: 2.700013

[Metadata]
Title:Kickmaster Soundtrack
TitleUnicode:Kickmaster Soundtrack
Artist:Nobuyuki Shioda & Yusuke Takahama
ArtistUnicode:Nobuyuki Shioda & Yusuke Takahama
Creator:Modren
Version:20. Final Boss - Part 2
Source:WiiGuy's 8-Bit Stereo
Tags:Nes
BeatmapID:926927
BeatmapSetID:394957

[Difficulty]
HPDrainRate:8
CircleSize:9
OverallDifficulty:8
ApproachRate:5
SliderMultiplier:1.4
SliderTickRate:1

[Events]
//Background and Video events
0,0,"maxresdefault3.jpg",0,0
//Break Periods
//Storyboard Layer 0 (Background)
//Storyboard Layer 1 (Fail)
//Storyboard Layer 2 (Pass)
//Storyboard Layer 3 (Foreground)
//Storyboard Sound Samples

[TimingPoints]
66,621.43966856551,4,2,0,5,1,0
66,-57.1428571428571,4,2,0,5,0,0
532,355.113636363636,7,2,0,5,1,0

[HitObjects]
85,192,66,128,0,143:0:0:0:0:
199,192,66,128,0,143:0:0:0:0:
312,192,66,128,0,143:0:0:0:0:
426,192,66,128,0,143:0:0:0:0:
85,192,221,128,0,376:0:0:0:0:
199,192,221,128,0,454:0:0:0:0:
312,192,221,128,0,454:0:0:0:0:
426,192,221,128,0,376:0:0:0:0:
28,192,532,1,0,0:0:0:0:
85,192,620,1,0,0:0:0:0:
142,192,709,1,0,0:0:0:0:
199,192,798,1,0,0:0:0:0:
256,192,887,1,0,0:0:0:0:
312,192,975,1,0,0:0:0:0:
369,192,1064,1,0,0:0:0:0:
426,192,1153,1,0,0:0:0:0:
369,192,1242,1,0,0:0:0:0:
312,192,1331,1,0,0:0:0:0:
256,192,1419,1,0,0:0:0:0:
199,192,1508,1,0,0:0:0:0:
142,192,1597,1,0,0:0:0:0:
85,192,1686,1,0,0:0:0:0:
28,192,1774,1,0,0:0:0:0:
142,192,1863,1,0,0:0:0:0:
199,192,1952,1,0,0:0:0:0:
256,192,2041,1,0,0:0:0:0:
312,192,2130,1,0,0:0:0:0:
369,192,2218,1,0,0:0:0:0:
426,192,2307,1,0,0:0:0:0:
483,192,2396,1,0,0:0:0:0:
426,192,2485,1,0,0:0:0:0:
369,192,2573,1,0,0:0:0:0:
312,192,2662,1,0,0:0:0:0:
256,192,2751,1,0,0:0:0:0:
199,192,2840,1,0,0:0:0:0:
142,192,2929,1,0,0:0:0:0:
85,192,3017,1,0,0:0:0:0:
142,192,3106,1,0,0:0:0:0:
199,192,3195,1,0,0:0:0:0:
256,192,3284,1,0,0:0:0:0:
312,192,3372,1,0,0:0:0:0:
369,192,3461,1,0,0:0:0:0:
426,192,3550,1,0,0:0:0:0:
483,192,3639,1,0,0:0:0:0:
426,192,3728,1,0,0:0:0:0:
369,192,3816,1,0,0:0:0:0:
312,192,3905,1,0,0:0:0:0:
256,192,3994,1,0,0:0:0:0:
199,192,4083,1,0,0:0:0:0:
142,192,4171,1,0,0:0:0:0:
28,192,4260,1,0,0:0:0:0:
85,192,4349,1,0,0:0:0:0:
142,192,4438,1,0,0:0:0:0:
199,192,4527,1,0,0:0:0:0:
256,192,4615,1,0,0:0:0:0:
312,192,4704,1,0,0:0:0:0:
369,192,4793,1,0,0:0:0:0:
426,192,4882,1,0,0:0:0:0:
369,192,4970,1,0,0:0:0:0:
312,192,5059,1,0,0:0:0:0:
256,192,5148,1,0,0:0:0:0:
199,192,5237,1,0,0:0:0:0:
142,192,5326,1,0,0:0:0:0:
85,192,5414,1,0,0:0:0:0:
28,192,5503,1,0,0:0:0:0:
85,192,5592,1,0,0:0:0:0:
199,192,5681,1,0,0:0:0:0:
256,192,5769,1,0,0:0:0:0:
312,192,5858,1,0,0:0:0:0:
369,192,5947,1,0,0:0:0:0:
426,192,6036,1,0,0:0:0:0:
483,192,6125,1,0,0:0:0:0:
426,192,6213,1,0,0:0:0:0:
312,192,6302,1,0,0:0:0:0:
256,192,6391,1,0,0:0:0:0:
199,192,6480,1,0,0:0:0:0:
142,192,6568,1,0,0:0:0:0:
85,192,6657,1,0,0:0:0:0:
28,192,6746,1,0,0:0:0:0:
85,192,6835,1,0,0:0:0:0:
142,192,6924,1,0,0:0:0:0:
256,192,7012,1,0,0:0:0:0:
312,192,7101,1,0,0:0:0:0:
369,192,7190,1,0,0:0:0:0:
426,192,7279,1,0,0:0:0:0:
483,192,7367,1,0,0:0:0:0:
426,192,7456,1,0,0:0:0:0:
369,192,7545,1,0,0:0:0:0:
256,192,7634,1,0,0:0:0:0:
199,192,7723,1,0,0:0:0:0:
142,192,7811,1,0,0:0:0:0:
85,192,7900,1,0,0:0:0:0:
28,192,7989,1,0,0:0:0:0:
85,192,8078,1,0,0:0:0:0:
142,192,8166,1,0,0:0:0:0:
199,192,8255,1,0,0:0:0:0:
312,192,8344,1,0,0:0:0:0:
369,192,8433,1,0,0:0:0:0:
426,192,8522,1,0,0:0:0:0:
483,192,8610,1,0,0:0:0:0:
426,192,8699,1,0,0:0:0:0:
369,192,8788,1,0,0:0:0:0:
312,192,8877,1,0,0:0:0:0:
199,192,8965,1,0,0:0:0:0:
142,192,9054,1,0,0:0:0:0:
85,192,9143,1,0,0:0:0:0:
28,192,9232,1,0,0:0:0:0:
85,192,9321,1,0,0:0:0:0:
142,192,9409,1,0,0:0:0:0:
199,192,9498,1,0,0:0:0:0:
256,192,9587,1,0,0:0:0:0:
369,192,9676,1,0,0:0:0:0:
426,192,9764,1,0,0:0:0:0:
483,192,9853,1,0,0:0:0:0:
426,192,9942,1,0,0:0:0:0:
369,192,10031,1,0,0:0:0:0:
312,192,10120,1,0,0:0:0:0:
256,192,10208,1,0,0:0:0:0:
142,192,10297,1,0,0:0:0:0:
85,192,10386,1,0,0:0:0:0:
28,192,10475,1,0,0:0:0:0:
85,192,10563,1,0,0:0:0:0:
142,192,10652,1,0,0:0:0:0:
199,192,10741,1,0,0:0:0:0:
256,192,10830,1,0,0:0:0:0:
312,192,10919,1,0,0:0:0:0:
426,192,11007,1,0,0:0:0:0:
483,192,11096,1,0,0:0:0:0:
426,192,11185,1,0,0:0:0:0:
369,192,11274,1,0,0:0:0:0:
312,192,11362,1,0,0:0:0:0:
256,192,11451,1,0,0:0:0:0:
199,192,11540,1,0,0:0:0:0:
85,192,11629,1,0,0:0:0:0:
28,192,11718,1,0,0:0:0:0:
85,192,11806,1,0,0:0:0:0:
142,192,11895,1,0,0:0:0:0:
199,192,11984,1,0,0:0:0:0:
256,192,12073,1,0,0:0:0:0:
312,192,12161,1,0,0:0:0:0:
369,192,12250,1,0,0:0:0:0:
483,192,12339,1,0,0:0:0:0:
426,192,12428,1,0,0:0:0:0:
369,192,12517,1,0,0:0:0:0:
312,192,12605,1,0,0:0:0:0:
256,192,12694,1,0,0:0:0:0:
199,192,12783,1,0,0:0:0:0:
142,192,12872,1,0,0:0:0:0:
85,192,12960,1,0,0:0:0:0:
142,192,13049,1,0,0:0:0:0:
199,192,13138,1,0,0:0:0:0:
256,192,13227,1,0,0:0:0:0:
312,192,13316,1,0,0:0:0:0:
369,192,13404,1,0,0:0:0:0:
426,192,13493,1,0,0:0:0:0:
483,192,13582,1,0,0:0:0:0:
426,192,13671,1,0,0:0:0:0:
369,192,13759,1,0,0:0:0:0:
312,192,13848,1,0,0:0:0:0:
256,192,13937,1,0,0:0:0:0:
199,192,14026,1,0,0:0:0:0:
142,192,14115,1,0,0:0:0:0:
28,192,14203,1,0,0:0:0:0:
85,192,14292,1,0,0:0:0:0:
142,192,14381,1,0,0:0:0:0:
199,192,14470,1,0,0:0:0:0:
256,192,14558,1,0,0:0:0:0:
312,192,14647,1,0,0:0:0:0:
369,192,14736,1,0,0:0:0:0:
426,192,14825,1,0,0:0:0:0:
369,192,14914,1,0,0:0:0:0:
312,192,15002,1,0,0:0:0:0:
256,192,15091,1,0,0:0:0:0:
199,192,15180,1,0,0:0:0:0:
142,192,15269,1,0,0:0:0:0:
85,192,15357,1,0,0:0:0:0:
28,192,15446,1,0,0:0:0:0:
142,192,15535,1,0,0:0:0:0:
256,192,15624,1,0,0:0:0:0:
369,192,15713,1,0,0:0:0:0:
85,192,15801,1,0,0:0:0:0:
199,192,15890,1,0,0:0:0:0:
312,192,15979,1,0,0:0:0:0:
483,192,16068,1,0,0:0:0:0:
369,192,16156,1,0,0:0:0:0:
256,192,16245,1,0,0:0:0:0:
142,192,16334,1,0,0:0:0:0:
426,192,16423,1,0,0:0:0:0:
312,192,16512,1,0,0:0:0:0:
199,192,16600,1,0,0:0:0:0:
85,192,16689,1,0,0:0:0:0:
199,192,16778,1,0,0:0:0:0:
312,192,16867,1,0,0:0:0:0:
426,192,16956,1,0,0:0:0:0:
142,192,17044,1,0,0:0:0:0:
256,192,17133,1,0,0:0:0:0:
369,192,17222,1,0,0:0:0:0:
426,192,17311,1,0,0:0:0:0:
312,192,17399,1,0,0:0:0:0:
199,192,17488,1,0,0:0:0:0:
85,192,17577,1,0,0:0:0:0:
369,192,17666,1,0,0:0:0:0:
256,192,17755,1,0,0:0:0:0:
142,192,17843,1,0,0:0:0:0:
28,192,17932,1,0,0:0:0:0:
199,192,18021,1,0,0:0:0:0:
312,192,18110,1,0,0:0:0:0:
483,192,18198,1,0,0:0:0:0:
85,192,18287,1,0,0:0:0:0:
256,192,18376,1,0,0:0:0:0:
426,192,18465,1,0,0:0:0:0:
483,192,18554,1,0,0:0:0:0:
312,192,18642,1,0,0:0:0:0:
199,192,18731,1,0,0:0:0:0:
28,192,18820,1,0,0:0:0:0:
426,192,18909,1,0,0:0:0:0:
256,192,18997,1,0,0:0:0:0:
85,192,19086,1,0,0:0:0:0:
142,192,19175,1,0,0:0:0:0:
199,192,19264,1,0,0:0:0:0:
312,192,19353,1,0,0:0:0:0:
369,192,19441,1,0,0:0:0:0:
85,192,19530,1,0,0:0:0:0:
256,192,19619,1,0,0:0:0:0:
426,192,19708,1,0,0:0:0:0:
369,192,19796,1,0,0:0:0:0:
312,192,19885,1,0,0:0:0:0:
199,192,19974,1,0,0:0:0:0:
142,192,20063,1,0,0:0:0:0:
426,192,20152,1,0,0:0:0:0:
256,192,20240,1,0,0:0:0:0:
85,192,20329,1,0,0:0:0:0:
28,192,20418,1,0,0:0:0:0:
256,192,20507,1,0,0:0:0:0:
483,192,20595,1,0,0:0:0:0:
85,192,20684,1,0,0:0:0:0:
199,192,20773,1,0,0:0:0:0:
312,192,20862,1,0,0:0:0:0:
426,192,20951,1,0,0:0:0:0:
483,192,21039,1,0,0:0:0:0:
256,192,21128,1,0,0:0:0:0:
28,192,21217,1,0,0:0:0:0:
426,192,21306,1,0,0:0:0:0:
312,192,21394,1,0,0:0:0:0:
199,192,21483,1,0,0:0:0:0:
85,192,21572,1,0,0:0:0:0:
28,192,21661,1,0,0:0:0:0:
142,192,21750,1,0,0:0:0:0:
256,192,21838,1,0,0:0:0:0:
28,192,21927,1,0,0:0:0:0:
142,192,22016,1,0,0:0:0:0:
256,192,22105,1,0,0:0:0:0:
369,192,22193,1,0,0:0:0:0:
483,192,22282,1,0,0:0:0:0:
369,192,22371,1,0,0:0:0:0:
256,192,22460,1,0,0:0:0:0:
483,192,22549,1,0,0:0:0:0:
369,192,22637,1,0,0:0:0:0:
256,192,22726,1,0,0:0:0:0:
142,192,22815,1,0,0:0:0:0:
85,192,22904,1,0,0:0:0:0:
256,192,22992,1,0,0:0:0:0:
426,192,23081,1,0,0:0:0:0:
28,192,23170,1,0,0:0:0:0:
142,192,23259,1,0,0:0:0:0:
369,192,23348,1,0,0:0:0:0:
483,192,23436,1,0,0:0:0:0:
426,192,23525,1,0,0:0:0:0:
256,192,23614,1,0,0:0:0:0:
85,192,23703,1,0,0:0:0:0:
483,192,23791,1,0,0:0:0:0:
369,192,23880,1,0,0:0:0:0:
142,192,23969,1,0,0:0:0:0:
28,192,24058,1,0,0:0:0:0:
85,192,24147,1,0,0:0:0:0:
199,192,24235,1,0,0:0:0:0:
312,192,24324,1,0,0:0:0:0:
142,192,24413,1,0,0:0:0:0:
256,192,24502,1,0,0:0:0:0:
369,192,24590,1,0,0:0:0:0:
483,192,24679,1,0,0:0:0:0:
426,192,24768,1,0,0:0:0:0:
312,192,24857,1,0,0:0:0:0:
199,192,24946,1,0,0:0:0:0:
369,192,25034,1,0,0:0:0:0:
256,192,25123,1,0,0:0:0:0:
142,192,25212,1,0,0:0:0:0:
28,192,25301,1,0,0:0:0:0:
199,192,25389,1,0,0:0:0:0:
256,192,25478,1,0,0:0:0:0:
312,192,25567,1,0,0:0:0:0:
85,192,25656,1,0,0:0:0:0:
142,192,25745,1,0,0:0:0:0:
369,192,25833,1,0,0:0:0:0:
426,192,25922,1,0,0:0:0:0:
312,192,26011,1,0,0:0:0:0:
256,192,26100,1,0,0:0:0:0:
199,192,26188,1,0,0:0:0:0:
426,192,26277,1,0,0:0:0:0:
369,192,26366,1,0,0:0:0:0:
142,192,26455,1,0,0:0:0:0:
85,192,26544,1,0,0:0:0:0:
142,192,26632,1,0,0:0:0:0:
256,192,26721,1,0,0:0:0:0:
369,192,26810,1,0,0:0:0:0:
85,192,26899,1,0,0:0:0:0:
199,192,26987,1,0,0:0:0:0:
312,192,27076,1,0,0:0:0:0:
426,192,27165,1,0,0:0:0:0:
483,192,27254,1,0,0:0:0:0:
256,192,27343,1,0,0:0:0:0:
28,192,27431,1,0,0:0:0:0:
426,192,27520,1,0,0:0:0:0:
312,192,27609,1,0,0:0:0:0:
199,192,27698,1,0,0:0:0:0:
85,192,27786,1,0,0:0:0:0:
256,192,27875,1,0,0:0:0:0:
