osu file format v14

[General]
AudioFilename: zanarkand bells.mp3
AudioLeadIn: 0
PreviewTime: 24234
Countdown: 0
SampleSet: Soft
StackLeniency: 0.7
Mode: 3
LetterboxInBreaks: 0
SpecialStyle: 0
WidescreenStoryboard: 1

[Editor]
DistanceSpacing: 1.5
BeatDivisor: 4
GridSize: 8
TimelineZoom: 1.1

[Metadata]
Title:Zanarkand nite
TitleUnicode:ザナルカンドにて
Artist:Nobuo Uematsu
ArtistUnicode:植松伸夫
Creator:Asherz007
Version:Thousand Years
Source:ファイナルファンタジーX
Tags:To Final Fantasy X FFX Square Enix OST Soundtrack Tidus Yuna keysound
BeatmapID:1319492
BeatmapSetID:625952

[Difficulty]
HPDrainRate:7.5
CircleSize:6
OverallDifficulty:7.5
ApproachRate:5
SliderMultiplier:1.4
SliderTickRate:1

[Events]
//Background and Video events
0,0,"Zanarkand3.jpg",0,0
//Break Periods
//Storyboard Layer 0 (Background)
//Storyboard Layer 1 (Fail)
//Storyboard Layer 2 (Pass)
//Storyboard Layer 3 (Foreground)
//Storyboard Sound Samples
Sample,60234,0,"D7S.wav",50
Sample,76234,0,"A5S.wav",50
Sample,78234,0,"A5S.wav",50
Sample,80234,0,"F#6S_Gb6S.wav",50

[TimingPoints]
234,666.666666666667,3,2,0,20,1,0

[HitObjects]
469,192,234,5,0,0:0:0:100:E7S.wav
298,192,234,1,0,0:0:0:50:B6S.wav
213,192,234,1,0,0:0:0:50:E5S.wav
42,192,567,1,0,0:0:0:100:E6S.wav
128,192,900,1,0,0:0:0:100:G6S.wav
213,192,1234,1,0,0:0:0:100:B6S.wav
128,192,1567,1,0,0:0:0:50:D5S.wav
298,192,1567,1,0,0:0:0:100:E7S.wav
384,192,1900,1,0,0:0:0:100:F#7S_Gb7S.wav
213,192,1900,1,0,0:0:0:100:D7S.wav
42,192,2234,1,0,0:0:0:50:C5S.wav
298,192,2234,1,0,0:0:0:100:E7SL.wav
469,192,2234,1,0,0:0:0:100:G7SL.wav
213,192,4234,1,0,0:0:0:50:D5S.wav
298,192,4234,1,0,0:0:0:50:A6S.wav
128,192,4234,1,0,0:0:0:100:D7S.wav
469,192,4567,1,0,0:0:0:100:D6S.wav
384,192,4900,1,0,0:0:0:100:F#6S_Gb6S.wav
298,192,5234,1,0,0:0:0:100:A6S.wav
469,192,5567,1,0,0:0:0:50:C5S.wav
213,192,5567,1,0,0:0:0:100:D7S.wav
384,192,5900,1,0,0:0:0:100:C7S.wav
128,192,5900,1,0,0:0:0:100:E7S.wav
469,192,6234,1,0,0:0:0:50:B4S.wav
298,192,6234,1,0,0:0:0:100:D7SL.wav
42,192,6234,1,0,0:0:0:100:F#7SL_Gb7SL.wav
384,192,8234,1,0,0:0:0:100:B6S.wav
128,192,8234,1,0,0:0:0:50:C5S.wav
42,192,8567,1,0,0:0:0:50:G5S.wav
384,192,8900,1,0,0:0:0:100:B6S.wav
213,192,8900,1,0,0:0:0:50:D6S.wav
128,192,9234,1,0,0:0:0:50:C6S.wav
384,192,9567,1,0,0:0:0:100:B6S.wav
298,192,9567,1,0,0:0:0:50:E6S.wav
469,192,9900,1,0,0:0:0:50:F#6S_Gb6S.wav
42,192,10067,1,0,0:0:0:50:C5S.wav
128,192,10234,1,0,0:0:0:50:G5S.wav
384,192,10234,1,0,0:0:0:100:B6S.wav
298,192,10234,1,0,0:0:0:50:G6S.wav
213,192,10234,1,0,0:0:0:50:E6S.wav
298,192,10900,1,0,0:0:0:100:A6S.wav
469,192,11900,1,0,0:0:0:100:D7S.wav
42,192,12234,1,0,0:0:0:50:B4S.wav
384,192,12234,1,0,0:0:0:100:F#6S_Gb6S.wav
128,192,12567,1,0,0:0:0:50:F#5S_Gb5S.wav
213,192,12900,1,0,0:0:0:50:B5S.wav
298,192,13234,1,0,0:0:0:50:C#6S_Db6S.wav
384,192,13567,1,0,0:0:0:50:D6S.wav
469,192,13900,1,0,0:0:0:50:F#6S_Gb6S.wav
128,192,14234,1,0,0:0:0:50:D6SL.wav
213,192,14234,1,0,0:0:0:50:F#6SL_Gb6SL.wav
298,192,14234,1,0,0:0:0:100:B6SL.wav
42,192,16234,1,0,0:0:0:50:A4S.wav
469,192,16234,1,0,0:0:0:100:E7S.wav
128,192,16567,1,0,0:0:0:50:E5S.wav
469,192,16900,1,0,0:0:0:100:E7S.wav
384,192,16900,1,0,0:0:0:50:B5S.wav
298,192,17234,1,0,0:0:0:50:A5S.wav
469,192,17567,1,0,0:0:0:100:E7S.wav
128,192,17567,1,0,0:0:0:50:C6S.wav
213,192,17900,1,0,0:0:0:50:D6S.wav
42,192,18234,1,0,0:0:0:50:A5S.wav
298,192,18234,1,0,0:0:0:50:E6S.wav
469,192,18234,1,0,0:0:0:100:E7S.wav
128,192,18234,1,0,0:0:0:50:C6S.wav
384,192,18900,1,0,0:0:0:100:D7S.wav
42,192,19900,1,0,0:0:0:100:G7S.wav
298,192,20234,1,0,0:0:0:100:C7S.wav
213,192,20234,1,0,0:0:0:50:F4S.wav
469,192,20567,1,0,0:0:0:50:C5S.wav
384,192,20900,1,0,0:0:0:50:F5S.wav
298,192,21234,1,0,0:0:0:50:G5S.wav
213,192,21567,1,0,0:0:0:50:A5S.wav
128,192,21900,1,0,0:0:0:50:C6S.wav
42,192,22234,1,0,0:0:0:50:F6S.wav
298,192,22567,1,0,0:0:0:50:C6S.wav
42,192,22900,1,0,0:0:0:50:F6S.wav
384,192,23234,1,0,0:0:0:50:G6S.wav
128,192,23567,1,0,0:0:0:50:A6S.wav
469,192,23900,1,0,0:0:0:100:C7S.wav
42,192,24234,1,0,0:0:0:50:E4S.wav
298,192,24234,1,0,0:0:0:100:E6S.wav
213,192,24567,1,0,0:0:0:50:B4S.wav
384,192,24900,1,0,0:0:0:50:E5S.wav
42,192,25234,1,0,0:0:0:50:F#5S_Gb5S.wav
213,192,25234,1,0,0:0:0:100:B5S.wav
128,192,25567,1,0,0:0:0:50:G5S.wav
298,192,25567,1,0,0:0:0:100:E6S.wav
213,192,25900,1,0,0:0:0:50:A5S.wav
384,192,25900,1,0,0:0:0:100:F#6S_Gb6S.wav
42,192,26234,1,0,0:0:0:50:C5S.wav
469,192,26234,1,0,0:0:0:100:G6S.wav
298,192,26234,1,0,0:0:0:50:C6S.wav
128,192,26567,1,0,0:0:0:50:G5S.wav
384,192,26900,1,0,0:0:0:100:F#6S_Gb6S.wav
213,192,27234,1,0,0:0:0:50:F#5S_Gb5S.wav
298,192,27567,1,0,0:0:0:50:E5S.wav
469,192,27567,1,0,0:0:0:100:E6S.wav
128,192,27900,1,0,0:0:0:50:C5S.wav
42,192,28234,1,0,0:0:0:50:D4S.wav
384,192,28234,1,0,0:0:0:100:D6S.wav
128,192,28567,1,0,0:0:0:50:A4S.wav
213,192,28900,1,0,0:0:0:50:D5S.wav
469,192,29234,1,0,0:0:0:100:E6S.wav
298,192,29234,1,0,0:0:0:50:A5S.wav
128,192,29567,1,0,0:0:0:50:A5S.wav
384,192,29567,1,0,0:0:0:100:D6S.wav
42,192,29567,1,0,0:0:0:50:F#5S_Gb5S.wav
213,192,29567,1,0,0:0:0:50:C6S.wav
298,192,29900,1,0,0:0:0:50:C5S.wav
213,192,30234,1,0,0:0:0:50:D5S.wav
384,192,30234,1,0,0:0:0:50:G5S.wav
469,192,30234,1,0,0:0:0:100:B5S.wav
128,192,30234,1,0,0:0:0:50:G3S.wav
42,192,30567,1,0,0:0:0:50:D4S.wav
298,192,30900,1,0,0:0:0:50:G4S.wav
128,192,31234,1,0,0:0:0:50:A4S.wav
384,192,31567,1,0,0:0:0:50:B4S.wav
213,192,31900,1,0,0:0:0:50:D5S.wav
469,192,32234,1,0,0:0:0:100:E6S.wav
42,192,32234,1,0,0:0:0:50:E4S.wav
128,192,32234,1,0,0:0:0:50:G5S.wav
384,192,32567,1,0,0:0:0:50:B4S.wav
213,192,32900,1,0,0:0:0:50:E5S.wav
469,192,33234,1,0,0:0:0:50:F#5S_Gb5S.wav
298,192,33234,1,0,0:0:0:100:B5S.wav
384,192,33567,1,0,0:0:0:50:G5S.wav
213,192,33567,1,0,0:0:0:100:E6S.wav
298,192,33900,1,0,0:0:0:50:A5S.wav
128,192,33900,1,0,0:0:0:100:F#6S_Gb6S.wav
469,192,34234,1,0,0:0:0:100:G6S.wav
42,192,34234,1,0,0:0:0:50:C5S.wav
384,192,34567,1,0,0:0:0:50:G5S.wav
128,192,34900,1,0,0:0:0:100:F#6S_Gb6S.wav
213,192,35234,1,0,0:0:0:50:F#5S_Gb5S.wav
128,192,35567,1,0,0:0:0:50:E5S.wav
298,192,35567,1,0,0:0:0:100:G6S.wav
42,192,35900,1,0,0:0:0:50:C5S.wav
213,192,36234,1,0,0:0:0:50:D4S.wav
469,192,36234,1,0,0:0:0:100:A6S.wav
298,192,36567,1,0,0:0:0:50:A4S.wav
384,192,36900,1,0,0:0:0:50:D5S.wav
42,192,37234,1,0,0:0:0:50:G5S.wav
213,192,37234,1,0,0:0:0:50:E6S.wav
298,192,37234,1,0,0:0:0:100:G6S.wav
128,192,37567,1,0,0:0:0:50:A5S.wav
384,192,37567,1,0,0:0:0:50:F#6S_Gb6S.wav
469,192,37567,1,0,0:0:0:100:A6S.wav
213,192,37900,1,0,0:0:0:50:D5S.wav
42,192,38234,1,0,0:0:0:50:G3S.wav
298,192,38234,1,0,0:0:0:50:D5S.wav
384,192,38234,1,0,0:0:0:50:G6S.wav
469,192,38234,1,0,0:0:0:100:B6S.wav
128,192,38567,1,0,0:0:0:50:D4S.wav
298,192,38900,1,0,0:0:0:50:G4S.wav
213,192,39234,1,0,0:0:0:50:A4S.wav
384,192,39567,1,0,0:0:0:50:B4S.wav
469,192,39900,1,0,0:0:0:50:D5S.wav
213,192,40234,1,0,0:0:0:50:G5S.wav
298,192,40234,1,0,0:0:0:100:E6S.wav
42,192,40234,1,0,0:0:0:50:E4S.wav
128,192,40567,1,0,0:0:0:50:B4S.wav
213,192,40900,1,0,0:0:0:50:E5S.wav
42,192,41234,1,0,0:0:0:50:F#5S_Gb5S.wav
469,192,41234,1,0,0:0:0:100:B5S.wav
128,192,41567,1,0,0:0:0:50:G5S.wav
384,192,41567,1,0,0:0:0:100:E6S.wav
213,192,41900,1,0,0:0:0:50:A5S.wav
298,192,41900,1,0,0:0:0:100:F#6S_Gb6S.wav
469,192,42234,1,0,0:0:0:50:C6S.wav
384,192,42234,1,0,0:0:0:100:G6S.wav
42,192,42234,1,0,0:0:0:50:C5S.wav
128,192,42567,1,0,0:0:0:50:G5S.wav
298,192,42900,1,0,0:0:0:100:F#6S_Gb6S.wav
42,192,43234,1,0,0:0:0:50:F#5S_Gb5S.wav
213,192,43567,1,0,0:0:0:50:E5S.wav
469,192,43567,1,0,0:0:0:100:E6S.wav
128,192,43900,1,0,0:0:0:50:C5S.wav
42,192,44234,1,0,0:0:0:50:D4S.wav
298,192,44234,1,0,0:0:0:50:A5S.wav
384,192,44234,1,0,0:0:0:100:D6S.wav
128,192,44567,1,0,0:0:0:50:A4S.wav
213,192,44900,1,0,0:0:0:50:D5S.wav
469,192,45234,1,0,0:0:0:100:E6S.wav
128,192,45234,1,0,0:0:0:50:A5S.wav
42,192,45234,1,0,0:0:0:50:F#5S_Gb5S.wav
213,192,45567,1,0,0:0:0:50:A5S.wav
298,192,45567,1,0,0:0:0:50:C6S.wav
384,192,45567,1,0,0:0:0:100:D6S.wav
42,192,45900,1,0,0:0:0:50:F#5S_Gb5S.wav
128,192,46234,1,0,0:0:0:50:G3S.wav
298,192,46234,1,0,0:0:0:50:D5S.wav
384,192,46234,1,0,0:0:0:50:G5S.wav
469,192,46234,1,0,0:0:0:100:B5S.wav
213,192,46567,1,0,0:0:0:50:D4S.wav
298,192,46900,1,0,0:0:0:50:G4S.wav
469,192,47234,1,0,0:0:0:50:A4S.wav
384,192,47567,1,0,0:0:0:50:B4S.wav
128,192,47567,1,0,0:0:0:100:G5S.wav
213,192,47900,1,0,0:0:0:100:A5S.wav
298,192,47900,1,0,0:0:0:50:G4S.wav
42,192,48234,1,0,0:0:0:50:C4S.wav
384,192,48234,1,0,0:0:0:50:G5S.wav
469,192,48234,1,0,0:0:0:100:B5S.wav
128,192,48567,1,0,0:0:0:50:G4S.wav
384,192,48900,1,0,0:0:0:50:G5S.wav
469,192,48900,1,0,0:0:0:100:B5S.wav
298,192,48900,1,0,0:0:0:50:C5S.wav
128,192,49234,1,0,0:0:0:50:G4S.wav
213,192,49567,1,0,0:0:0:50:B4S.wav
384,192,49567,1,0,0:0:0:50:G5S.wav
469,192,49567,1,0,0:0:0:100:B5S.wav
128,192,49900,1,0,0:0:0:50:G4S.wav
42,192,50234,1,0,0:0:0:50:D4S.wav
298,192,50234,1,0,0:0:0:50:F#5S_Gb5S.wav
469,192,50234,1,0,0:0:0:100:B5S.wav
213,192,50900,1,0,0:0:0:100:A5S.wav
128,192,51567,1,0,0:0:0:100:D6S.wav
42,192,52067,1,0,0:0:0:50:A3S.wav
384,192,52234,1,0,0:0:0:50:E5S.wav
298,192,52234,1,0,0:0:0:50:C5S.wav
469,192,52234,1,0,0:0:0:100:G5S.wav
128,192,52567,1,0,0:0:0:50:E4S.wav
213,192,52900,1,0,0:0:0:50:A4S.wav
469,192,53234,1,0,0:0:0:100:G5S.wav
384,192,53567,1,0,0:0:0:100:F#5S_Gb5S.wav
42,192,53567,1,0,0:0:0:50:B3S.wav
298,192,53567,1,0,0:0:0:50:B4S.wav
213,192,53900,1,0,0:0:0:100:D5S.wav
128,192,54234,1,0,0:0:0:50:C4S.wav
298,192,54234,1,0,0:0:0:100:E5S.wav
42,192,54567,1,0,0:0:0:50:G4S.wav
213,192,54900,1,0,0:0:0:50:C5S.wav
469,192,54900,1,0,0:0:0:100:E6S.wav
128,192,55234,1,0,0:0:0:50:E5S.wav
298,192,55567,1,0,0:0:0:50:G5S.wav
213,192,55900,1,0,0:0:0:50:C6S.wav
384,192,56234,1,0,0:0:0:50:E6S.wav
42,192,56567,1,0,0:0:0:50:E5S.wav
298,192,56900,1,0,0:0:0:50:G5S.wav
128,192,57234,1,0,0:0:0:50:C6S.wav
384,192,57567,1,0,0:0:0:50:E6S.wav
213,192,57900,1,0,0:0:0:50:G6S.wav
469,192,58234,1,0,0:0:0:100:A6S.wav
298,192,58234,1,0,0:0:0:50:A4S.wav
128,192,58567,1,0,0:0:0:50:E5S.wav
42,192,58900,1,0,0:0:0:50:A5S.wav
128,192,59234,1,0,0:0:0:50:B5S.wav
469,192,59567,1,0,0:0:0:100:E7S.wav
213,192,59567,1,0,0:0:0:50:C6S.wav
384,192,59900,1,0,0:0:0:50:E6S.wav
213,192,60234,1,0,0:0:0:50:C7S.wav
128,192,60234,1,0,0:0:0:50:A6S.wav
42,192,60234,1,0,0:0:0:50:F4S.wav
469,192,60234,1,0,0:0:0:100:E7S.wav
298,192,60567,1,0,0:0:0:50:C5S.wav
42,192,60900,1,0,0:0:0:50:F5S.wav
384,192,60900,1,0,0:0:0:100:D7S.wav
128,192,61234,1,0,0:0:0:50:G5S.wav
213,192,61567,1,0,0:0:0:50:A5S.wav
298,192,61567,1,0,0:0:0:100:C7S.wav
469,192,61567,1,0,0:0:0:50:F6S.wav
384,192,61900,1,0,0:0:0:50:C6S.wav
42,192,62234,1,0,0:0:0:50:G4S.wav
213,192,62234,1,0,0:0:0:100:B6S.wav
298,192,62234,1,0,0:0:0:50:G6S.wav
128,192,62567,1,0,0:0:0:50:D5S.wav
213,192,62900,1,0,0:0:0:50:G5S.wav
298,192,63234,1,0,0:0:0:50:A5S.wav
42,192,63567,1,0,0:0:0:50:B5S.wav
384,192,63567,1,0,0:0:0:100:G7S.wav
469,192,63900,1,0,0:0:0:50:D6S.wav
213,192,64234,1,0,0:0:0:50:B6S.wav
128,192,64234,1,0,0:0:0:50:E4S.wav
298,192,64234,1,0,0:0:0:50:E7S.wav
384,192,64234,1,0,0:0:0:100:G7S.wav
42,192,64567,1,0,0:0:0:50:B4S.wav
128,192,64900,1,0,0:0:0:50:E5S.wav
298,192,65234,1,0,0:0:0:50:F#5S_Gb5S.wav
384,192,65567,1,0,0:0:0:50:G5S.wav
213,192,65900,1,0,0:0:0:50:B5S.wav
469,192,66234,1,0,0:0:0:100:B6S.wav
42,192,66234,1,0,0:0:0:50:B4S.wav
128,192,66234,1,0,0:0:0:50:D6S.wav
298,192,66567,1,0,0:0:0:50:F#5S_Gb5S.wav
384,192,66900,1,0,0:0:0:50:B5S.wav
213,192,67234,1,0,0:0:0:50:C#6S_Db6S.wav
298,192,67567,1,0,0:0:0:100:F#7S_Gb7S.wav
128,192,67567,1,0,0:0:0:50:D6S.wav
384,192,67900,1,0,0:0:0:50:E6S.wav
42,192,68067,1,0,0:0:0:50:F#5S_Gb5S.wav
128,192,68234,1,0,0:0:0:50:C#6S_Db6S.wav
213,192,68234,1,0,0:0:0:50:F#6SL_Gb6SL.wav
469,192,68234,1,0,0:0:0:100:F#7SL_Gb7SL.wav
298,192,70234,1,0,0:0:0:100:A6S.wav
42,192,70234,1,0,0:0:0:50:A4S.wav
128,192,70567,1,0,0:0:0:50:E5S.wav
213,192,70900,1,0,0:0:0:50:A5S.wav
298,192,71234,1,0,0:0:0:50:B5S.wav
384,192,71567,1,0,0:0:0:50:C6S.wav
469,192,71567,1,0,0:0:0:100:E7S.wav
128,192,71900,1,0,0:0:0:50:A5S.wav
213,192,72234,1,0,0:0:0:50:F#6S_Gb6S.wav
298,192,72234,1,0,0:0:0:50:B6S.wav
469,192,72234,1,0,0:0:0:100:E7S.wav
42,192,72234,1,0,0:0:0:50:B4S.wav
384,192,72900,1,0,0:0:0:100:D#7S_Eb7S.wav
213,192,73567,1,0,0:0:0:50:B4S.wav
128,192,73900,1,0,0:0:0:50:A4S.wav
42,192,74234,1,0,0:0:0:50:B3S.wav
384,192,74234,1,0,0:0:0:50:F#5S_Gb5S.wav
469,192,74234,1,0,0:0:0:100:B5S.wav
298,192,74234,1,0,0:0:0:50:D5S.wav
128,192,74567,1,0,0:0:0:50:F#4S_Gb4S.wav
213,192,74900,1,0,0:0:0:50:B4S.wav
298,192,75234,1,0,0:0:0:50:C#5S_Db5S.wav
42,192,75567,1,0,0:0:0:50:D5S.wav
128,192,75567,1,0,0:0:0:50:A5S.wav
384,192,75567,1,0,0:0:0:50:D6S.wav
469,192,75567,1,0,0:0:0:100:F#6S_Gb6S.wav
213,192,75900,1,0,0:0:0:50:F#4S_Gb4S.wav
298,192,76234,1,0,0:0:0:50:B5S.wav
384,192,76234,1,0,0:0:0:50:D6S.wav
42,192,76234,1,0,0:0:0:50:G3S.wav
469,192,76234,1,0,0:0:0:100:F#6S_Gb6S.wav
213,192,76567,1,0,0:0:0:50:D4S.wav
128,192,76900,1,0,0:0:0:50:G4S.wav
298,192,76900,1,0,0:0:0:50:C#6S_Db6S.wav
384,192,76900,1,0,0:0:0:100:E6S.wav
42,192,77234,1,0,0:0:0:50:A4S.wav
298,192,77567,1,0,0:0:0:50:B5S.wav
469,192,77567,1,0,0:0:0:100:D6S.wav
213,192,77567,1,0,0:0:0:50:F#5S_Gb5S.wav
128,192,77567,1,0,0:0:0:50:B4S.wav
384,192,77900,1,0,0:0:0:50:D4S.wav
469,192,78234,1,0,0:0:0:100:C#6S_Db6S.wav
213,192,78234,1,0,0:0:0:50:E5S.wav
42,192,78234,1,0,0:0:0:50:A3S.wav
128,192,78234,1,0,0:0:0:50:A4S.wav
298,192,78567,1,0,0:0:0:50:E4S.wav
384,192,78900,1,0,0:0:0:50:A4S.wav
469,192,79234,1,0,0:0:0:50:B4S.wav
384,192,79567,1,0,0:0:0:100:A6S.wav
298,192,79567,1,0,0:0:0:50:E6S.wav
128,192,79567,1,0,0:0:0:50:C#6S_Db6S.wav
42,192,79567,1,0,0:0:0:50:C#5S_Db5S.wav
213,192,79900,1,0,0:0:0:50:E4S.wav
384,192,80234,1,0,0:0:0:50:C#6S_Db6S.wav
42,192,80234,1,0,0:0:0:50:F#3S_Gb3S.wav
128,192,80234,1,0,0:0:0:50:A5S.wav
469,192,80234,1,0,0:0:0:100:A6S.wav
213,192,80567,1,0,0:0:0:50:C#4S_Db4S.wav
298,192,80900,1,0,0:0:0:50:F#4S_Gb4S.wav
384,192,81234,1,0,0:0:0:50:G#4S_Ab4S.wav
469,192,81567,1,0,0:0:0:50:A4S.wav
42,192,81900,1,0,0:0:0:50:B4S.wav
128,192,82234,1,0,0:0:0:50:C#5S_Db5S.wav
384,192,82234,1,0,0:0:0:100:G#6S_Ab6S.wav
213,192,82234,1,0,0:0:0:50:E6S.wav
298,192,82900,1,0,0:0:0:100:E6S.wav
213,192,83567,1,0,0:0:0:100:C#6S_Db6S.wav
128,192,84234,1,0,0:0:0:50:G3S.wav
298,192,84234,1,0,0:0:0:50:G5S.wav
469,192,84234,1,0,0:0:0:100:B5S.wav
469,192,85567,1,0,0:0:0:100:F#6S_Gb6S.wav
213,192,85567,1,0,0:0:0:50:B4S.wav
128,192,85567,1,0,0:0:0:50:G4S.wav
384,192,85567,1,0,0:0:0:50:B5S.wav
42,192,86234,1,0,0:0:0:50:A4S.wav
298,192,86234,1,0,0:0:0:50:F#5S_Gb5S.wav
384,192,86234,1,0,0:0:0:100:A5S.wav
128,192,86234,1,0,0:0:0:50:C#5S_Db5S.wav
213,192,87234,1,0,0:0:0:100:F#5S_Gb5S.wav
128,192,87567,1,0,0:0:0:50:C#5S_Db5S.wav
298,192,87567,1,0,0:0:0:50:E5S.wav
384,192,87567,1,0,0:0:0:100:A5S.wav
42,192,87567,1,0,0:0:0:50:F#4S_Gb4S.wav
128,192,88234,1,0,0:0:0:65:B2S-hold.wav
213,192,88234,1,0,0:0:0:50:B4S.wav
298,192,88234,1,0,0:0:0:50:D#5S_Eb5S.wav
384,192,88234,1,0,0:0:0:50:F#5S_Gb5S.wav
469,192,88234,1,0,0:0:0:100:B5S.wav
42,192,88567,1,0,0:0:0:50:B3S.wav
128,192,88900,1,0,0:0:0:50:D#4S_Eb4S.wav
213,192,89234,1,0,0:0:0:50:F#4S_Gb4S.wav
298,192,89567,1,0,0:0:0:50:B4S.wav
384,192,89900,1,0,0:0:0:45:D#5S_Eb5S.wav
469,192,90234,1,0,0:0:0:40:F#5S_Gb5S.wav
42,192,90567,1,0,0:0:0:35:B5S.wav
128,192,90900,1,0,0:0:0:30:D#6S_Eb6S.wav
213,192,91234,1,0,0:0:0:25:F#6S_Gb6S.wav
469,192,91567,1,0,0:0:0:20:D#6S_Eb6S.wav
298,192,91650,1,0,0:0:0:20:F#6S_Gb6S.wav
128,192,91734,1,0,0:0:0:20:B6S.wav
