osu file format v14

[General]
AudioFilename: audio.mp3
AudioLeadIn: 0
PreviewTime: 97776
Countdown: 0
SampleSet: Normal
StackLeniency: 0.2
Mode: 0
LetterboxInBreaks: 0
WidescreenStoryboard: 0

[Editor]
DistanceSpacing: 1
BeatDivisor: 4
GridSize: 4
TimelineZoom: 1.4

[Metadata]
Title:The Stars High in the Sky
TitleUnicode:The Stars High in the Sky
Artist:Nobuo Uematsu
ArtistUnicode:Nobuo Uematsu
Creator:Fruits
Version:Conjunction
Source:グランブルーファンタジー (Granblue Fantasy)
Tags:グランブルーファンタジー granblue fantasy グラブル granblue grand order / the order grande ost
BeatmapID:1867817
BeatmapSetID:893784

[Difficulty]
HPDrainRate:6
CircleSize:4
OverallDifficulty:7
ApproachRate:9
SliderMultiplier:1
SliderTickRate:1

[Events]
//Background and Video events
0,0,"bg7.png",0,0
//Break Periods
2,80415,111230
//Storyboard Layer 0 (Background)
//Storyboard Layer 1 (Fail)
//Storyboard Layer 2 (Pass)
//Storyboard Layer 3 (Foreground)
//Storyboard Sound Samples

[TimingPoints]
2079,272.727272727273,4,1,0,100,1,0
2079,-200,4,1,0,20,0,0
2897,-200,4,1,0,5,0,0
3169,-125,4,1,0,20,0,0
6169,272.727272727273,4,1,0,20,1,0
10534,272.727272727273,4,1,0,30,1,0
19261,-80,4,1,0,50,0,0
25806,-80,4,1,0,60,0,0
27988,-133.333333333333,4,1,0,70,0,0
32352,-100,4,1,0,80,0,0
36579,-100,4,1,0,10,0,0
36715,-133.333333333333,4,1,0,60,0,0
37806,-100,4,1,0,50,0,0
45443,-133.333333333333,4,1,0,70,0,0
46534,-100,4,1,0,60,0,0
49943,-100,4,1,0,65,0,0
50215,-100,4,1,0,60,0,0
50488,-100,4,1,0,55,0,0
50761,-100,4,1,0,50,0,0
51034,-100,4,1,0,45,0,0
51306,-100,4,1,0,40,0,0
51579,-100,4,1,0,35,0,0
51715,-100,4,1,0,20,0,0
51988,-100,4,1,0,70,0,0
52124,-100,4,1,0,70,0,0
52261,-100,4,1,0,55,0,0
52534,-100,4,1,0,50,0,0
52807,-100,4,1,0,45,0,0
53079,-100,4,1,0,40,0,0
53352,-100,4,1,0,35,0,0
53624,-100,4,1,0,30,0,0
53897,-100,4,1,0,25,0,0
54170,-100,4,1,0,50,0,0
55261,-133.333333333333,4,1,0,50,0,0
55806,-133.333333333333,4,1,0,40,0,0
56352,-100,4,1,0,50,0,0
60715,-200,4,1,0,50,0,0
61806,-100,4,1,0,50,0,0
62897,-66.6666666666667,4,1,0,70,0,0
67261,-133.333333333333,4,1,0,50,0,0
68215,-133.333333333333,4,1,0,5,0,0
68352,-100,4,1,0,50,0,0
74897,-133.333333333333,4,1,0,60,0,0
75988,-66.6666666666667,4,1,0,70,0,0
89079,267.857142857143,4,1,0,100,1,0
90150,269.058295964126,4,1,0,100,1,0
91226,270.27027027027,4,1,0,100,1,0
92323,272.727272727273,4,1,0,100,1,0
93413,272.727272727273,4,1,0,100,1,0
106367,1090.90909090909,4,1,0,100,1,0
106367,-100,4,1,0,70,0,0
109230,1300.10834236186,4,1,0,100,1,0
109230,-100,4,1,0,5,0,0
111830,1333.33333333333,4,1,0,70,1,0
114496,-100,4,1,0,5,0,0
117163,666.666666666667,4,1,0,100,1,0
159836,333.333333333333,4,1,0,100,1,0
229169,-100,4,1,0,85,0,1
253169,-100,4,1,0,40,0,0
269169,327.868852459016,4,1,0,100,1,0
274414,324.324324324324,4,1,0,100,1,0
275711,320.855614973262,4,1,0,100,1,0
276994,317.460317460317,4,1,0,100,1,0
279534,315.789473684211,4,1,0,100,1,0
370481,-100,4,1,0,100,0,1
390534,-100,4,1,0,100,0,0
390691,-100,4,1,0,100,0,1
415955,-100,4,1,0,100,0,0

[HitObjects]
138,81,2079,6,0,P|201:126|274:157,1,150
390,116,3169,6,0,L|434:206,3,80
278,274,4260,2,0,L|175:258,3,80
207,139,5351,6,0,B|251:140|251:140|309:156,2,80
96,114,6169,6,0,L|167:26,3,100
278,82,7259,2,0,L|325:182,1,100
165,154,7805,2,0,L|114:259,1,100
294,194,8350,2,0,L|397:169,3,100
270,78,9441,2,0,L|168:83,3,100
137,146,10534,6,0,L|124:236,1,50
230,232,10806,2,0,L|299:261,1,50
341,149,11079,2,0,L|374:96,1,50
246,94,11352,2,0,L|202:63,1,50
180,59,11556,1,0,0:0:0:0:
155,58,11624,2,0,L|103:76,1,50
189,183,11897,2,0,L|251:220,1,50
360,184,12170,2,0,L|267:173,1,50
353,90,12443,2,0,L|424:87,1,50
418,107,12647,1,0,0:0:0:0:
431,127,12715,6,0,L|471:183,1,50
367,186,12988,1,0,0:0:0:0:
276,100,13124,2,0,L|278:163,1,50
161,146,13397,2,0,L|130:196,1,50
246,212,13670,1,0,0:0:0:0:
246,212,13738,1,0,0:0:0:0:
246,212,13806,6,0,L|266:267,1,50
285,271,14011,1,0,0:0:0:0:
304,286,14079,2,0,L|332:344,1,50
416,279,14352,2,0,L|369:226,1,50
278,189,14624,2,0,L|223:186,1,50
202,185,14829,1,0,0:0:0:0:
177,185,14897,6,0,L|120:184,1,50
200,107,15170,2,0,L|256:130,1,50
232,254,15443,2,0,L|173:233,1,50
278,98,15715,2,0,L|289:165,1,50
301,167,15920,1,0,0:0:0:0:
307,191,15988,6,0,L|318:253,1,50
212,253,16261,1,0,0:0:0:0:
194,167,16397,2,0,L|139:145,2,50
258,80,16806,1,0,0:0:0:0:
91,63,16943,1,0,0:0:0:0:
91,63,17011,1,0,0:0:0:0:
91,63,17079,6,0,L|78:131,1,50
42,216,17352,2,0,L|111:228,1,50
193,214,17624,2,0,L|253:200,1,50
132,135,17897,2,0,L|89:85,1,50
250,72,18170,6,0,L|308:104,1,50
417,109,18443,1,0,0:0:0:0:
434,125,18511,1,0,0:0:0:0:
452,142,18579,1,0,0:0:0:0:
467,161,18647,1,0,0:0:0:0:
477,185,18715,2,0,P|488:215|490:245,1,50
348,226,18988,2,0,L|319:176,1,50
250,47,19261,6,0,B|226:42|201:43|124:72|92:140|145:180|160:196|186:197|208:181|208:181|222:170|229:152|205:131|187:122|170:121|152:131|153:161,1,375
419,210,20215,1,0,0:0:0:0:
419,210,20284,1,0,0:0:0:0:
419,210,20352,2,0,L|406:81,1,125
143,127,20693,1,0,0:0:0:0:
127,146,20761,2,0,L|103:280,1,125
276,314,21102,1,0,0:0:0:0:
291,295,21170,2,0,L|320:165,1,125
386,27,21852,5,0,0:0:0:0:
386,27,21920,1,0,0:0:0:0:
386,27,21988,2,0,L|210:111,1,187.5
171,156,22465,1,0,0:0:0:0:
175,181,22534,2,0,L|286:280,1,125
324,246,22874,1,0,0:0:0:0:
348,238,22943,2,0,L|426:54,1,187.5
222,78,23488,5,0,0:0:0:0:
222,78,23556,1,0,0:0:0:0:
222,78,23624,2,0,B|337:99|337:99|386:207,1,218.75
91,56,24579,5,0,0:0:0:0:
91,56,24647,1,0,0:0:0:0:
91,56,24715,2,0,L|112:242,1,187.5
279,284,25193,1,0,0:0:0:0:
302,274,25261,2,0,L|293:192,1,62.5
234,116,25465,1,0,0:0:0:0:
248,95,25534,2,0,L|314:87,1,62.5
389,176,25806,5,0,0:0:0:0:
182,114,25943,1,0,0:0:0:0:
372,69,26079,1,0,0:0:0:0:
184,231,26215,1,0,0:0:0:0:
184,231,26284,1,0,0:0:0:0:
184,231,26352,1,0,0:0:0:0:
421,256,26488,1,0,0:0:0:0:
113,175,26624,5,0,0:0:0:0:
113,175,26693,1,0,0:0:0:0:
113,175,26761,1,0,0:0:0:0:
370,90,26897,1,0,0:0:0:0:
174,312,27034,1,0,0:0:0:0:
174,312,27102,1,0,0:0:0:0:
174,312,27170,1,0,0:0:0:0:
331,125,27306,1,0,0:0:0:0:
331,125,27374,1,0,0:0:0:0:
331,125,27443,1,0,0:0:0:0:
408,275,27579,1,0,0:0:0:0:
152,67,27715,5,0,0:0:0:0:
127,86,27784,1,0,0:0:0:0:
110,112,27852,1,0,0:0:0:0:
106,143,27920,1,0,0:0:0:0:
114,173,27988,2,0,P|132:211|337:257,1,262.500010013581
379,126,29079,6,0,L|440:127,1,37.5000014305115
178,110,29352,2,0,L|132:94,1,37.5000014305115
285,189,29624,2,0,L|312:129,1,37.5000014305115
153,216,29897,2,0,L|90:239,1,37.5000014305115
385,297,30170,6,0,P|449:252|448:135,1,187.500007152558
145,243,30988,2,0,L|210:209,1,37.5000014305115
290,310,31261,2,0,L|336:257,1,37.5000014305115
341,141,31534,2,0,L|279:144,1,37.5000014305115
77,195,31806,2,0,L|136:213,1,37.5000014305115
400,309,32079,2,0,L|452:269,1,37.5000014305115
364,65,32352,6,0,B|226:45|128:54|37:206,1,350
149,279,33443,2,0,L|229:285,1,50
436,247,33715,2,0,L|386:286,1,50
190,128,33988,2,0,L|248:203,1,50
379,93,34261,2,0,L|341:170,1,50
340,324,34534,6,0,P|197:301|110:201,1,250
256,192,35352,12,0,36579,0:0:0:0:
404,59,36715,6,0,L|196:221,1,262.500010013581
133,88,37806,5,0,0:0:0:0:
286,125,37943,2,0,P|312:141|332:162,1,50
192,43,38215,1,0,0:0:0:0:
118,188,38352,2,0,P|93:219|69:234,1,50
225,313,38624,1,0,0:0:0:0:
225,313,38693,1,0,0:0:0:0:
225,313,38761,1,0,0:0:0:0:
225,313,38829,1,0,0:0:0:0:
225,313,38897,6,0,L|164:327,1,50
59,267,39170,1,0,0:0:0:0:
109,100,39306,2,0,P|161:92|176:96,1,50
278,70,39579,1,0,0:0:0:0:
416,91,39715,1,0,0:0:0:0:
416,91,39784,1,0,0:0:0:0:
416,91,39852,1,0,0:0:0:0:
344,268,39988,1,0,0:0:0:0:
344,268,40056,1,0,0:0:0:0:
344,268,40124,6,0,L|378:230,1,50
179,164,40397,1,0,0:0:0:0:
204,322,40534,2,0,P|174:304|144:302,1,50
157,64,40806,2,0,P|191:53|226:65,1,50
413,140,41079,1,0,0:0:0:0:
413,140,41147,1,0,0:0:0:0:
413,140,41215,1,0,0:0:0:0:
413,140,41284,1,0,0:0:0:0:
413,140,41352,1,0,0:0:0:0:
184,281,41488,6,0,P|157:285|122:299,1,50
155,136,41761,1,0,0:0:0:0:
278,102,41897,2,0,P|298:138|303:166,1,50
155,136,42170,1,0,0:0:0:0:
40,203,42306,2,0,P|32:172|34:138,1,50
243,282,42579,5,0,0:0:0:0:
264,89,42715,2,0,P|300:82|321:82,1,50
117,72,42988,1,0,0:0:0:0:
117,72,43056,1,0,0:0:0:0:
117,72,43124,1,0,0:0:0:0:
117,72,43193,1,0,0:0:0:0:
117,72,43261,6,0,L|80:119,1,50
207,210,43534,1,0,0:0:0:0:
372,93,43670,2,0,P|347:93|325:104,1,50,0|0,0:3|0:3,0:3:0:0:
244,302,43943,1,0,0:0:0:0:
486,201,44079,2,0,P|457:205|433:223,1,50
304,154,44352,1,0,0:0:0:0:
157,235,44488,1,0,0:0:0:0:
157,235,44556,1,0,0:0:0:0:
157,235,44624,6,0,P|125:255|117:275,1,50
133,78,44897,1,0,0:0:0:0:
133,78,44965,1,0,0:0:0:0:
133,78,45034,1,0,0:0:0:0:
133,78,45102,1,0,0:0:0:0:
133,78,45170,2,0,L|86:30,1,50
32,248,45443,6,0,L|272:120,1,262.500010013581
400,77,46534,5,0,0:0:0:0:
400,77,46602,1,0,0:0:0:0:
400,77,46670,2,0,P|428:105|431:127,1,50
280,176,46943,1,0,0:0:0:0:
105,126,47079,2,0,P|82:102|83:65,1,50
205,235,47352,2,0,P|228:248|241:276,1,50
259,274,47556,1,0,0:0:0:0:
283,269,47624,6,0,P|312:260|343:233,1,50
343,69,47897,1,0,0:0:0:0:
431,307,48034,2,0,P|441:276|431:255,1,50
428,92,48306,1,0,0:0:0:0:
288,306,48443,2,0,P|259:299|236:304,1,50
207,154,48715,1,0,0:0:0:0:
207,154,48784,1,0,0:0:0:0:
207,154,48852,6,0,P|206:122|194:102,1,50
149,288,49124,1,0,0:0:0:0:
50,102,49261,2,0,P|81:70|103:64,1,50
349,85,49534,2,0,P|314:67|284:63,1,50
146,204,49806,1,0,0:0:0:0:
256,192,49943,12,0,51715,0:0:0:0:
145,205,51988,5,0,0:0:0:0:
256,192,52124,12,0,54170,0:0:0:0:
94,148,55261,6,0,L|231:109,1,112.500004291535
314,185,55806,2,0,L|377:209,1,37.5000014305115
276,283,56079,2,0,L|208:271,1,37.5000014305115
57,71,56352,6,0,B|156:101|156:101|31:154|31:154|151:189,1,350
245,85,57443,6,0,L|330:104,1,50
395,187,57715,2,0,L|410:245,1,50
267,299,57988,2,0,L|218:288,1,50
117,197,58260,2,0,L|104:148,1,50
305,135,58534,6,0,B|337:160|344:181|343:217|322:242|307:253|275:263|243:256|218:234|207:202|208:184|215:152|244:130|265:123|305:135,1,350
105,59,59624,6,0,L|170:66,1,50
223,134,59897,2,0,L|239:203,1,50
330,202,60170,2,0,L|395:209,1,50
448,277,60443,2,0,L|464:346,1,50
467,144,60715,6,0,L|403:313,1,175
325,265,61806,6,0,L|258:250,1,50
194,208,62079,2,0,L|163:156,1,50
137,300,62352,2,0,L|86:253,1,50
52,185,62625,2,0,L|51:124,1,50
138,84,62897,5,0,0:0:0:0:
388,64,63034,1,0,0:0:0:0:
396,62,63170,1,0,0:0:0:0:
372,251,63306,5,0,0:0:0:0:
141,154,63443,1,0,0:0:0:0:
141,146,63579,1,0,0:0:0:0:
83,54,63715,5,0,0:0:0:0:
131,300,63852,1,0,0:0:0:0:
139,302,63988,1,0,0:0:0:0:
452,301,64124,5,0,0:0:0:0:
204,264,64261,1,0,0:0:0:0:
205,256,64397,1,0,0:0:0:0:
440,213,64534,6,0,L|329:193,1,75.0000028610231
73,163,64806,2,0,L|159:131,1,75.0000028610231
392,58,65079,5,0,0:0:0:0:
462,297,65215,1,0,0:0:0:0:
461,305,65352,1,0,0:0:0:0:
285,117,65488,5,0,0:0:0:0:
36,125,65624,1,0,0:0:0:0:
36,117,65761,1,0,0:0:0:0:
185,332,65897,5,0,0:0:0:0:
152,83,66034,1,0,0:0:0:0:
156,76,66170,1,0,0:0:0:0:
398,90,66306,5,0,0:0:0:0:
189,229,66443,1,0,0:0:0:0:
190,237,66579,1,0,0:0:0:0:
328,39,66715,6,0,L|414:131,1,75.0000028610231
147,294,66988,2,0,L|97:229,1,75.0000028610231
132,246,67261,6,0,L|377:79,1,281.250010728837,0|0,0:3|0:3,0:3:0:0:
400,120,68352,6,0,P|424:184|368:257,1,150
290,121,68897,2,0,L|233:68,1,50
139,138,69170,2,0,L|76:211,1,50
210,81,69443,6,0,B|194:79|172:76|130:88|111:106|96:129|90:152|88:174|88:174|90:199|97:225|114:248|138:272|176:276|204:277|229:267,1,350
180,115,70534,6,0,L|151:167,1,50
283,160,70806,2,0,L|260:206,1,50
351,218,71079,2,0,L|411:241,1,50
476,237,71352,2,0,L|452:305,1,50
390,155,71624,6,0,B|422:130|429:109|428:73|407:48|392:37|360:27|328:34|303:56|291:88|293:106|300:138|328:160|350:167|390:155,1,350
117,91,72715,6,0,L|99:152,1,50
82,214,72988,2,0,L|62:277,1,50
184,95,73261,2,0,L|222:147,1,50
208,197,73534,2,0,L|138:203,1,50
257,282,73806,6,0,B|260:177|260:177|260:186|263:229|259:214|259:214|270:201|274:191|281:182|292:175|307:169|327:173|345:182|361:197|368:217|370:240|371:266|370:284|369:303,1,350
422,251,74897,6,0,L|170:144,1,262.500010013581
114,60,75988,5,0,0:0:0:0:
300,244,76124,1,0,0:0:0:0:
286,262,76261,1,0,0:0:0:0:
26,229,76397,5,0,0:0:0:0:
271,131,76534,1,0,0:0:0:0:
279,152,76670,1,0,0:0:0:0:
470,201,76806,5,0,0:0:0:0:
246,340,76943,1,0,0:0:0:0:
238,319,77079,1,0,0:0:0:0:
290,43,77215,5,0,0:0:0:0:
329,304,77352,1,0,0:0:0:0:
308,311,77488,1,0,0:0:0:0:
274,73,77624,6,0,L|330:23,1,75.0000028610231
217,286,77897,2,0,L|158:333,1,75.0000028610231
258,156,78170,5,0,0:0:0:0:
16,57,78306,1,0,0:0:0:0:
22,35,78443,1,0,0:0:0:0:
367,42,78579,5,0,0:0:0:0:
473,281,78715,1,0,0:0:0:0:
451,277,78852,1,0,0:0:0:0:
163,311,78988,5,0,0:0:0:0:
230,58,79124,1,0,0:0:0:0:
247,73,79261,1,0,0:0:0:0:
393,243,79397,5,0,0:0:0:0:
133,201,79534,1,0,0:0:0:0:
135,179,79670,1,0,0:0:0:0:
26,341,79806,6,0,L|133:300,1,75.0000028610231
406,41,80079,2,0,L|329:140,1,75.0000028610231
256,190,111830,5,0,0:0:0:0:
256,192,112163,12,0,114496,0:0:0:0:
