osu file format v14

[General]
AudioFilename: Someday the Dream Will End.mp3
AudioLeadIn: 0
PreviewTime: 25855
Countdown: 0
SampleSet: None
StackLeniency: 0.7
Mode: 3
LetterboxInBreaks: 0
SpecialStyle: 0
WidescreenStoryboard: 1

[Editor]
DistanceSpacing: 0.8
BeatDivisor: 1
GridSize: 32
TimelineZoom: 0.9

[Metadata]
Title:Someday the Dream Will End
TitleUnicode:Someday the Dream Will End
Artist:Nobuo Uematsu
ArtistUnicode:Nobuo Uematsu
Creator:Halogen-
Version:Final Farewell
Source:Final Fantasy X
Tags:
BeatmapID:3270224
BeatmapSetID:1601322

[Difficulty]
HPDrainRate:8
CircleSize:4
OverallDifficulty:7.5
ApproachRate:5
SliderMultiplier:1.4
SliderTickRate:1

[Events]
//Background and Video events
0,0,"Tidus-and-Yuna-Final-Fantasy-X.jpeg",0,0
//Break Periods
//Storyboard Layer 0 (Background)
//Storyboard Layer 1 (Fail)
//Storyboard Layer 2 (Pass)
//Storyboard Layer 3 (Foreground)
//Storyboard Layer 4 (Overlay)
//Storyboard Sound Samples

[TimingPoints]
-1417,681.818182,4,2,0,100,1,0
25855,-100,4,2,0,100,0,0
27219,-400,4,2,0,100,0,0
28583,-100,4,2,0,100,0,0
29946,-400,4,2,0,100,0,0
31310,-100,4,2,0,100,0,0
32673,-400,4,2,0,100,0,0
34037,-100,4,2,0,100,0,0
35401,-400,4,2,0,100,0,0
36764,-100,4,2,0,100,0,0
38128,-400,4,2,0,100,0,0
39492,-100,4,2,0,100,0,0
40855,-400,4,2,0,100,0,0
42219,-100,4,2,0,100,0,0
43583,-400,4,2,0,100,0,0
44946,-100,4,2,0,100,0,0
46310,-400,4,2,0,100,0,0
47673,-100,4,2,0,100,0,0
49037,-400,4,2,0,100,0,0
50401,-100,4,2,0,100,0,0
51764,-400,4,2,0,100,0,0
53128,-100,4,2,0,100,0,0
54492,-400,4,2,0,100,0,0
55855,-100,4,2,0,100,0,0
57219,-400,4,2,0,100,0,0
58583,-100,4,2,0,100,0,0
59946,-400,4,2,0,100,0,0
61310,-100,4,2,0,100,0,0
62673,-400,4,2,0,100,0,0
64037,-100,4,2,0,100,0,0
65401,-400,4,2,0,100,0,0
66764,-100,4,2,0,100,0,0
68128,-400,4,2,0,100,0,0
69492,-200,4,2,0,100,0,0
91310,-100,4,2,0,100,0,0
92673,-400,4,2,0,100,0,0
94037,-100,4,2,0,100,0,0
95401,-400,4,2,0,100,0,0
96764,-100,4,2,0,100,0,0
98128,-400,4,2,0,100,0,0
99492,-100,4,2,0,100,0,0
100855,-400,4,2,0,100,0,0
102219,-100,4,2,0,100,0,0
103583,-400,4,2,0,100,0,0
104946,-100,4,2,0,100,0,0
106310,-400,4,2,0,100,0,0
107673,-100,4,2,0,100,0,0
109037,-400,4,2,0,100,0,0
110401,-100,4,2,0,100,0,0
111764,-400,4,2,0,100,0,0
113128,-100,4,2,0,100,0,0

[HitObjects]
64,192,1225,5,0,0:0:0:0:
320,192,1267,1,0,0:0:0:0:
192,192,1310,1,0,0:0:0:0:
448,192,1367,1,0,0:0:0:0:
320,192,1992,1,0,0:0:0:0:
448,192,2333,1,0,0:0:0:0:
64,192,2503,1,0,0:0:0:0:
192,192,2588,1,0,0:0:0:0:
320,192,2617,1,0,0:0:0:0:
448,192,2673,1,0,0:0:0:0:
64,192,2759,1,0,0:0:0:0:
192,192,3355,1,0,0:0:0:0:
448,192,3355,1,0,0:0:0:0:
64,192,3654,1,0,0:0:0:0:
192,192,3952,1,0,0:0:0:0:
320,192,3994,1,0,0:0:0:0:
192,192,4037,1,0,0:0:0:0:
448,192,4037,1,0,0:0:0:0:
320,192,4719,1,0,0:0:0:0:
192,192,5060,1,0,0:0:0:0:
64,192,5230,1,0,0:0:0:0:
448,192,5315,1,0,0:0:0:0:
64,192,5401,1,0,0:0:0:0:
320,192,5401,1,0,0:0:0:0:
192,192,5486,1,0,0:0:0:0:
320,192,6679,1,0,0:0:0:0:
448,192,6722,1,0,0:0:0:0:
192,192,6764,1,0,0:0:0:0:
64,192,6821,1,0,0:0:0:0:
64,192,7446,1,0,0:0:0:0:
320,192,7446,1,0,0:0:0:0:
448,192,7787,1,0,0:0:0:0:
320,192,7958,1,0,0:0:0:0:
64,192,8043,1,0,0:0:0:0:
192,192,8128,1,0,0:0:0:0:
320,192,8128,1,0,0:0:0:0:
64,192,8810,1,0,0:0:0:0:
64,192,9406,1,0,0:0:0:0:
192,192,9449,1,0,0:0:0:0:
320,192,9492,1,0,0:0:0:0:
448,192,9492,1,0,0:0:0:0:
64,192,9534,1,0,0:0:0:0:
192,192,9577,1,0,0:0:0:0:
320,192,10173,1,0,0:0:0:0:
192,192,10458,1,0,0:0:0:0:
448,192,10770,1,0,0:0:0:0:
320,192,10813,1,0,0:0:0:0:
64,192,10855,1,0,0:0:0:0:
192,192,10855,1,0,0:0:0:0:
448,192,10898,1,0,0:0:0:0:
320,192,10940,1,0,0:0:0:0:
448,192,11537,128,0,12219:0:0:0:0:
64,192,12134,1,0,0:0:0:0:
320,192,12176,1,0,0:0:0:0:
64,192,12219,128,0,14264:0:0:0:0:
192,192,12219,1,0,0:0:0:0:
448,192,12261,1,0,0:0:0:0:
320,192,12304,1,0,0:0:0:0:
320,192,12901,1,0,0:0:0:0:
448,192,13242,1,0,0:0:0:0:
320,192,13497,1,0,0:0:0:0:
448,192,13540,1,0,0:0:0:0:
192,192,13583,1,0,0:0:0:0:
320,192,13583,1,0,0:0:0:0:
320,192,14264,1,0,0:0:0:0:
448,192,14264,1,0,0:0:0:0:
64,192,14350,1,0,0:0:0:0:
192,192,14435,1,0,0:0:0:0:
320,192,14520,1,0,0:0:0:0:
64,192,14605,1,0,0:0:0:0:
448,192,14605,1,0,0:0:0:0:
192,192,14662,1,0,0:0:0:0:
320,192,14719,1,0,0:0:0:0:
192,192,14776,1,0,0:0:0:0:
320,192,14833,1,0,0:0:0:0:
448,192,14889,1,0,0:0:0:0:
64,192,14946,1,0,0:0:0:0:
192,192,14946,1,0,0:0:0:0:
192,192,15628,128,0,16310:0:0:0:0:
320,192,15628,1,0,0:0:0:0:
448,192,15628,1,0,0:0:0:0:
64,192,15969,1,0,0:0:0:0:
448,192,15969,1,0,0:0:0:0:
64,192,16225,1,0,0:0:0:0:
320,192,16267,1,0,0:0:0:0:
448,192,16310,128,0,16992:0:0:0:0:
64,192,16352,1,0,0:0:0:0:
192,192,16992,1,0,0:0:0:0:
320,192,16992,1,0,0:0:0:0:
64,192,17333,1,0,0:0:0:0:
192,192,17333,1,0,0:0:0:0:
320,192,17446,1,0,0:0:0:0:
448,192,17446,1,0,0:0:0:0:
64,192,17560,1,0,0:0:0:0:
192,192,17560,1,0,0:0:0:0:
64,192,17673,1,0,0:0:0:0:
192,192,17673,128,0,20060:0:0:0:0:
320,192,17673,128,0,18355:0:0:0:0:
448,192,17673,1,0,0:0:0:0:
64,192,18355,128,0,18696:0:0:0:0:
448,192,18696,128,0,19037:0:0:0:0:
320,192,19037,128,0,19719:0:0:0:0:
64,192,19719,128,0,20401:0:0:0:0:
192,192,20401,128,0,21083:0:0:0:0:
448,192,20401,128,0,23043:0:0:0:0:
320,192,20742,1,0,0:0:0:0:
64,192,21083,128,0,21764:0:0:0:0:
320,192,21083,128,0,23043:0:0:0:0:
192,192,21764,128,0,24492:0:0:0:0:
64,192,23128,1,0,0:0:0:0:
320,192,23128,128,0,27134:0:0:0:0:
448,192,23810,1,0,0:0:0:0:
64,192,24492,1,0,0:0:0:0:
192,192,25173,1,0,0:0:0:0:
64,192,25855,1,0,0:0:0:0:
192,192,25855,128,0,28497:0:0:0:0:
448,192,25855,128,0,27134:0:0:0:0:
64,192,27219,1,0,0:0:0:0:
320,192,27219,128,0,28497:0:0:0:0:
448,192,27219,128,0,27815:0:0:0:0:
448,192,27901,128,0,28497:0:0:0:0:
64,192,28583,128,0,29861:0:0:0:0:
192,192,28583,128,0,31225:0:0:0:0:
320,192,28583,128,0,29861:0:0:0:0:
64,192,29946,128,0,31225:0:0:0:0:
320,192,29946,128,0,30543:0:0:0:0:
448,192,29946,1,0,0:0:0:0:
320,192,30628,128,0,31225:0:0:0:0:
64,192,31310,128,0,32588:0:0:0:0:
192,192,31310,128,0,33952:0:0:0:0:
448,192,31310,128,0,32588:0:0:0:0:
64,192,32673,128,0,33952:0:0:0:0:
320,192,32673,1,0,0:0:0:0:
448,192,32673,128,0,33952:0:0:0:0:
192,192,34037,128,0,35315:0:0:0:0:
320,192,34037,128,0,34634:0:0:0:0:
448,192,34037,128,0,34634:0:0:0:0:
64,192,34719,128,0,35315:0:0:0:0:
320,192,34719,128,0,35315:0:0:0:0:
64,192,35401,128,0,36679:0:0:0:0:
192,192,35401,128,0,36679:0:0:0:0:
448,192,35401,128,0,36679:0:0:0:0:
320,192,36083,128,0,36679:0:0:0:0:
192,192,36764,128,0,39406:0:0:0:0:
320,192,36764,128,0,38043:0:0:0:0:
448,192,36764,128,0,38043:0:0:0:0:
64,192,38128,1,0,0:0:0:0:
320,192,38128,128,0,39406:0:0:0:0:
448,192,38128,128,0,38725:0:0:0:0:
448,192,38810,128,0,39406:0:0:0:0:
64,192,39492,128,0,40770:0:0:0:0:
192,192,39492,128,0,42134:0:0:0:0:
320,192,39492,128,0,40770:0:0:0:0:
64,192,40855,128,0,41452:0:0:0:0:
320,192,40855,128,0,42134:0:0:0:0:
448,192,40855,1,0,0:0:0:0:
64,192,41537,128,0,42134:0:0:0:0:
192,192,42219,128,0,43497:0:0:0:0:
320,192,42219,128,0,44861:0:0:0:0:
448,192,42219,128,0,43497:0:0:0:0:
64,192,43583,1,0,0:0:0:0:
192,192,43583,128,0,44861:0:0:0:0:
448,192,43583,128,0,44861:0:0:0:0:
64,192,44946,128,0,46225:0:0:0:0:
192,192,44946,128,0,47588:0:0:0:0:
448,192,44946,128,0,46225:0:0:0:0:
64,192,46310,128,0,47588:0:0:0:0:
320,192,46310,1,0,0:0:0:0:
448,192,46310,128,0,47588:0:0:0:0:
64,192,47673,128,0,49293:0:0:0:0:
192,192,47673,128,0,48270:0:0:0:0:
320,192,47673,128,0,48270:0:0:0:0:
448,192,48014,128,0,48611:0:0:0:0:
192,192,48355,128,0,48952:0:0:0:0:
320,192,48355,128,0,48952:0:0:0:0:
448,192,48696,128,0,48952:0:0:0:0:
192,192,49037,128,0,50315:0:0:0:0:
320,192,49037,128,0,49975:0:0:0:0:
448,192,49037,128,0,49634:0:0:0:0:
64,192,49378,128,0,50315:0:0:0:0:
448,192,49719,128,0,50656:0:0:0:0:
320,192,50060,128,0,50315:0:0:0:0:
64,192,50401,128,0,50997:0:0:0:0:
192,192,50401,128,0,52020:0:0:0:0:
320,192,50401,128,0,50997:0:0:0:0:
448,192,50742,128,0,51338:0:0:0:0:
64,192,51083,128,0,51679:0:0:0:0:
320,192,51083,128,0,51679:0:0:0:0:
448,192,51423,128,0,51679:0:0:0:0:
64,192,51764,128,0,53043:0:0:0:0:
320,192,51764,128,0,53043:0:0:0:0:
448,192,51764,128,0,52361:0:0:0:0:
192,192,52105,128,0,52702:0:0:0:0:
448,192,52446,128,0,53384:0:0:0:0:
192,192,52787,128,0,53043:0:0:0:0:
64,192,53128,128,0,54747:0:0:0:0:
192,192,53128,128,0,53725:0:0:0:0:
320,192,53128,128,0,53725:0:0:0:0:
448,192,53469,128,0,54065:0:0:0:0:
192,192,53810,128,0,54406:0:0:0:0:
320,192,53810,128,0,54406:0:0:0:0:
448,192,54151,128,0,54406:0:0:0:0:
192,192,54492,128,0,55088:0:0:0:0:
320,192,54492,128,0,56111:0:0:0:0:
448,192,54492,128,0,55429:0:0:0:0:
64,192,54833,128,0,55770:0:0:0:0:
192,192,55173,128,0,55770:0:0:0:0:
448,192,55514,128,0,55770:0:0:0:0:
64,192,55855,128,0,56452:0:0:0:0:
192,192,55855,128,0,56793:0:0:0:0:
448,192,55855,128,0,56452:0:0:0:0:
320,192,56196,128,0,56452:0:0:0:0:
64,192,56537,128,0,57134:0:0:0:0:
320,192,56537,128,0,57134:0:0:0:0:
448,192,56537,128,0,57475:0:0:0:0:
192,192,56878,128,0,57134:0:0:0:0:
64,192,57219,128,0,58497:0:0:0:0:
192,192,57219,128,0,57815:0:0:0:0:
320,192,57219,128,0,58156:0:0:0:0:
448,192,57560,128,0,58497:0:0:0:0:
192,192,57901,128,0,58838:0:0:0:0:
320,192,58242,128,0,58497:0:0:0:0:
64,192,58583,128,0,60202:0:0:0:0:
320,192,58583,128,0,59179:0:0:0:0:
448,192,58583,128,0,59179:0:0:0:0:
192,192,58923,128,0,59520:0:0:0:0:
320,192,59264,128,0,59861:0:0:0:0:
448,192,59264,128,0,59861:0:0:0:0:
192,192,59605,128,0,59861:0:0:0:0:
192,192,59946,128,0,61225:0:0:0:0:
320,192,59946,128,0,60884:0:0:0:0:
448,192,59946,128,0,60543:0:0:0:0:
64,192,60287,128,0,61225:0:0:0:0:
448,192,60628,128,0,61565:0:0:0:0:
320,192,60969,128,0,61225:0:0:0:0:
64,192,61310,128,0,61906:0:0:0:0:
192,192,61310,128,0,62929:0:0:0:0:
320,192,61310,128,0,61906:0:0:0:0:
448,192,61651,128,0,62247:0:0:0:0:
64,192,61992,128,0,62588:0:0:0:0:
320,192,61992,128,0,62588:0:0:0:0:
448,192,62333,128,0,62588:0:0:0:0:
64,192,62673,128,0,63952:0:0:0:0:
320,192,62673,128,0,63952:0:0:0:0:
448,192,62673,128,0,63270:0:0:0:0:
192,192,63014,128,0,63611:0:0:0:0:
448,192,63355,128,0,64293:0:0:0:0:
192,192,63696,128,0,63952:0:0:0:0:
64,192,64037,128,0,67361:0:0:0:0:
192,192,64037,128,0,64634:0:0:0:0:
320,192,64037,128,0,64634:0:0:0:0:
448,192,64378,128,0,64975:0:0:0:0:
192,192,64719,128,0,65315:0:0:0:0:
320,192,64719,128,0,65315:0:0:0:0:
448,192,65060,128,0,65315:0:0:0:0:
192,192,65401,128,0,66338:0:0:0:0:
320,192,65401,128,0,65656:0:0:0:0:
448,192,65401,128,0,65997:0:0:0:0:
320,192,65742,128,0,66679:0:0:0:0:
448,192,66083,128,0,66679:0:0:0:0:
192,192,66423,128,0,66679:0:0:0:0:
192,192,66764,128,0,67020:0:0:0:0:
320,192,66764,128,0,68384:0:0:0:0:
448,192,66764,128,0,67361:0:0:0:0:
192,192,67105,128,0,67702:0:0:0:0:
64,192,67446,128,0,68043:0:0:0:0:
448,192,67446,128,0,68043:0:0:0:0:
192,192,67787,128,0,68043:0:0:0:0:
64,192,68128,128,0,69406:0:0:0:0:
192,192,68128,128,0,68725:0:0:0:0:
448,192,68128,128,0,69065:0:0:0:0:
320,192,68469,128,0,69406:0:0:0:0:
192,192,68810,128,0,69406:0:0:0:0:
448,192,69151,128,0,69406:0:0:0:0:
192,192,69492,128,0,72134:0:0:0:0:
320,192,69492,1,0,0:0:0:0:
320,192,70173,1,0,0:0:0:0:
448,192,70173,128,0,72219:0:0:0:0:
64,192,70855,128,0,72219:0:0:0:0:
320,192,70855,128,0,72134:0:0:0:0:
192,192,72219,1,0,0:0:0:0:
320,192,72219,128,0,74861:0:0:0:0:
192,192,72901,128,0,73156:0:0:0:0:
448,192,72901,128,0,73156:0:0:0:0:
64,192,73242,128,0,73497:0:0:0:0:
448,192,73242,128,0,73497:0:0:0:0:
64,192,73583,128,0,73838:0:0:0:0:
192,192,73583,128,0,73838:0:0:0:0:
64,192,73923,128,0,74179:0:0:0:0:
448,192,73923,128,0,74179:0:0:0:0:
64,192,74264,128,0,74520:0:0:0:0:
448,192,74264,128,0,74520:0:0:0:0:
192,192,74605,128,0,74861:0:0:0:0:
448,192,74605,128,0,74861:0:0:0:0:
192,192,74946,128,0,77673:0:0:0:0:
320,192,74946,1,0,0:0:0:0:
320,192,75628,1,0,0:0:0:0:
448,192,75628,128,0,77247:0:0:0:0:
64,192,76310,128,0,77247:0:0:0:0:
320,192,76310,128,0,77247:0:0:0:0:
320,192,77333,128,0,77503:0:0:0:0:
448,192,77333,1,0,0:0:0:0:
64,192,77503,1,0,0:0:0:0:
448,192,77503,128,0,77673:0:0:0:0:
64,192,77673,128,0,80401:0:0:0:0:
320,192,77673,128,0,79975:0:0:0:0:
192,192,79037,128,0,79634:0:0:0:0:
448,192,79037,128,0,80315:0:0:0:0:
192,192,79719,128,0,80315:0:0:0:0:
320,192,80060,128,0,80401:0:0:0:0:
192,192,80401,128,0,83043:0:0:0:0:
448,192,80401,1,0,0:0:0:0:
64,192,81083,1,0,0:0:0:0:
320,192,81083,128,0,83043:0:0:0:0:
64,192,81764,128,0,83128:0:0:0:0:
448,192,81764,128,0,83128:0:0:0:0:
192,192,83128,128,0,85685:0:0:0:0:
320,192,83128,1,0,0:0:0:0:
64,192,83810,128,0,84065:0:0:0:0:
320,192,83810,128,0,84065:0:0:0:0:
64,192,84151,128,0,84406:0:0:0:0:
448,192,84151,128,0,84406:0:0:0:0:
320,192,84492,128,0,84747:0:0:0:0:
448,192,84492,128,0,84747:0:0:0:0:
64,192,84833,128,0,85088:0:0:0:0:
448,192,84833,128,0,85088:0:0:0:0:
64,192,85173,128,0,85429:0:0:0:0:
448,192,85173,128,0,85429:0:0:0:0:
64,192,85514,128,0,85770:0:0:0:0:
320,192,85514,128,0,85770:0:0:0:0:
192,192,85855,1,0,0:0:0:0:
320,192,85855,128,0,90884:0:0:0:0:
64,192,86537,128,0,87815:0:0:0:0:
192,192,86537,1,0,0:0:0:0:
192,192,87219,1,0,0:0:0:0:
448,192,87219,128,0,88497:0:0:0:0:
64,192,87901,1,0,0:0:0:0:
192,192,87901,128,0,90884:0:0:0:0:
64,192,88583,128,0,90884:0:0:0:0:
448,192,88583,128,0,89861:0:0:0:0:
448,192,89946,128,0,90884:0:0:0:0:
64,192,90969,1,0,0:0:0:0:
448,192,90969,1,0,0:0:0:0:
192,192,91054,1,0,0:0:0:0:
320,192,91054,1,0,0:0:0:0:
64,192,91139,1,0,0:0:0:0:
448,192,91139,1,0,0:0:0:0:
192,192,91225,1,0,0:0:0:0:
64,192,91310,128,0,92588:0:0:0:0:
320,192,91310,128,0,92247:0:0:0:0:
448,192,91310,128,0,91906:0:0:0:0:
192,192,91651,128,0,91906:0:0:0:0:
192,192,91992,128,0,92588:0:0:0:0:
448,192,91992,128,0,92929:0:0:0:0:
320,192,92333,128,0,92588:0:0:0:0:
64,192,92673,128,0,93611:0:0:0:0:
192,192,92673,128,0,93952:0:0:0:0:
320,192,92673,128,0,94293:0:0:0:0:
448,192,93014,128,0,93270:0:0:0:0:
448,192,93355,128,0,93952:0:0:0:0:
64,192,93696,128,0,94975:0:0:0:0:
192,192,94037,128,0,94634:0:0:0:0:
448,192,94037,128,0,94975:0:0:0:0:
320,192,94378,128,0,94634:0:0:0:0:
192,192,94719,128,0,95315:0:0:0:0:
320,192,94719,128,0,95315:0:0:0:0:
64,192,95060,128,0,95315:0:0:0:0:
448,192,95060,128,0,95656:0:0:0:0:
64,192,95401,128,0,95656:0:0:0:0:
192,192,95401,128,0,96338:0:0:0:0:
320,192,95401,128,0,96338:0:0:0:0:
64,192,95742,128,0,95997:0:0:0:0:
448,192,95742,128,0,95997:0:0:0:0:
64,192,96083,128,0,98043:0:0:0:0:
448,192,96083,128,0,96679:0:0:0:0:
192,192,96423,128,0,96679:0:0:0:0:
320,192,96423,128,0,97361:0:0:0:0:
192,192,96764,128,0,97020:0:0:0:0:
448,192,96764,128,0,97361:0:0:0:0:
192,192,97105,128,0,98043:0:0:0:0:
320,192,97446,128,0,98043:0:0:0:0:
448,192,97446,128,0,97702:0:0:0:0:
448,192,97787,128,0,99065:0:0:0:0:
64,192,98128,128,0,99065:0:0:0:0:
192,192,98128,128,0,98725:0:0:0:0:
320,192,98128,128,0,98384:0:0:0:0:
320,192,98469,128,0,99236:0:0:0:0:
192,192,98810,128,0,99406:0:0:0:0:
64,192,99151,1,0,0:0:0:0:
448,192,99151,128,0,100770:0:0:0:0:
64,192,99321,1,0,0:0:0:0:
320,192,99321,128,0,100770:0:0:0:0:
64,192,99492,128,0,100088:0:0:0:0:
192,192,99492,128,0,99747:0:0:0:0:
192,192,99833,128,0,100088:0:0:0:0:
64,192,100173,128,0,100429:0:0:0:0:
192,192,100173,128,0,100770:0:0:0:0:
64,192,100514,128,0,101452:0:0:0:0:
192,192,100855,128,0,101452:0:0:0:0:
320,192,100855,128,0,101111:0:0:0:0:
448,192,100855,128,0,102134:0:0:0:0:
320,192,101196,128,0,101793:0:0:0:0:
64,192,101537,128,0,101793:0:0:0:0:
192,192,101537,128,0,102815:0:0:0:0:
64,192,101878,128,0,102134:0:0:0:0:
320,192,101878,128,0,103497:0:0:0:0:
64,192,102219,128,0,102475:0:0:0:0:
448,192,102219,128,0,102815:0:0:0:0:
64,192,102560,128,0,103497:0:0:0:0:
192,192,102901,128,0,103156:0:0:0:0:
448,192,102901,128,0,104861:0:0:0:0:
192,192,103242,128,0,104179:0:0:0:0:
64,192,103583,128,0,104861:0:0:0:0:
320,192,103583,128,0,103838:0:0:0:0:
320,192,103923,128,0,105543:0:0:0:0:
192,192,104264,128,0,104520:0:0:0:0:
192,192,104605,128,0,105543:0:0:0:0:
64,192,104946,128,0,105884:0:0:0:0:
448,192,104946,128,0,105202:0:0:0:0:
448,192,105287,128,0,106225:0:0:0:0:
192,192,105628,128,0,106225:0:0:0:0:
320,192,105628,128,0,105884:0:0:0:0:
64,192,105969,128,0,106225:0:0:0:0:
320,192,105969,128,0,106565:0:0:0:0:
64,192,106310,128,0,106565:0:0:0:0:
192,192,106310,128,0,107247:0:0:0:0:
448,192,106310,128,0,108952:0:0:0:0:
64,192,106651,128,0,106906:0:0:0:0:
320,192,106651,128,0,106906:0:0:0:0:
64,192,106992,128,0,107588:0:0:0:0:
320,192,106992,128,0,107247:0:0:0:0:
192,192,107333,128,0,107588:0:0:0:0:
320,192,107333,128,0,108270:0:0:0:0:
64,192,107673,128,0,108270:0:0:0:0:
192,192,107673,128,0,107929:0:0:0:0:
192,192,108014,128,0,108952:0:0:0:0:
64,192,108355,128,0,109634:0:0:0:0:
320,192,108355,128,0,108611:0:0:0:0:
320,192,108696,128,0,108952:0:0:0:0:
192,192,109037,128,0,110315:0:0:0:0:
320,192,109037,128,0,109634:0:0:0:0:
448,192,109037,128,0,109293:0:0:0:0:
448,192,109378,128,0,110315:0:0:0:0:
64,192,109719,128,0,111679:0:0:0:0:
320,192,109719,128,0,109975:0:0:0:0:
320,192,110060,128,0,110997:0:0:0:0:
192,192,110401,128,0,110997:0:0:0:0:
448,192,110401,128,0,110656:0:0:0:0:
448,192,110742,128,0,111679:0:0:0:0:
192,192,111083,128,0,111338:0:0:0:0:
320,192,111083,128,0,111679:0:0:0:0:
192,192,111423,128,0,112361:0:0:0:0:
64,192,111764,128,0,112020:0:0:0:0:
320,192,111764,128,0,113128:0:0:0:0:
448,192,111764,128,0,113128:0:0:0:0:
64,192,112105,128,0,113128:0:0:0:0:
192,192,112446,128,0,112702:0:0:0:0:
192,192,112787,128,0,113128:0:0:0:0:
