osu file format v14

[General]
AudioFilename: audio.mp3
AudioLeadIn: 0
PreviewTime: 19247
Countdown: 0
SampleSet: None
StackLeniency: 0.7
Mode: 0
LetterboxInBreaks: 0
WidescreenStoryboard: 1

[Editor]
DistanceSpacing: 1
BeatDivisor: 4
GridSize: 8
TimelineZoom: 1

[Metadata]
Title:Parom & Polom
TitleUnicode:パロム・ポロムのテーマ
Artist:Nobuo Uematsu
ArtistUnicode:植松伸夫
Creator:MoodyRPG
Version:Hard
Source:ファイナルファンタジーIV
Tags:ffiv ff4 squaresoft snes famicom super nintendo FINAL FANTASY SQUARE ENIX
BeatmapID:1103292
BeatmapSetID:519321

[Difficulty]
HPDrainRate:7
CircleSize:4
OverallDifficulty:7
ApproachRate:7
SliderMultiplier:1.7
SliderTickRate:2

[Events]
//Background and Video events
0,0,"PP.jpg",0,0
//Break Periods
//Storyboard Layer 0 (Background)
//Storyboard Layer 1 (Fail)
//Storyboard Layer 2 (Pass)
//Storyboard Layer 3 (Foreground)
//Storyboard Sound Samples

[TimingPoints]
355,524.796641301496,4,3,0,45,1,0

[Colours]
Combo1 : 255,192,0
Combo2 : 64,255,255
Combo3 : 255,128,0
Combo4 : 255,13,13

[HitObjects]
118,58,355,6,0,L|77:66,3,42.5
36,79,879,2,0,P|36:120|57:165,1,85
101,229,1404,1,0,0:0:0:0:
32,279,1666,2,0,L|18:312,3,28.3333333333333
97,340,2191,1,0,0:0:0:0:
180,321,2454,6,0,P|221:314|266:332,1,85,2|0,3:0|0:0,0:0:0:0:
339,362,2978,2,0,P|389:365|486:292,1,170,0|2,0:0|3:0,0:0:0:0:
481,213,3766,1,0,0:0:0:0:
399,189,4028,2,0,P|356:190|319:217,1,85
276,284,4553,5,2,0:0:0:0:
276,284,4684,1,0,0:0:0:0:
276,284,4815,1,0,0:0:0:0:
276,284,4946,1,0,0:0:0:0:
276,284,5078,2,0,L|177:276,1,85
120,325,5602,1,2,0:0:0:0:
43,289,5865,2,0,L|55:254,3,28.3333333333333
120,208,6390,1,0,0:0:0:0:
51,172,6652,6,0,P|79:140|118:129,1,85,2|0,3:0|0:0,0:0:0:0:
267,57,7177,2,0,P|239:89|199:101,1,85
130,49,7702,2,0,L|119:21,8,21.25,2|0|0|0|0|0|0|0|0,3:0|0:0|0:0|0:0|0:0|0:0|0:0|0:0|0:0,0:0:0:0:
165,215,8751,6,0,P|189:247|197:295,1,85,2|0,3:0|0:0,0:0:0:0:
197,290,9145,1,0,0:0:0:0:
197,290,9276,1,0,0:0:0:0:
256,351,9538,1,0,0:0:0:0:
306,292,9801,2,0,P|313:250|338:216,1,85,2|0,3:0|0:0,0:0:0:0:
400,152,10326,2,0,L|450:164,3,42.5
482,172,10850,6,0,P|502:137|502:89,1,85,2|0,0:0|0:0,0:0:0:0:
445,243,11375,2,0,P|425:278|425:326,1,85
351,366,11900,1,2,0:0:0:0:
277,323,12162,2,0,L|236:336,2,42.5
320,249,12687,1,0,0:0:0:0:
250,199,12950,6,0,P|206:198|161:174,1,85,2|0,3:0|0:0,0:0:0:0:
169,180,13343,1,0,0:0:0:0:
169,180,13474,1,0,0:0:0:0:
140,101,13737,1,0,0:0:0:0:
197,38,13999,2,0,P|241:39|286:63,1,85,2|0,0:0|0:0,0:0:0:0:
362,62,14524,2,0,L|417:56,3,42.5
446,52,15049,6,0,P|468:87|467:139,1,85,2|0,0:0|0:0,0:0:0:0:
469,254,15574,2,0,P|468:296|446:332,1,85
407,192,16098,2,0,L|223:192,1,170
37,32,17410,5,2,2:0:0:0:
0,192,17935,1,0,2:0:0:0:
37,352,18460,1,2,2:0:0:0:
37,352,18722,1,2,2:0:0:0:
204,324,19247,6,0,L|256:327,3,42.5
289,326,19772,2,0,P|312:290|311:241,1,85
281,169,20297,1,0,0:0:0:0:
203,134,20559,2,0,L|170:131,3,28.3333333333333
104,177,21084,1,0,0:0:0:0:
30,145,21346,6,0,P|58:109|95:96,1,85,2|0,3:0|0:0,0:0:0:0:
168,56,21871,2,0,P|247:75|330:24,1,170,0|2,0:0|3:0,0:0:0:0:
405,17,22658,1,0,0:0:0:0:
452,87,22921,2,0,L|439:184,1,85
417,252,23446,5,2,0:0:0:0:
417,252,23577,1,0,0:0:0:0:
417,252,23708,1,0,0:0:0:0:
417,252,23839,1,0,0:0:0:0:
417,252,23970,2,0,L|324:258,1,85
261,304,24495,1,2,0:0:0:0:
214,234,24758,2,0,L|218:191,3,28.3333333333333
160,141,25282,1,0,0:0:0:0:
94,195,25545,6,0,P|51:187|10:158,1,85,2|0,3:0|0:0,0:0:0:0:
46,84,26070,2,0,P|89:92|130:121,1,85
201,80,26594,2,0,L|236:76,8,21.25,2|0|0|0|0|0|0|0|0,3:0|0:0|0:0|0:0|0:0|0:0|0:0|0:0|0:0,0:0:0:0:
366,40,27644,6,0,P|408:42|456:65,1,85,2|0,3:0|0:0,0:0:0:0:
447,58,28038,1,0,0:0:0:0:
447,58,28169,1,0,0:0:0:0:
483,135,28431,1,0,0:0:0:0:
426,198,28694,2,0,L|424:298,1,85,2|0,0:0|0:0,0:0:0:0:
340,293,29218,2,0,L|337:335,3,42.5
304,363,29743,6,0,P|258:365|205:345,1,85,2|0,0:0|0:0,0:0:0:0:
65,299,30268,2,0,P|107:296|148:308,1,85
217,259,30793,1,2,0:0:0:0:
176,179,31055,1,0,0:0:0:0:
176,179,31186,1,0,0:0:0:0:
176,179,31318,1,0,0:0:0:0:
217,259,31580,1,0,0:0:0:0:
292,203,31842,6,0,L|391:208,1,85,2|0,3:0|0:0,0:0:0:0:
376,207,32236,1,0,0:0:0:0:
376,207,32367,1,0,0:0:0:0:
459,264,32629,1,0,0:0:0:0:
478,174,32892,2,0,P|492:133|480:83,1,85,2|0,0:0|0:0,0:0:0:0:
430,38,33417,2,0,L|386:36,3,42.5
344,34,33941,6,0,P|330:75|335:123,1,85,2|0,0:0|0:0,0:0:0:0:
167,33,34466,2,0,P|181:73|179:116,1,85
180,200,34991,2,0,P|254:235|330:198,1,170
154,366,36303,5,2,2:0:0:0:
358,366,36828,1,0,2:0:0:0:
259,227,37353,1,2,2:0:0:0:
259,227,37615,1,2,2:0:0:0:
200,66,38140,6,0,L|151:62,3,42.5
114,60,38665,2,0,P|101:103|117:152,1,85
42,193,39189,1,0,0:0:0:0:
89,262,39452,2,0,L|119:265,3,28.3333333333333
178,209,39977,1,0,0:0:0:0:
227,277,40239,6,0,P|229:321|258:365,1,85,2|0,3:0|0:0,0:0:0:0:
333,359,40764,2,0,B|375:326|414:349|459:374|496:346,1,170,0|2,0:0|3:0,0:0:0:0:
508,261,41551,1,0,0:0:0:0:
452,197,41813,2,0,L|439:101,1,85
390,43,42338,5,2,0:0:0:0:
390,43,42469,1,0,0:0:0:0:
390,43,42601,1,0,0:0:0:0:
390,43,42732,1,0,0:0:0:0:
390,43,42863,2,0,P|347:56|293:53,1,85
228,86,43388,1,2,0:0:0:0:
159,34,43650,2,0,L|125:37,3,28.3333333333333
83,107,44175,1,0,0:0:0:0:
151,157,44437,6,0,B|187:185|187:185|199:229,1,85,2|0,3:0|0:0,0:0:0:0:
361,157,44962,2,0,B|325:185|325:185|313:229,1,85
256,299,45487,2,0,L|256:336,8,21.25,2|0|0|0|0|0|0|0|0,3:0|0:0|0:0|0:0|0:0|0:0|0:0|0:0|0:0,0:0:0:0:
96,358,46537,6,0,P|54:360|7:336,1,85,2|0,3:0|0:0,0:0:0:0:
15,342,46930,1,0,0:0:0:0:
15,342,47061,1,0,0:0:0:0:
0,259,47324,1,0,0:0:0:0:
45,187,47586,2,0,P|87:185|134:209,1,85,2|0,0:0|0:0,0:0:0:0:
195,152,48111,2,0,L|251:157,3,42.5
279,161,48636,6,0,P|301:122|303:73,1,85,2|0,0:0|0:0,0:0:0:0:
247,236,49161,2,0,P|225:275|223:324,1,85
291,363,49685,1,2,0:0:0:0:
350,302,49948,1,0,0:0:0:0:
350,302,50079,1,0,0:0:0:0:
350,302,50210,1,0,0:0:0:0:
416,354,50473,1,0,0:0:0:0:
471,288,50735,6,0,P|482:246|473:197,1,85,2|0,3:0|0:0,0:0:0:0:
476,205,51129,1,0,0:0:0:0:
476,205,51260,1,0,0:0:0:0:
405,158,51522,1,0,0:0:0:0:
328,117,51785,2,0,P|323:75|334:35,1,85,2|0,0:0|0:0,0:0:0:0:
268,177,52309,2,0,L|263:224,3,42.5
256,261,52834,6,0,P|211:261|166:237,1,85,2|0,0:0|0:0,0:0:0:0:
102,199,53359,2,0,P|70:173|43:129,1,85
83,60,53884,2,0,L|254:37,1,170
256,192,54933,12,0,57033,0:0:0:0:
