osu file format v14

[General]
AudioFilename: audio.mp3
AudioLeadIn: 0
PreviewTime: 19247
Countdown: 0
SampleSet: None
StackLeniency: 0.7
Mode: 0
LetterboxInBreaks: 0
WidescreenStoryboard: 1

[Editor]
DistanceSpacing: 1.2
BeatDivisor: 4
GridSize: 4
TimelineZoom: 1

[Metadata]
Title:Parom & Polom
TitleUnicode:パロム・ポロムのテーマ
Artist:Nobuo Uematsu
ArtistUnicode:植松伸夫
Creator:MoodyRPG
Version:Normal
Source:ファイナルファンタジーIV
Tags:ffiv ff4 squaresoft snes famicom super nintendo FINAL FANTASY SQUARE ENIX
BeatmapID:1103294
BeatmapSetID:519321

[Difficulty]
HPDrainRate:5
CircleSize:4
OverallDifficulty:5
ApproachRate:5
SliderMultiplier:1.2
SliderTickRate:2

[Events]
//Background and Video events
0,0,"PP.jpg",0,0
//Break Periods
//Storyboard Layer 0 (Background)
//Storyboard Layer 1 (Fail)
//Storyboard Layer 2 (Pass)
//Storyboard Layer 3 (Foreground)
//Storyboard Sound Samples

[TimingPoints]
355,524.796641301496,4,3,0,45,1,0

[Colours]
Combo1 : 255,192,0
Combo2 : 64,255,255
Combo3 : 255,128,0
Combo4 : 255,13,13

[HitObjects]
421,333,355,6,0,L|481:340,2,60
397,190,1404,2,0,P|411:134|399:71,1,120
273,4,2454,2,0,L|200:8,1,60,2|0,3:0|0:0,0:0:0:0:
141,17,2978,2,0,P|122:70|145:147,1,120,0|2,0:0|3:0,0:0:0:0:
195,169,3766,1,0,0:0:0:0:
158,230,4028,2,0,L|25:237,1,120,0|2,0:0|0:0,0:0:0:0:
4,300,4815,5,0,0:0:0:0:
42,360,5078,1,0,0:0:0:0:
185,376,5602,2,0,P|246:372|295:328,1,120,2|0,0:0|0:0,0:0:0:0:
278,264,6390,1,0,0:0:0:0:
347,282,6652,2,0,P|375:276|405:255,1,60,2|0,3:0|0:0,0:0:0:0:
439,198,7177,2,0,P|463:181|493:175,2,60,0|0|2,0:0|0:0|3:0,0:0:0:0:
365,73,8226,1,0,0:0:0:0:
223,90,8751,6,0,P|210:146|218:209,1,120,2|0,3:0|0:0,0:0:0:0:
170,261,9538,1,0,0:0:0:0:
201,325,9801,2,0,P|175:339|141:343,1,60,2|0,0:0|0:0,0:0:0:0:
90,296,10326,2,0,P|60:300|34:314,1,60
2,248,10850,6,0,L|17:117,1,120,2|0,0:0|0:0,0:0:0:0:
25,57,11638,1,0,0:0:0:0:
91,29,11900,2,0,P|121:13|150:8,1,60,2|0,0:0|0:0,0:0:0:0:
205,52,12425,1,0,0:0:0:0:
348,57,12950,6,0,P|405:42|456:79,1,120,2|0,3:0|0:0,0:0:0:0:
441,145,13737,1,0,0:0:0:0:
484,202,13999,2,0,P|491:233|486:270,2,60,2|0|0,0:0|0:0|0:0,0:0:0:0:
441,145,14786,1,0,0:0:0:0:
390,196,15049,6,0,L|317:205,1,60,2|0,0:0|0:0,0:0:0:0:
259,214,15574,2,0,L|194:221,1,60
150,273,16098,2,0,P|126:327|157:387,1,120
292,357,17148,5,0,2:0:0:0:
359,380,17410,2,0,P|381:326|358:273,1,120,2|0,2:0|2:0,2:0:0:0:
260,155,18460,1,2,2:0:0:0:
260,155,18722,1,2,2:0:0:0:
142,68,19247,6,0,L|146:3,2,60
28,157,20297,2,0,P|11:213|25:289,1,120
141,349,21346,2,0,L|211:346,1,60,2|0,3:0|0:0,0:0:0:0:
263,310,21871,2,0,P|319:292|388:306,1,120,0|2,0:0|3:0,0:0:0:0:
427,353,22658,1,0,0:0:0:0:
478,302,22921,2,0,L|487:174,1,120,0|2,0:0|0:0,0:0:0:0:
494,110,23708,5,0,0:0:0:0:
500,38,23970,1,0,0:0:0:0:
358,67,24495,2,0,L|345:196,1,120,2|0,0:0|0:0,0:0:0:0:
378,250,25282,1,0,0:0:0:0:
336,309,25545,2,0,P|310:324|290:354,1,60,2|0,3:0|0:0,0:0:0:0:
220,347,26070,2,0,P|202:323|176:308,1,60,0|0,3:0|0:0,0:0:0:0:
208,243,26594,2,0,P|256:213|306:242,1,120,2|0,0:0|0:0,0:0:0:0:
453,201,27644,6,0,P|465:144|446:75,1,120,2|0,3:0|0:0,0:0:0:0:
394,40,28431,1,0,0:0:0:0:
338,85,28694,2,0,P|307:87|277:97,1,60,2|0,0:0|0:0,0:0:0:0:
220,136,29218,2,0,P|196:156|179:180,1,60
212,243,29743,6,0,B|253:278|299:252|346:225|387:250,1,180,2|0,0:0|0:0,0:0:0:0:
439,291,30793,2,0,L|430:353,1,60,2|0,0:0|0:0,0:0:0:0:
430,350,31318,1,0,0:0:0:0:
286,360,31842,6,0,B|223:369|169:327,1,120,2|0,3:0|0:0,0:0:0:0:
132,269,32629,1,0,0:0:0:0:
77,221,32892,2,0,L|72:156,2,60,2|0|0,0:0|0:0|0:0,0:0:0:0:
132,269,33679,1,0,0:0:0:0:
185,220,33941,6,0,P|214:214|242:204,1,60,2|0,0:0|0:0,0:0:0:0:
306,169,34466,2,0,P|335:154|359:127,1,60
354,62,34991,2,0,P|388:38|473:29,1,120
445,170,36041,5,0,2:0:0:0:
416,235,36303,2,0,P|382:259|297:268,1,120,2|0,2:0|2:0,2:0:0:0:
192,362,37353,1,2,2:0:0:0:
192,362,37615,1,2,2:0:0:0:
94,255,38140,6,0,L|30:261,2,60
199,156,39189,2,0,B|255:134|255:134|321:159,1,120
374,188,39977,1,0,0:0:0:0:
437,222,40239,6,0,L|437:294,1,60,2|0,3:0|0:0,0:0:0:0:
390,337,40764,2,0,P|347:345|304:289,1,120,0|2,0:0|0:0,0:0:0:0:
256,235,41551,1,0,0:0:0:0:
208,290,41813,2,0,P|179:339|122:337,1,120,0|2,0:0|0:0,0:0:0:0:
75,282,42601,6,0,L|75:222,1,60
23,87,43388,2,0,P|75:62|151:77,1,120,2|0,0:0|0:0,0:0:0:0:
276,37,44437,2,0,L|339:43,1,60,2|0,3:0|0:0,0:0:0:0:
384,95,44962,2,0,L|458:101,1,60
470,170,45487,2,0,B|484:228|484:228|467:298,1,120,2|0,3:0|0:0,0:0:0:0:
349,207,46537,6,0,L|223:214,1,120,2|0,3:0|0:0,0:0:0:0:
185,156,47324,1,0,0:0:0:0:
120,190,47586,2,0,P|109:219|109:253,2,60,2|0|0,0:0|0:0|0:0,0:0:0:0:
185,156,48373,1,0,0:0:0:0:
153,91,48636,6,0,P|81:58|30:129,1,180,2|0,0:0|0:0,0:0:0:0:
17,198,49685,2,0,P|20:231|29:262,1,60,2|0,0:0|0:0,0:0:0:0:
55,323,50210,1,0,0:0:0:0:
198,307,50735,6,0,P|199:248|182:188,1,120,2|0,3:0|0:0,0:0:0:0:
122,150,51522,1,0,0:0:0:0:
73,96,51785,2,0,P|61:64|57:39,2,60,2|0|0,0:0|0:0|0:0,0:0:0:0:
122,150,52572,1,0,0:0:0:0:
185,115,52834,6,0,P|217:125|249:125,1,60,2|0,0:0|0:0,0:0:0:0:
314,115,53359,2,0,P|342:112|379:122,1,60
442,136,53884,2,0,L|454:13,1,120
256,192,54933,12,0,57033,0:0:0:0:
