osu file format v14

[General]
AudioFilename: audio.mp3
AudioLeadIn: 0
PreviewTime: 19247
Countdown: 0
SampleSet: None
StackLeniency: 0.7
Mode: 0
LetterboxInBreaks: 0
WidescreenStoryboard: 1

[Editor]
DistanceSpacing: 1
BeatDivisor: 4
GridSize: 8
TimelineZoom: 1

[Metadata]
Title:Parom & Polom
TitleUnicode:パロム・ポロムのテーマ
Artist:Nobuo Uematsu
ArtistUnicode:植松伸夫
Creator:MoodyRPG
Version:Insane
Source:ファイナルファンタジーIV
Tags:ffiv ff4 squaresoft snes famicom super nintendo FINAL FANTASY SQUARE ENIX
BeatmapID:1103293
BeatmapSetID:519321

[Difficulty]
HPDrainRate:8
CircleSize:4.5
OverallDifficulty:8
ApproachRate:8
SliderMultiplier:2.1
SliderTickRate:2

[Events]
//Background and Video events
0,0,"PP.jpg",0,0
//Break Periods
//Storyboard Layer 0 (Background)
//Storyboard Layer 1 (Fail)
//Storyboard Layer 2 (Pass)
//Storyboard Layer 3 (Foreground)
//Storyboard Sound Samples

[TimingPoints]
355,524.796641301496,4,3,0,45,1,0

[Colours]
Combo1 : 255,192,0
Combo2 : 64,255,255
Combo3 : 255,128,0
Combo4 : 255,13,13

[HitObjects]
45,39,355,5,0,0:0:0:0:
50,69,486,1,0,0:0:0:0:
56,99,617,1,0,0:0:0:0:
60,130,748,1,0,0:0:0:0:
65,161,879,2,0,L|81:268,1,105
169,318,1404,1,0,0:0:0:0:
249,242,1666,2,0,L|296:257,3,35
260,127,2191,1,0,0:0:0:0:
260,127,2454,6,0,P|315:129|374:102,1,105,2|0,3:0|0:0,0:0:0:0:
469,58,2978,2,0,L|473:12,7,26.25
496,102,3503,2,0,L|491:208,1,105,2|0,3:0|0:0,0:0:0:0:
437,297,4028,2,0,L|449:338,7,26.25
413,278,4553,5,2,0:0:0:0:
380,266,4684,1,0,0:0:0:0:
348,265,4815,1,0,0:0:0:0:
317,271,4946,1,0,0:0:0:0:
288,283,5078,2,0,P|245:310|183:311,1,105
107,250,5602,1,2,0:0:0:0:
28,319,5865,2,0,L|-9:338,3,35
17,214,6390,1,0,0:0:0:0:
73,125,6652,6,0,P|52:73|50:13,1,105,2|0,3:0|0:0,0:0:0:0:
194,0,7177,2,0,P|215:52|217:112,1,105
163,190,7702,2,0,L|157:161,8,26.25,2|0|0|0|0|0|0|0|0,3:0|0:0|0:0|0:0|0:0|0:0|0:0|0:0|0:0,0:0:0:0:
304,340,8751,6,0,P|350:323|420:328,1,105,2|0,3:0|0:0,0:0:0:0:
405,323,9145,1,0,0:0:0:0:
405,323,9276,1,0,0:0:0:0:
481,251,9538,1,0,0:0:0:0:
425,161,9801,1,2,0:0:0:0:
363,75,10063,2,0,L|369:31,2,35
335,80,10326,1,0,0:0:0:0:
299,102,10457,1,0,0:0:0:0:
288,144,10588,1,0,0:0:0:0:
298,184,10719,1,0,0:0:0:0:
328,212,10850,6,0,L|316:324,1,105,2|0,0:0|0:0,0:0:0:0:
181,263,11375,2,0,L|170:368,2,105,0|0|2,0:0|0:0|0:0,0:0:0:0:
85,219,12162,1,0,0:0:0:0:
85,219,12294,1,0,0:0:0:0:
85,219,12425,1,0,0:0:0:0:
51,119,12687,1,0,0:0:0:0:
13,27,12950,6,0,P|63:4|116:12,1,105,2|0,3:0|0:0,0:0:0:0:
111,10,13343,1,0,0:0:0:0:
111,10,13474,1,0,0:0:0:0:
215,9,13737,1,0,0:0:0:0:
267,100,13999,1,2,0:0:0:0:
206,185,14262,2,0,L|188:156,2,35
239,196,14524,1,0,0:0:0:0:
261,224,14655,1,0,0:0:0:0:
264,260,14786,1,0,0:0:0:0:
247,292,14918,1,0,0:0:0:0:
222,325,15049,6,0,P|265:354|332:345,1,105,2|0,0:0|0:0,0:0:0:0:
280,91,15574,2,0,P|332:90|375:118,1,105
402,242,16098,2,0,L|193:185,1,210
81,40,17148,5,0,2:0:0:0:
14,120,17410,2,0,L|23:234,1,105,2|0,2:0|2:0,2:0:0:0:
121,347,17935,2,0,L|139:237,1,105,2|0,2:0|2:0,2:0:0:0:
221,179,18460,1,2,2:0:0:0:
286,260,18722,2,2,L|321:263,7,26.25,2|2|2|2|2|2|2|2,2:0|2:0|2:0|2:0|2:0|2:0|2:0|2:0,2:0:0:0:
338,258,19247,5,0,0:0:0:0:
368,249,19378,1,0,0:0:0:0:
394,232,19510,1,0,0:0:0:0:
417,210,19641,1,0,0:0:0:0:
439,187,19772,2,0,L|464:84,1,105
387,13,20297,1,0,0:0:0:0:
299,70,20559,2,0,L|265:68,3,35
349,147,21084,1,0,0:0:0:0:
390,325,21346,6,0,P|406:275|402:224,1,105,2|0,3:0|0:0,0:0:0:0:
349,147,21871,2,0,L|368:119,7,26.25
312,180,22396,2,0,L|205:165,1,105,2|0,3:0|0:0,0:0:0:0:
129,96,22921,2,0,L|116:62,7,26.25
102,52,23446,5,2,0:0:0:0:
71,42,23577,1,0,0:0:0:0:
40,49,23708,1,0,0:0:0:0:
16,69,23839,1,0,0:0:0:0:
6,98,23970,2,0,L|31:204,1,105
15,304,24495,1,2,0:0:0:0:
114,336,24758,2,0,L|108:377,3,35
227,335,25282,1,0,0:0:0:0:
227,335,25545,6,0,P|260:295|314:272,1,105,2|0,3:0|0:0,0:0:0:0:
512,248,26070,2,0,P|463:231|412:237,1,105
384,343,26594,2,0,L|397:376,8,26.25,2|0|0|0|0|0|0|0|0,3:0|0:0|0:0|0:0|0:0|0:0|0:0|0:0|0:0,0:0:0:0:
276,68,27644,6,0,L|317:173,1,105,2|0,3:0|0:0,0:0:0:0:
314,165,28038,1,0,0:0:0:0:
314,165,28169,1,0,0:0:0:0:
408,120,28431,1,0,0:0:0:0:
488,188,28694,1,2,0:0:0:0:
462,289,28956,2,0,L|475:341,2,35
420,278,29218,1,0,0:0:0:0:
385,253,29350,1,0,0:0:0:0:
371,213,29481,1,0,0:0:0:0:
377,171,29612,1,0,0:0:0:0:
396,133,29743,6,0,P|342:121|283:124,1,105,2|0,0:0|0:0,0:0:0:0:
137,262,30268,2,0,P|191:274|250:271,2,105,0|0|2,0:0|0:0|0:0,0:0:0:0:
46,315,31055,1,0,0:0:0:0:
46,315,31186,1,0,0:0:0:0:
46,315,31318,1,0,0:0:0:0:
137,262,31580,1,0,0:0:0:0:
95,164,31842,6,0,P|44:165|6:199,1,105,2|0,3:0|0:0,0:0:0:0:
6,199,32236,1,0,0:0:0:0:
6,199,32367,1,0,0:0:0:0:
176,97,32629,2,0,P|228:96|266:62,1,105,0|2,3:0|0:0,0:0:0:0:
367,37,33154,2,0,L|372:-5,2,35
391,63,33417,1,0,0:0:0:0:
405,102,33548,1,0,0:0:0:0:
397,143,33679,1,0,0:0:0:0:
372,177,33810,1,0,0:0:0:0:
335,197,33941,6,0,P|365:239|371:305,1,105,2|0,0:0|0:0,0:0:0:0:
158,255,34466,2,0,P|165:306|196:348,1,105
294,359,34991,2,0,L|224:156,1,210
256,50,36041,5,0,2:0:0:0:
197,236,36303,2,0,P|144:250|81:234,1,105,2|0,2:0|2:0,2:0:0:0:
315,148,36828,2,0,P|368:134|431:150,1,105,2|0,2:0|2:0,2:0:0:0:
490,217,37353,1,2,2:0:0:0:
463,54,37615,2,2,L|475:9,7,26.25,2|2|2|2|2|2|2|2,2:0|2:0|2:0|2:0|2:0|2:0|2:0|2:0,2:0:0:0:
436,71,38140,5,0,0:0:0:0:
405,79,38271,1,0,0:0:0:0:
373,77,38402,1,0,0:0:0:0:
342,68,38533,1,0,0:0:0:0:
313,55,38665,2,0,P|261:39|202:42,1,105
111,6,39189,1,0,0:0:0:0:
47,89,39452,2,0,L|0:87,3,35
46,207,39977,1,0,0:0:0:0:
46,207,40239,6,0,P|29:256|36:307,1,105,2|0,3:0|0:0,0:0:0:0:
138,331,40764,2,0,L|143:356,7,26.25
163,285,41289,2,0,P|214:273|268:302,1,105,2|0,3:0|0:0,0:0:0:0:
355,338,41813,2,0,L|350:374,7,26.25
358,317,42338,5,2,0:0:0:0:
362,285,42469,1,0,0:0:0:0:
366,253,42601,1,0,0:0:0:0:
370,221,42732,1,0,0:0:0:0:
375,189,42863,2,0,L|387:78,1,105
454,5,43388,1,2,0:0:0:0:
474,110,43650,2,0,L|524:115,3,35
477,213,44175,1,0,0:0:0:0:
426,286,44437,6,0,P|382:287|318:321,1,105,2|0,3:0|0:0,0:0:0:0:
86,285,44962,2,0,P|138:288|184:312,1,105
256,207,45487,2,0,L|256:161,8,26.25,2|0|0|0|0|0|0|0|0,3:0|0:0|0:0|0:0|0:0|0:0|0:0|0:0|0:0,0:0:0:0:
307,29,46537,6,0,B|254:40|254:40|204:27,1,105,2|0,3:0|0:0,0:0:0:0:
204,27,46930,1,0,0:0:0:0:
204,27,47061,1,0,0:0:0:0:
15,61,47324,2,0,B|65:48|65:48|118:59,1,105,0|2,0:0|0:0,0:0:0:0:
205,115,47849,2,0,L|251:107,2,35
172,128,48111,1,0,0:0:0:0:
147,161,48242,1,0,0:0:0:0:
147,202,48373,1,0,0:0:0:0:
166,238,48505,1,0,0:0:0:0:
134,265,48636,6,0,P|82:271|31:256,1,105,2|0,0:0|0:0,0:0:0:0:
220,325,49161,1,0,0:0:0:0:
249,224,49423,1,0,0:0:0:0:
220,325,49685,1,2,0:0:0:0:
249,224,49948,2,0,L|225:170,2,52.5
336,281,50473,1,0,0:0:0:0:
421,219,50735,6,0,P|462:254|484:300,1,105,2|0,3:0|0:0,0:0:0:0:
483,299,51129,1,0,0:0:0:0:
483,299,51260,1,0,0:0:0:0:
356,164,51522,2,0,P|311:133|262:126,1,105,0|2,0:0|0:0,0:0:0:0:
179,60,52047,2,0,L|186:16,2,35
144,64,52309,1,0,0:0:0:0:
107,89,52441,1,0,0:0:0:0:
93,129,52572,1,0,0:0:0:0:
103,169,52703,1,0,0:0:0:0:
126,204,52834,6,0,L|116:312,1,105,2|0,0:0|0:0,0:0:0:0:
386,204,53359,2,0,L|396:312,1,105
256,329,53884,2,0,L|256:112,1,210
256,192,54933,12,0,57033,0:0:0:0:
